osu file format v14

[General]
AudioFilename: audio.mp3
AudioLeadIn: 0
PreviewTime: 11294
Countdown: 0
SampleSet: Normal
StackLeniency: 0.9
Mode: 0
LetterboxInBreaks: 0
WidescreenStoryboard: 1

[Editor]
DistanceSpacing: 0.8
BeatDivisor: 8
GridSize: 4
TimelineZoom: 3.499999

[Metadata]
Title:Desperado
TitleUnicode:Desperado
Artist:Novacore
ArtistUnicode:Novacore
Creator:uneskladovae
Version:Hard
Source:
Tags:electronic instrumental dubstep newgrounds geometry dash
BeatmapID:1609860
BeatmapSetID:765695

[Difficulty]
HPDrainRate:4
CircleSize:3.5
OverallDifficulty:6
ApproachRate:7
SliderMultiplier:2.7
SliderTickRate:2

[Events]
//Background and Video events
0,0,"ooff.jpg",0,0
//Break Periods
//Storyboard Layer 0 (Background)
//Storyboard Layer 1 (Fail)
//Storyboard Layer 2 (Pass)
//Storyboard Layer 3 (Foreground)
//Storyboard Sound Samples

[TimingPoints]
58,705.882352941176,4,1,0,100,1,0
11294,-142.857142857143,4,1,0,50,0,0
33882,-111.111111111111,4,1,0,60,0,0
40941,-111.111111111111,4,1,0,80,0,0
45176,-90.9090909090909,4,1,0,100,0,1
56465,-90.9090909090909,4,1,0,100,0,0
56470,-90.9090909090909,4,1,0,100,0,1
67759,-90.9090909090909,4,1,0,100,0,0
67764,-90.9090909090909,4,1,0,100,0,1
79054,-90.9090909090909,4,1,0,100,0,0
79058,-90.9090909090909,4,1,0,100,0,1
88941,-90.9090909090909,4,1,0,100,0,0

[HitObjects]
252,320,10999,5,0,3:0:0:0:
252,320,11352,2,0,B|208:176|208:176|368:212|368:212|324:272,1,377.999988464356,8|0,3:0|3:0,3:0:0:0:
330,263,13822,5,0,3:0:0:0:
330,263,14175,2,0,B|270:243|270:243|306:175|306:175|238:187|238:187|158:167,1,283.499991348267,8|0,3:0|3:0,3:0:0:0:
400,100,15587,1,8,3:0:0:0:
400,100,15940,2,8,L|384:200,2,94.4999971160889,8|8|8,3:0|3:0|3:0,3:0:0:0:
312,64,16822,1,0,3:0:0:0:
224,80,16999,6,0,B|256:136|256:136|312:148|312:148|272:240|272:240|326:293,1,283.499991348267,12|0,3:0|3:0,3:0:0:0:
108,304,18410,6,0,B|132:252|132:252|116:172|116:172|196:200|196:200|184:268,1,283.499991348267,8|0,3:0|3:0,3:0:0:0:
344,312,19822,6,0,B|308:116|308:116|376:180,1,283.499991348267,8|0,3:0|3:0,3:0:0:0:
164,104,21234,1,8,3:0:0:0:
164,104,21587,2,8,L|152:204,2,94.4999971160889,8|8|8,3:0|3:0|3:0,3:0:0:0:
256,68,22469,1,0,3:0:0:0:
340,116,22646,6,0,B|304:172|304:172|456:200|456:200|432:124,1,283.499991348267,12|0,3:0|3:0,3:0:0:0:
200,176,24057,6,0,B|236:232|236:232|232:316|232:316|284:280|284:280|352:296,1,283.499991348267,8|0,3:0|3:0,3:0:0:0:
400,112,25469,6,0,B|480:164|480:164|376:152|376:152|288:168,1,283.499991348267,8|0,3:0|3:0,3:0:0:0:
64,204,26881,1,8,3:0:0:0:
64,204,27234,2,8,L|168:184,2,94.4999971160889,8|8|8,3:0|3:0|3:0,3:0:0:0:
104,108,28116,1,0,3:0:0:0:
60,20,28293,6,0,B|152:24|152:24|220:8|220:8|244:84|244:84|280:44|280:44|372:72,1,377.999988464356,12|0,3:0|3:0,3:0:0:0:
358,68,30763,5,8,3:0:0:0:
358,68,31116,2,0,B|348:140|348:140|380:220|380:220|300:252|300:252|272:304,1,283.499991348267,8|0,3:0|3:0,3:0:0:0:
124,204,32528,1,8,3:0:0:0:
124,204,32881,2,8,L|136:312,2,94.4999971160889,8|8|8,3:0|3:0|3:0,3:0:0:0:
216,237,33763,1,0,3:0:0:0:
304,241,33940,6,0,P|348:209|348:137,1,121.499996292114,4|0,3:2|3:0,3:0:0:0:
160,172,34646,2,0,P|212:144|266:166,1,121.499996292114,8|0,3:0|3:0,3:0:0:0:
272,329,35352,2,0,P|222:297|213:239,1,121.499996292114,8|0,3:0|3:0,3:0:0:0:
318,120,36057,6,0,L|302:256,1,121.499996292114,8|0,3:0|3:0,3:0:0:0:
128,240,36763,2,0,L|113:119,1,121.499996292114,12|0,3:0|2:0,2:0:0:0:
216,96,37293,1,0,3:0:0:0:
298,160,37469,2,0,L|286:228,1,60.7499981460572,12|0,3:0|3:0,3:0:0:0:
402,128,37822,2,0,L|391:68,1,60.7499981460572,0|0,3:0|2:0,2:0:0:0:
318,120,38175,6,0,L|344:260,1,121.499996292114,12|0,3:0|2:0,3:0:0:0:
304,337,38705,1,0,3:0:0:0:
288,333,38793,1,0,3:0:0:0:
272,328,38881,2,0,L|208:304,1,60.7499981460572,12|0,3:0|2:0,3:0:0:0:
89,266,39234,2,0,L|145:244,1,60.7499981460572,0|0,2:0|2:0,2:0:0:0:
254,192,39587,5,8,3:0:0:0:
354,219,39763,1,8,3:0:0:0:
318,120,39940,1,8,3:2:0:0:
174,164,40116,1,8,3:0:0:0:
226,268,40293,6,0,P|266:272|306:252,1,60.7499981460572,8|0,3:0|3:0,3:0:0:0:
146,244,40646,2,0,P|142:284|162:324,1,60.7499981460572,8|0,3:2|3:0,3:0:0:0:
254,192,40999,2,0,P|254:148|246:112,1,60.7499981460572,8|0,3:0|3:0,3:0:0:0:
232,44,41352,1,8,3:2:0:0:
340,24,41528,1,8,3:0:0:0:
332,108,41705,2,0,P|344:152|364:176,1,60.7499981460572,8|0,3:0|3:0,3:0:0:0:
416,220,42057,2,8,P|404:264|384:288,1,60.7499981460572,8|8,3:2|3:2,3:2:0:0:
316,312,42410,6,0,L|272:292,14,30.3749990730286,0|0|0|0|0|0|0|0|0|0|0|0|0|0|0,3:0|3:0|3:0|3:0|3:0|3:0|3:0|3:0|3:0|3:0|3:0|3:0|3:0|3:0|3:0,3:0:0:0:
256,192,43822,12,0,44881,3:0:0:0:
116,304,45234,6,0,B|188:328|240:304|240:304|244:332|244:332|292:304|336:304,1,222.750006797791,4|0,3:2|3:0,3:0:0:0:
392,280,45940,2,0,P|396:236|376:192,1,74.2500022659302,2|0,3:2|3:0,3:0:0:0:
300,228,46293,2,0,P|289:192|294:155,1,74.2500022659302,2|0,3:2|3:0,3:0:0:0:
380,112,46646,5,2,3:2:0:0:
240,84,46822,1,2,3:2:0:0:
188,12,46999,1,2,3:2:0:0:
324,44,47175,1,2,3:2:0:0:
234,156,47352,6,8,P|230:116|243:76,1,74.2500022659302,8|8,3:0|3:0,3:0:0:0:
380,112,47705,2,8,P|340:128|300:116,1,74.2500022659302,8|8,3:0|3:0,3:0:0:0:
448,56,48057,2,0,B|472:92|468:136|452:164|452:164|472:192|472:192|412:208|384:236,1,222.750006797791,4|0,3:2|3:0,3:0:0:0:
320,316,48763,6,0,P|332:272|316:228,1,74.2500022659302,8|8,3:0|3:0,3:0:0:0:
296,168,49116,2,0,P|273:128|172:116,1,148.50000453186,8|8,3:0|3:0,3:0:0:0:
160,348,49822,1,8,3:0:0:0:
192,268,49999,1,8,3:0:0:0:
248,334,50175,6,0,L|324:314,1,74.2500022659302,8|0,3:0|3:0,3:0:0:0:
375,217,50528,2,0,L|304:236,1,74.2500022659302,8|0,3:0|3:0,3:0:0:0:
228,188,50881,2,0,B|260:144|316:148|316:148|328:112|328:112|372:128|424:100,1,222.750006797791,4|0,3:2|3:0,3:0:0:0:
364,32,51587,5,2,3:2:0:0:
264,48,51763,1,2,3:2:0:0:
184,104,51940,1,2,3:2:0:0:
88,100,52116,1,2,3:2:0:0:
96,256,52293,6,0,P|86:208|96:182,1,74.2500022659302,2|0,3:2|3:0,3:0:0:0:
180,248,52646,2,0,P|186:284|174:318,1,74.2500022659302,2|0,3:2|3:0,3:0:0:0:
328,248,52999,6,8,P|282:266|267:289,1,74.2500022659302,8|8,3:0|3:0,3:0:0:0:
337,329,53352,2,8,P|372:319|398:293,1,74.2500022659302,8|8,3:0|3:0,3:0:0:0:
408,192,53705,2,0,B|384:156|316:136|280:196|212:188|176:144,1,222.750006797791,4|0,3:2|3:0,3:0:0:0:
140,96,54410,6,8,P|140:56|160:24,1,74.2500022659302,8|8,3:0|3:0,3:0:0:0:
248,20,54763,2,8,P|300:44|388:20,1,148.50000453186,8|8,3:0|3:0,3:0:0:0:
140,8,55470,1,8,3:0:0:0:
140,96,55646,1,8,3:0:0:0:
204,160,55822,6,8,P|260:132|344:156,2,148.50000453186,8|8|12,3:0|3:0|3:0,3:0:0:0:
304,300,56881,1,8,3:0:0:0:
420,124,57234,2,0,P|420:168|384:216,1,74.2500022659302,2|0,3:2|3:0,3:0:0:0:
339,152,57587,2,0,P|324:185|326:222,1,74.2500022659302,2|0,3:2|3:0,3:0:0:0:
368,356,57940,5,2,3:2:0:0:
388,276,58116,1,2,3:2:0:0:
240,220,58293,1,2,3:2:0:0:
260,300,58469,1,2,3:2:0:0:
240,220,58646,6,8,L|156:240,1,74.2500022659302,8|8,3:0|3:0,3:0:0:0:
232,128,58999,2,8,L|316:148,1,74.2500022659302,8|8,3:0|3:0,3:0:0:0:
332,224,59352,2,0,B|332:280|396:284|396:284|404:248|404:248|436:260|436:260|448:256|476:224|468:216,1,222.750006797791,4|0,3:2|3:0,3:0:0:0:
456,128,60057,6,8,P|432:76|392:64,1,74.2500022659302,8|8,3:0|3:0,3:0:0:0:
328,76,60410,2,8,P|312:128|224:168,1,148.50000453186,8|8,3:0|3:0,3:0:0:0:
0,128,61116,1,8,3:0:0:0:
96,104,61293,1,8,3:0:0:0:
80,256,61469,6,0,L|64:176,1,74.2500022659302,8|0,3:0|3:0,3:0:0:0:
152,312,61822,2,0,L|168:232,1,74.2500022659302,8|0,3:0|3:0,3:0:0:0:
224,368,62175,2,0,B|244:320|244:320|300:336|348:328|320:264|424:268,1,222.750006797791,4|0,3:2|3:0,3:0:0:0:
488,320,62881,5,2,3:2:0:0:
404,352,63057,1,2,3:2:0:0:
428,196,63234,1,2,3:2:0:0:
512,228,63410,1,2,3:2:0:0:
368,276,63587,6,0,P|336:232|340:192,1,74.2500022659302,2|0,3:2|3:0,3:0:0:0:
332,128,63940,2,0,P|305:80|267:67,1,74.2500022659302,2|0,3:2|3:0,3:0:0:0:
180,168,64293,6,8,P|209:146|246:143,1,74.2500022659302,8|8,3:0|3:0,3:0:0:0:
240,232,64646,2,8,P|210:253|173:256,1,74.2500022659302,8|8,3:0|3:0,3:0:0:0:
88,204,64999,2,0,B|104:164|76:120|76:120|104:120|104:120|84:56|144:24,1,222.750006797791,4|0,3:2|3:0,3:0:0:0:
280,52,65705,6,8,P|220:60|196:96,1,74.2500022659302,8|8,3:0|3:0,3:0:0:0:
344,108,66057,2,0,P|367:52|347:13,1,74.2500022659302,8|0,3:0|3:0,3:0:0:0:
264,136,66410,2,0,P|300:183|344:186,1,74.2500022659302,8|0,3:0|3:0,3:0:0:0:
400,172,66763,5,8,3:0:0:0:
404,176,66940,1,8,3:0:0:0:
384,264,67116,2,8,L|376:300,2,37.1250011329651,8|8|8,3:0|3:0|3:0,3:0:0:0:
472,236,67469,5,12,3:0:0:0:
232,184,67822,2,0,L|248:268,1,74.2500022659302,4|0,3:2|3:0,3:0:0:0:
320,184,68175,2,0,L|333:111,1,74.2500022659302,8|0,3:0|3:0,3:0:0:0:
236,92,68528,5,8,3:0:0:0:
152,132,68705,1,8,3:0:0:0:
160,40,68881,2,0,P|200:12|248:12,1,74.2500022659302,12|0,3:0|3:0,3:0:0:0:
312,39,69234,2,0,P|340:79|340:127,1,74.2500022659302,8|0,3:0|3:0,3:0:0:0:
320,184,69587,6,0,P|316:228|352:260,1,74.2500022659302,8|0,3:0|3:0,3:0:0:0:
420,280,69940,2,0,B|376:352|300:332|300:332|272:352|272:352|248:320|200:332,1,222.750006797791,4|0,3:2|3:0,3:0:0:0:
144,308,70646,2,0,P|156:256|140:212,1,74.2500022659302,8|0,3:0|3:0,3:0:0:0:
160,96,70999,5,2,3:2:0:0:
208,168,71175,1,2,3:2:0:0:
304,144,71352,2,0,L|288:234,1,74.2500022659302,2|0,3:2|3:0,3:0:0:0:
404,104,71705,2,0,L|380:193,1,74.2500022659302,2|0,3:2|3:0,3:0:0:0:
424,336,72057,5,2,3:2:0:0:
376,264,72234,1,2,3:2:0:0:
323,333,72410,1,2,3:2:0:0:
291,217,72587,1,2,3:2:0:0:
224,288,72763,2,0,L|204:204,1,74.2500022659302,2|0,3:2|3:0,3:0:0:0:
116,340,73116,2,0,L|136:256,1,74.2500022659302,2|0,3:2|3:0,3:0:0:0:
40,280,73469,5,8,3:0:0:0:
12,188,73646,1,0,3:0:0:0:
32,100,73822,2,0,P|52:64|88:44,1,74.2500022659302,8|0,3:0|3:0,3:0:0:0:
176,48,74175,2,8,P|212:68|232:104,1,74.2500022659302,8|8,3:0|3:0,3:0:0:0:
264,176,74528,2,0,P|284:206|317:223,1,74.2500022659302,12|0,3:0|3:0,3:0:0:0:
404,212,74881,5,8,3:0:0:0:
456,284,75057,1,0,3:0:0:0:
372,300,75234,2,0,P|327:310|294:350,1,74.2500022659302,8|0,3:0|3:0,3:0:0:0:
208,336,75587,2,0,B|220:276|180:224|196:152|228:156|252:188|244:252|208:264,1,222.750006797791,4|0,3:2|3:0,3:0:0:0:
116,220,76293,6,0,L|104:132,1,74.2500022659302,8|0,3:0|3:0,3:0:0:0:
232,96,76646,1,2,3:2:0:0:
144,64,76822,1,2,3:2:0:0:
324,56,76999,2,0,L|316:144,1,74.2500022659302,2|0,3:2|3:0,3:0:0:0:
408,8,77352,2,0,L|416:96,1,74.2500022659302,2|0,3:2|3:0,3:0:0:0:
392,248,77705,5,8,3:0:0:0:
408,164,77881,1,8,3:0:0:0:
332,308,78057,1,8,3:0:0:0:
313,226,78233,1,8,3:0:0:0:
216,352,78410,6,8,L|232:200,2,148.50000453186,12|8|12,3:0|3:0|3:0,3:0:0:0:
152,144,79469,2,0,P|144:196|160:240,1,74.2500022659302,8|0,3:0|3:0,3:0:0:0:
236,188,79822,1,8,3:0:0:0:
313,226,79999,1,8,3:0:0:0:
388,184,80175,6,0,P|348:152|292:148,1,74.2500022659302,12|0,3:0|3:0,3:0:0:0:
324,304,80528,2,0,P|371:284|402:237,1,74.2500022659302,8|0,3:0|3:0,3:0:0:0:
232,272,80881,2,0,L|244:364,1,74.2500022659302,8|0,3:0|3:0,3:0:0:0:
148,308,81234,2,0,B|128:268|88:264|88:264|128:236|128:236|112:188|128:136,1,222.750006797791,4|0,3:2|3:0,3:0:0:0:
180,60,81940,2,0,P|204:96|244:104,1,74.2500022659302,8|0,3:0|3:0,3:0:0:0:
328,104,82293,5,2,3:2:0:0:
288,184,82470,1,2,3:2:0:0:
264,24,82646,2,0,L|360:12,1,74.2500022659302,2|0,3:2|3:0,3:0:0:0:
420,76,82999,2,0,L|408:172,1,74.2500022659302,2|0,3:2|3:0,3:0:0:0:
484,292,83352,5,2,3:2:0:0:
396,232,83528,1,2,3:2:0:0:
400,320,83705,1,2,3:2:0:0:
484,192,83881,1,2,3:2:0:0:
288,184,84057,6,0,L|304:268,1,74.2500022659302,2|0,3:2|3:0,3:0:0:0:
364,152,84410,2,0,L|377:79,1,74.2500022659302,2|0,3:2|3:0,3:0:0:0:
276,92,84763,5,8,3:0:0:0:
276,92,84940,1,0,3:0:0:0:
312,12,85116,2,0,P|244:4|216:24,1,74.2500022659302,8|0,3:0|3:0,3:0:0:0:
184,68,85469,2,8,P|176:136|196:164,1,74.2500022659302,8|8,3:0|3:0,3:0:0:0:
212,216,85822,2,0,P|220:284|200:312,1,74.2500022659302,12|0,3:0|3:0,3:0:0:0:
156,348,86175,5,8,3:0:0:0:
136,260,86352,1,0,3:0:0:0:
308,268,86528,2,0,L|296:344,1,74.2500022659302,8|0,3:0|3:0,3:0:0:0:
384,320,86881,2,0,P|402:275|279:188,1,222.750006797791,4|0,3:2|3:0,3:0:0:0:
212,216,87587,2,0,P|204:168|216:128,1,74.2500022659302,8|0,3:0|3:0,3:0:0:0:
244,8,87940,5,2,3:2:0:0:
284,88,88116,1,2,3:2:0:0:
360,44,88293,2,0,P|376:92|360:136,1,74.2500022659302,2|0,3:2|3:0,3:0:0:0:
324,244,88646,2,0,P|308:196|324:152,1,74.2500022659302,2|0,3:2|3:0,3:0:0:0:
416,256,88999,5,8,3:0:0:0:
344,332,89175,1,8,3:0:0:0:
248,304,89352,1,8,3:0:0:0:
172,340,89528,2,0,P|156:292|180:252,1,74.2500022659302,8|12,3:0|3:0,3:0:0:0:
200,108,89969,6,0,L|192:148,1,37.1250011329651,8|8,3:0|3:0,3:0:0:0:
288,112,90234,1,8,3:0:0:0:
248,36,90410,1,4,3:2:0:0:
