osu file format v14

[General]
AudioFilename: audio.mp3
AudioLeadIn: 0
PreviewTime: 50644
Countdown: 1
SampleSet: Normal
StackLeniency: 0.7
Mode: 0
LetterboxInBreaks: 0
CountdownOffset: 1
WidescreenStoryboard: 1

[Editor]
Bookmarks: 17960,38012,47486,51749,71881,82065,86644,87196
DistanceSpacing: 1.5
BeatDivisor: 4
GridSize: 8
TimelineZoom: 1

[Metadata]
Title:Clattanoia
TitleUnicode:Clattanoia
Artist:OxT (Masayoshi Oishi x Tom-H@ck)
ArtistUnicode:OxT(???????? × Tom-H@ck)
Creator:pacsu
Version:Helium's Insane
Source:overlord
Tags:Overlord Opening TV Size -Helium-
BeatmapID:1257843
BeatmapSetID:476663

[Difficulty]
HPDrainRate:6
CircleSize:4
OverallDifficulty:7.4
ApproachRate:9
SliderMultiplier:1.3
SliderTickRate:1

[Events]
//Background and Video events
0,0,"655515.jpg",0,0
//Break Periods
//Storyboard Layer 0 (Background)
//Storyboard Layer 1 (Fail)
//Storyboard Layer 2 (Pass)
//Storyboard Layer 3 (Foreground)
//Storyboard Sound Samples

[TimingPoints]
118,315.789473684211,4,1,0,40,1,0
2486,-100,4,1,0,40,0,1
7381,-100,4,1,0,40,0,0
27591,-83.3333333333333,4,1,0,40,0,0
32960,-74.0740740740741,4,1,0,40,0,0
38012,-100,4,1,0,40,0,0
47486,-66.6666666666667,4,1,0,40,0,0
47723,-66.6666666666667,4,1,0,5,0,0
47802,-66.6666666666667,4,1,0,40,0,0
48039,-66.6666666666667,4,1,0,5,0,0
48118,-66.6666666666667,4,1,0,40,0,0
48354,-66.6666666666667,4,1,0,5,0,0
48433,-66.6666666666667,4,1,0,40,0,0
48670,-66.6666666666667,4,1,0,5,0,0
48749,-66.6666666666667,4,1,0,40,0,0
51749,-100,4,1,0,40,0,1
56802,-66.6666666666667,4,1,0,40,0,1
57591,-100,4,1,0,40,0,1
58065,-66.6666666666667,4,1,0,40,0,1
71881,-66.6666666666667,4,1,0,40,0,0
82065,-66.6666666666667,4,1,0,40,0,1
87196,-66.6666666666667,4,1,0,40,0,0

[Colours]
Combo1 : 222,226,75
Combo2 : 235,32,10
Combo3 : 153,174,249
Combo4 : 94,233,86

[HitObjects]
166,125,118,5,0,0:0:0:0:
166,125,275,2,0,L|224:157,1,65
317,160,591,1,0,0:0:0:0:
396,77,749,1,0,0:0:0:0:
471,159,907,1,0,0:0:0:0:
396,241,1065,1,0,0:0:0:0:
465,309,1223,2,0,B|424:335|413:352|413:352|394:332|342:322,1,130
86,65,2486,6,0,P|165:44|236:59,1,130
160,141,2960,2,0,P|176:228|213:272,2,130
309,194,3907,2,0,P|375:170|409:102,1,130
206,59,4539,2,0,P|173:83|163:115,1,65
251,161,5012,6,0,P|321:154|383:93,1,130
277,78,5486,2,0,P|195:88|163:121,1,130
182,211,6118,2,0,P|215:276|295:288,1,130
408,185,6749,1,0,0:0:0:0:
273,69,7065,1,0,0:0:0:0:
175,99,7223,1,0,0:0:0:0:
254,157,7539,2,0,P|275:86|189:5,1,195
111,74,8170,6,0,P|95:104|103:143,2,65
332,86,8802,2,0,P|346:123|341:166,2,65
291,214,9433,2,0,P|348:234|373:222,1,65
403,153,9749,2,0,P|405:94|388:69,1,65
307,35,10065,6,0,P|248:59|217:120,1,130
320,135,10539,1,0,0:0:0:0:
168,73,10696,2,0,P|154:35|176:10,2,65
345,183,11328,2,0,P|386:162|385:132,2,65
143,128,11960,6,0,P|88:118|64:142,1,65
72,227,12275,2,0,P|114:238|157:228,1,65
193,180,12591,2,0,P|220:231|170:300,1,130
268,118,13223,2,0,P|299:87|340:85,2,65
402,276,13854,2,0,P|442:238|440:216,2,65
213,185,14486,6,0,P|247:154|276:144,1,65
368,157,14802,2,0,P|406:182|425:225,1,65
370,292,15118,2,0,P|304:314|234:268,1,130
241,82,15749,2,0,P|269:44|304:34,2,65
438,151,16381,2,0,P|449:97|430:75,2,65
283,290,17012,2,0,P|234:298|207:269,1,65
108,195,17328,2,0,P|137:172|180:167,1,65
109,270,17644,2,0,P|53:246|40:221,1,65
86,131,17960,5,0,0:0:0:0:
200,106,18118,1,0,0:0:0:0:
291,177,18275,1,0,0:0:0:0:
200,207,18433,2,0,P|138:203|117:185,1,65
200,106,18749,2,0,P|229:137|240:181,1,65
119,152,19065,2,0,P|142:105|173:83,1,65
265,71,19381,2,0,P|316:88|342:118,1,65
374,177,19696,2,0,P|368:232|342:258,1,65
363,238,20012,5,0,0:0:0:0:
242,258,20170,1,0,0:0:0:0:
113,255,20328,1,0,0:0:0:0:
183,73,20644,1,0,0:0:0:0:
242,299,20960,2,0,P|187:282|180:259,1,65
48,224,21275,1,0,0:0:0:0:
43,93,21433,1,0,0:0:0:0:
43,93,21591,6,0,P|106:74|118:82,1,65
210,110,21907,1,0,0:0:0:0:
85,184,22065,1,0,0:0:0:0:
145,83,22223,2,0,P|210:41|236:177,1,260
130,157,23012,5,0,0:0:0:0:
210,71,23170,1,0,0:0:0:0:
247,181,23328,1,0,0:0:0:0:
163,262,23486,2,0,P|120:226|116:190,1,65
210,71,23802,2,0,P|252:61|297:85,1,65
352,222,24118,5,0,0:0:0:0:
432,138,24275,1,0,0:0:0:0:
462,251,24433,2,0,P|406:285|326:289,1,130
365,138,24907,2,0,B|408:116|407:113|406:15,2,130
248,144,25696,1,0,0:0:0:0:
323,54,25854,1,0,0:0:0:0:
352,167,26012,2,0,B|328:184|328:184|328:208|328:208|304:224|304:224|304:248|304:248|280:264,1,130
194,172,26486,1,0,0:0:0:0:
165,67,26644,5,0,0:0:0:0:
165,67,26723,1,0,0:0:0:0:
165,67,26802,2,0,P|214:85|239:74,1,65
303,24,27118,2,0,P|352:21|390:45,1,65
441,115,27433,1,0,0:0:0:0:
430,218,27591,5,0,0:0:0:0:
406,229,27670,1,0,0:0:0:0:
380,231,27749,1,0,0:0:0:0:
355,223,27828,1,0,0:0:0:0:
332,210,27907,1,0,0:0:0:0:
220,112,28065,5,0,0:0:0:0:
368,120,28223,2,0,P|314:153|265:163,1,77.999997619629
308,8,28539,2,0,P|367:40|382:69,1,77.999997619629
246,117,28854,2,0,P|254:36|263:15,1,77.999997619629
258,257,29170,1,0,0:0:0:0:
166,205,29486,2,0,P|115:184|93:137,1,77.999997619629
214,68,29802,2,0,P|255:98|270:139,1,77.999997619629
266,121,30118,1,0,0:0:0:0:
162,199,30433,5,0,0:0:0:0:
399,317,30749,1,0,0:0:0:0:
291,74,31065,2,0,P|251:104|246:141,1,77.999997619629
287,193,31381,1,0,0:0:0:0:
414,156,31539,6,0,P|394:106|348:81,1,77.999997619629
247,123,31854,1,0,0:0:0:0:
344,212,32012,1,0,0:0:0:0:
335,79,32170,1,0,0:0:0:0:
203,63,32328,2,0,B|163:94|163:94|166:107|166:107|135:140|135:140|139:155|139:155|110:185,1,155.999995239258
182,297,32802,2,0,P|222:265|210:224,1,77.999997619629
137,78,33118,5,0,0:0:0:0:
119,225,33275,1,0,0:0:0:0:
215,111,33433,1,0,0:0:0:0:
72,156,33591,1,0,0:0:0:0:
210,212,33749,2,0,P|271:236|314:217,1,87.7500003347397
376,108,34065,5,0,0:0:0:0:
485,209,34223,1,0,0:0:0:0:
365,298,34381,2,0,P|301:317|249:289,2,87.7500003347397
476,230,34854,1,0,0:0:0:0:
313,178,35012,1,0,0:0:0:0:
423,47,35170,1,0,0:0:0:0:
246,31,35328,1,0,0:0:0:0:
146,101,35486,5,0,0:0:0:0:
117,307,35802,1,0,0:0:0:0:
246,74,36118,1,0,0:0:0:0:
249,350,36433,1,0,0:0:0:0:
396,133,36749,2,0,P|423:179|416:225,1,87.7500003347397
364,301,37065,1,0,0:0:0:0:
236,291,37223,1,0,0:0:0:0:
282,197,37381,2,0,B|250:181|250:181|250:149|250:149|218:133|218:133|218:101|218:101|186:85|186:85|186:53,1,175.500000669479
34,156,38012,5,0,0:0:0:0:
160,247,38328,1,0,0:0:0:0:
256,124,38644,1,0,0:0:0:0:
102,153,38960,2,0,P|87:204|100:294,1,130
172,280,39433,2,0,P|203:306|251:305,2,65
182,202,39907,2,0,P|233:186|261:204,2,65
132,262,40381,5,0,0:0:0:0:
79,204,40539,1,0,0:0:0:0:
139,154,40696,1,0,0:0:0:0:
187,215,40854,2,0,P|252:252|305:214,1,130
362,107,41486,6,0,P|321:93|286:108,1,65
314,196,41802,1,0,0:0:0:0:
433,164,41960,1,0,0:0:0:0:
397,45,42118,1,0,0:0:0:0:
281,87,42275,1,0,0:0:0:0:
374,168,42433,1,0,0:0:0:0:
332,51,42591,1,0,0:0:0:0:
208,41,42749,1,0,0:0:0:0:
195,163,42907,5,0,0:0:0:0:
310,205,43065,1,0,0:0:0:0:
257,92,43223,1,0,0:0:0:0:
236,213,43381,1,0,0:0:0:0:
325,128,43539,1,0,0:0:0:0:
203,142,43696,2,0,P|137:167|148:222,1,130
298,118,44328,6,0,P|254:74|161:75,1,130
103,73,44960,1,0,0:0:0:0:
98,196,45118,1,0,0:0:0:0:
95,319,45275,2,0,P|142:318|163:293,1,65
200,268,45591,2,0,P|233:309|273:313,1,65
344,335,45907,1,0,0:0:0:0:
403,244,46065,5,0,0:0:0:0:
270,159,46223,1,0,0:0:0:0:
246,324,46381,1,0,0:0:0:0:
398,243,46539,2,0,P|422:195|376:111,1,130
237,32,47170,1,0,0:0:0:0:
59,87,47328,1,0,0:0:0:0:
132,215,47486,6,0,P|158:261|185:268,1,48.750001859665
367,209,47802,2,0,P|366:172|347:147,1,48.750001859665
156,80,48118,2,0,P|136:121|140:138,1,48.750001859665
259,303,48433,2,0,P|303:291|316:266,1,48.750001859665
311,69,48749,2,0,P|253:65|232:73,1,48.750001859665
127,237,49065,2,0,P|159:282|188:294,1,48.750001859665
372,264,49381,5,0,0:0:0:0:
471,106,49539,1,0,0:0:0:0:
175,195,49854,1,0,0:0:0:0:
70,53,50012,1,0,0:0:0:0:
382,16,50328,1,0,0:0:0:0:
240,119,50486,1,0,0:0:0:0:
156,44,51749,6,0,P|159:132|240:210,1,195
447,117,52539,2,0,P|336:76|298:75,1,130
167,134,53170,2,0,P|254:185|301:184,1,130
435,116,53802,1,0,0:0:0:0:
296,62,53960,1,0,0:0:0:0:
138,122,54275,2,0,P|242:216|315:229,1,195
238,66,55065,2,0,P|163:48|84:65,1,130
179,209,55696,2,0,P|249:268|307:252,1,130
304,96,56328,5,0,0:0:0:0:
252,271,56486,1,0,0:0:0:0:
361,258,56802,2,0,B|418:310|476:271|479:184|478:135,1,195.00000743866
218,128,57591,1,0,0:0:0:0:
178,269,57749,1,0,0:0:0:0:
303,239,58065,2,0,B|259:205|235:268|309:328|309:328|401:276|360:210|335:242,1,292.50001115799
432,173,58854,5,0,0:0:0:0:
310,71,59012,1,0,0:0:0:0:
162,64,59328,2,0,P|93:118|46:237,1,195.00000743866
164,266,59802,2,0,P|208:222|212:182,1,97.50000371933
86,204,60118,2,0,P|81:289|107:331,1,97.50000371933
256,349,60433,1,0,0:0:0:0:
331,238,60591,6,0,P|294:188|241:179,1,97.50000371933
264,291,60907,1,0,0:0:0:0:
402,255,61065,1,0,0:0:0:0:
369,103,61223,1,0,0:0:0:0:
250,51,61381,5,0,0:0:0:0:
229,176,61539,2,0,P|192:220|136:203,1,97.50000371933
131,93,61854,2,0,P|215:56|376:164,1,292.50001115799
487,192,62644,2,0,P|443:284|326:290,1,195.00000743866
206,205,63275,2,0,P|198:143|298:57,1,195.00000743866
411,129,63907,1,0,0:0:0:0:
327,236,64065,1,0,0:0:0:0:
73,245,64381,6,0,P|106:120|255:84,1,292.50001115799
370,179,65170,2,0,P|328:247|186:291,1,195.00000743866
178,157,65802,2,0,P|226:93|338:45,1,195.00000743866
452,118,66275,1,0,0:0:0:0:
463,256,66433,2,0,P|447:304|396:332,1,97.50000371933
300,264,66748,1,0,0:0:0:0:
177,319,66907,2,0,P|101:255|126:70,1,292.50001115799
312,57,67539,2,0,P|290:3|234:-8,2,97.50000371933
396,89,68170,2,0,P|440:177|299:286,1,292.50001115799
193,260,68960,5,0,0:0:0:0:
241,104,69118,2,0,P|294:121|303:163,1,97.50000371933
281,281,69433,1,0,0:0:0:0:
70,162,69749,1,0,0:0:0:0:
163,76,69907,2,0,P|226:54|257:72,1,97.50000371933
377,59,70223,2,0,P|378:124|329:182,1,97.50000371933
236,163,70539,1,0,0:0:0:0:
160,80,70696,2,0,P|256:80|288:96,1,97.50000371933
352,184,71012,2,0,B|304:216|352:240|352:240|288:304|224:240|224:240|272:216|216:184|216:184,1,292.50001115799
55,169,71960,6,0,P|76:217|203:277,1,195.00000743866
324,277,72433,1,0,0:0:0:0:
417,191,72591,1,0,0:0:0:0:
323,104,72749,2,0,P|251:53|138:78,1,195.00000743866
100,186,73223,2,0,P|133:252|179:263,1,97.50000371933
278,251,73539,1,0,0:0:0:0:
186,174,73696,1,0,0:0:0:0:
109,282,73854,1,0,0:0:0:0:
200,243,74012,2,0,P|254:190|191:104,1,195.00000743866
109,282,74486,6,0,B|192:349|257:266|330:337|330:337|445:289|340:190|340:190|463:113|364:37|364:37|275:88|190:-7|116:42,1,877.50003347397
115,169,76223,1,0,0:0:0:0:
289,57,76539,1,0,0:0:0:0:
286,214,76854,1,0,0:0:0:0:
176,192,77012,2,0,P|228:151|287:134,1,97.50000371933
373,190,77328,1,0,0:0:0:0:
271,266,77486,1,0,0:0:0:0:
176,192,77644,1,0,0:0:0:0:
319,148,77802,2,0,P|401:126|441:214,1,195.00000743866
387,326,78275,6,0,P|296:335|255:315,1,97.50000371933
179,273,78591,1,0,0:0:0:0:
218,152,78749,1,0,0:0:0:0:
338,190,78907,1,0,0:0:0:0:
270,297,79065,2,0,B|259:215|283:60|318:86,1,195.00000743866
406,135,79696,2,0,B|456:185|359:230|411:313|411:313|329:265|243:380|200:263,2,390.00001487732
191,69,81275,1,0,0:0:0:0:
110,220,81591,1,0,0:0:0:0:
245,334,81749,1,0,0:0:0:0:
362,227,81907,1,0,0:0:0:0:
362,227,82065,6,0,P|245:218|191:70,1,292.50001115799
347,71,82696,1,0,0:0:0:0:
347,71,82854,2,0,P|400:98|408:144,1,97.50000371933
365,270,83170,2,0,P|308:313|253:313,1,97.50000371933
177,246,83486,2,0,P|166:158|196:123,1,97.50000371933
293,179,83802,2,0,P|316:258|283:303,1,97.50000371933
217,182,84118,2,0,P|257:117|313:116,1,97.50000371933
376,184,84433,2,0,P|365:249|331:282,1,97.50000371933
219,292,84749,2,0,P|144:257|144:210,1,97.50000371933
105,128,85065,6,0,P|154:62|196:67,1,97.50000371933
263,137,85381,2,0,P|285:197|262:249,1,97.50000371933
154,196,85696,2,0,P|189:137|238:122,1,97.50000371933
210,235,86012,2,0,P|130:260|97:226,1,97.50000371933
101,131,86328,2,0,P|163:73|212:71,1,97.50000371933
305,85,86644,1,0,0:0:0:0:
414,189,86802,1,0,0:0:0:0:
298,305,86960,1,0,0:0:0:0:
193,189,87118,1,0,0:0:0:0:
256,192,87275,12,0,88539,0:0:0:0:
