osu file format v14

[General]
AudioFilename: audio.mp3
AudioLeadIn: 0
PreviewTime: 47122
Countdown: 0
SampleSet: Soft
StackLeniency: 0.7
Mode: 0
LetterboxInBreaks: 0
WidescreenStoryboard: 0

[Editor]
Bookmarks: 102784
DistanceSpacing: 1.3
BeatDivisor: 4
GridSize: 32
TimelineZoom: 2.5

[Metadata]
Title:Painkiller
TitleUnicode:Painkiller
Artist:Nothing But Thieves
ArtistUnicode:Nothing But Thieves
Creator:Nikakis
Version:Hard
Source:
Tags:English Alternative Rock Reform
BeatmapID:1906628
BeatmapSetID:906330

[Difficulty]
HPDrainRate:5
CircleSize:3.8
OverallDifficulty:6
ApproachRate:8
SliderMultiplier:1.4
SliderTickRate:1

[Events]
//Background and Video events
0,0,"bg.jpg",0,0
//Break Periods
//Storyboard Layer 0 (Background)
//Storyboard Layer 1 (Fail)
//Storyboard Layer 2 (Pass)
//Storyboard Layer 3 (Foreground)
//Storyboard Sound Samples

[TimingPoints]
322,342.857142857143,4,2,1,60,1,0
38293,-100,4,2,1,5,0,0
38379,-100,4,2,1,60,0,0
39664,-100,4,2,1,5,0,0
39750,-100,4,2,1,60,0,0
41722,-100,4,2,1,5,0,0
41807,-100,4,2,1,60,0,0
46950,-100,4,2,1,80,0,1
48579,-100,4,2,1,5,0,1
48664,-100,4,2,1,80,0,1
49950,-100,4,2,1,5,0,1
50036,-100,4,2,1,80,0,1
54064,-100,4,2,1,5,0,1
54150,-100,4,2,1,80,0,1
55436,-100,4,2,1,5,0,1
55522,-100,4,2,1,80,0,1
57922,-100,4,2,1,80,0,0
68893,-100,4,2,1,80,0,1
69150,-100,4,2,1,5,0,1
69236,-100,4,2,1,80,0,1
70522,-100,4,2,1,5,0,1
70607,-100,4,2,1,80,0,1
71893,-100,4,2,1,5,0,1
71979,-100,4,2,1,80,0,1
76007,-100,4,2,1,5,0,1
76093,-100,4,2,1,80,0,1
77379,-100,4,2,1,5,0,1
77464,-100,4,2,1,80,0,1
79522,-100,4,2,1,80,0,0
79864,-100,4,2,1,80,0,1
82522,-100,4,2,1,5,0,1
82607,-100,4,2,1,80,0,1
85264,-100,4,2,1,5,0,1
85350,-100,4,2,1,80,0,1
88007,-100,4,2,1,5,0,1
88093,-100,4,2,1,80,0,1
89379,-100,4,2,1,5,0,1
89464,-100,4,2,1,80,0,1
90750,-100,4,2,1,5,0,1
90836,-100,4,2,1,80,0,0

[Colours]
Combo1 : 98,176,255
Combo2 : 128,128,192
Combo3 : 255,204,108
Combo4 : 128,64,64

[HitObjects]
100,37,322,6,0,L|7:26,2,70,4|0|8,1:2|1:0|0:0,0:0:0:0:
164,101,836,1,0,0:0:0:0:
233,159,1007,2,0,L|326:148,2,70,0|0|8,1:0|1:0|0:0,0:0:0:0:
156,209,1522,1,0,0:0:0:0:
77,253,1693,2,0,P|26:257|-13:235,2,70,0|0|8,1:0|1:0|0:0,0:0:0:0:
143,315,2207,1,0,0:0:0:0:
221,361,2379,2,0,P|272:365|311:343,2,70,0|0|8,1:0|1:0|0:0,0:0:0:0:
168,286,2893,1,0,0:0:0:0:
267,259,3064,6,0,L|368:266,1,70,0|0,1:0|1:0,0:0:0:0:
412,205,3407,2,0,P|421:165|412:129,1,70,8|0,0:0|0:0,0:0:0:0:
316,106,3750,2,0,L|215:113,1,70,0|0,1:0|1:0,0:0:0:0:
134,85,4093,2,0,P|125:45|134:9,1,70,8|0,0:0|0:0,0:0:0:0:
249,1,4436,2,0,L|350:8,1,70,0|0,1:0|1:0,0:0:0:0:
397,102,4779,2,0,L|296:109,1,70,8|0,0:0|0:0,0:0:0:0:
260,200,5122,2,0,P|254:234|263:267,1,70,0|0,1:0|1:0,0:0:0:0:
328,330,5464,1,8,0:0:0:0:
458,203,5807,6,0,L|449:133,2,70,0|0|8,1:0|1:0|0:0,0:0:0:0:
427,289,6321,1,0,0:0:0:0:
350,239,6493,2,0,L|361:146,2,70,0|0|8,1:0|1:0|0:0,0:0:0:0:
292,310,7007,1,0,0:0:0:0:
212,353,7179,2,0,P|161:357|122:335,2,70,0|0|8,1:0|1:0|0:0,0:0:0:0:
268,280,7692,1,0,0:0:0:0:
211,208,7864,2,0,P|207:157|229:118,2,70,0|0|8,1:0|1:0|0:0,0:0:0:0:
227,297,8378,1,0,0:0:0:0:
132,272,8550,6,0,L|125:171,1,70,0|0,1:0|1:0,0:0:0:0:
180,125,8892,2,0,P|220:116|256:125,1,70,8|0,0:0|0:0,0:0:0:0:
302,214,9235,2,0,L|295:315,1,70,0|0,1:0|1:0,0:0:0:0:
357,373,9578,2,0,P|397:382|433:373,1,70,8|0,0:0|0:0,0:0:0:0:
492,302,9921,2,0,L|485:201,1,70,0|0,1:0|1:0,0:0:0:0:
460,121,10264,2,0,L|467:20,1,70,8|0,0:0|0:0,0:0:0:0:
350,5,10607,2,0,P|315:0|282:8,1,70,0|0,1:0|1:0,0:0:0:0:
200,94,10950,2,0,L|207:195,1,70,8|0,0:0|0:0,0:0:0:0:
212,254,11293,5,4,1:2:0:0:
212,254,11464,1,0,1:0:0:0:
286,200,11636,2,0,P|334:191|364:200,1,70,10|0,0:0|0:0,0:0:0:0:
407,269,11979,2,0,L|400:370,1,70,2|0,1:2|1:0,0:0:0:0:
317,374,12322,2,0,P|269:383|239:374,1,70,10|0,0:0|0:0,0:0:0:0:
193,306,12664,6,0,L|184:156,1,140,2|10,1:2|0:0,0:0:0:0:
247,96,13179,2,0,P|325:71|392:95,1,140,2|0,0:0|1:0,0:0:0:0:
456,133,13693,1,8,0:0:0:0:
331,265,14036,5,0,1:0:0:0:
331,265,14207,1,0,1:0:0:0:
301,178,14379,2,0,L|306:88,1,70,10|0,0:0|0:0,0:0:0:0:
245,39,14722,2,0,P|203:30|167:40,1,70,2|0,1:2|1:0,0:0:0:0:
123,108,15064,2,0,L|126:177,1,70,10|0,0:0|0:0,0:0:0:0:
176,254,15407,6,0,B|215:250|215:250|270:278|325:231,1,140,2|8,1:2|0:0,0:0:0:0:
393,201,15922,1,0,0:0:0:0:
456,266,16093,2,0,L|462:361,1,70,0|0,1:0|1:0,0:0:0:0:
377,373,16436,2,0,P|332:382|304:375,2,70,10|2|2,0:0|0:0|1:2,0:0:0:0:
460,335,16950,1,2,1:2:0:0:
385,281,17122,2,0,L|315:285,1,70,10|0,0:0|0:0,0:0:0:0:
247,225,17464,2,0,P|239:191|246:156,1,70,2|0,1:2|1:0,0:0:0:0:
309,91,17807,2,0,L|382:84,2,70,10|2|2,0:0|0:0|1:2,0:0:0:0:
225,53,18322,5,2,1:2:0:0:
145,9,18493,2,0,P|111:1|76:8,1,70,10|0,0:0|0:0,0:0:0:0:
21,80,18836,2,0,L|25:149,1,70,2|0,1:2|1:0,0:0:0:0:
99,203,19179,2,0,P|132:210|167:203,1,70,10|0,0:0|0:0,0:0:0:0:
260,137,19522,6,0,L|264:67,1,70,0|0,1:0|1:0,0:0:0:0:
347,18,19864,2,0,P|381:10|422:18,1,70,8|0,0:0|0:0,0:0:0:0:
483,91,20207,2,0,L|487:160,1,70,0|0,1:0|1:0,0:0:0:0:
468,270,20550,2,0,L|463:339,1,70,8|0,0:0|0:0,0:0:0:0:
351,376,20893,2,0,P|316:382|282:375,1,70,0|0,1:0|1:0,0:0:0:0:
205,290,21236,2,0,L|200:221,1,70,8|0,0:0|0:0,0:0:0:0:
207,110,21579,2,0,L|212:41,1,70,0|0,1:0|1:0,0:0:0:0:
82,5,21922,2,0,L|87:74,1,70,8|0,0:0|0:0,0:0:0:0:
99,164,22264,5,4,1:2:0:0:
99,164,22435,1,0,1:0:0:0:
170,107,22607,2,0,P|218:98|248:107,1,70,10|0,0:0|0:0,0:0:0:0:
288,179,22950,2,0,L|281:280,1,70,2|0,1:2|1:0,0:0:0:0:
314,334,23293,2,0,P|362:343|392:334,1,70,10|0,0:0|0:0,0:0:0:0:
458,289,23636,6,0,L|449:139,1,140,2|10,1:2|0:0,0:0:0:0:
394,76,24150,2,0,P|326:60|262:85,1,140,2|0,0:0|1:0,0:0:0:0:
191,143,24664,1,8,0:0:0:0:
262,310,25007,5,0,1:0:0:0:
262,310,25178,1,0,1:0:0:0:
195,372,25350,2,0,L|105:367,1,70,10|0,0:0|0:0,0:0:0:0:
53,311,25693,2,0,P|47:276|56:243,1,70,2|0,1:2|1:0,0:0:0:0:
134,195,26035,2,0,L|203:192,1,70,10|0,0:0|0:0,0:0:0:0:
286,153,26379,6,0,B|299:108|299:108|281:1,1,140,2|8,1:2|0:0,0:0:0:0:
192,4,26893,1,0,0:0:0:0:
187,94,27064,2,0,L|181:189,1,70,0|0,1:0|1:0,0:0:0:0:
134,241,27407,2,0,P|89:250|61:243,2,70,10|2|2,0:0|0:0|1:2,0:0:0:0:
210,190,27921,1,2,1:2:0:0:
243,274,28093,2,0,L|239:344,1,70,10|0,0:0|0:0,0:0:0:0:
323,376,28435,2,0,P|357:384|392:377,1,70,2|0,1:2|1:0,0:0:0:0:
455,312,28779,2,0,L|448:239,2,70,10|2|2,0:0|0:0|1:2,0:0:0:0:
390,377,29293,5,2,1:2:0:0:
349,295,29464,2,0,P|342:260|350:227,1,70,10|0,0:0|0:0,0:0:0:0:
390,144,29807,2,0,P|396:109|388:76,1,70,2|0,1:2|1:0,0:0:0:0:
313,24,30150,2,0,L|243:29,1,70,10|0,0:0|0:0,0:0:0:0:
174,117,30493,6,0,L|170:187,1,70,0|0,1:0|1:0,0:0:0:0:
208,269,30836,2,0,L|212:339,1,70,8|0,0:0|0:0,0:0:0:0:
108,373,31178,2,0,P|73:383|39:377,1,70,0|0,1:0|1:0,0:0:0:0:
0,281,31521,2,0,L|5:212,1,70,8|0,0:0|0:0,0:0:0:0:
69,125,31864,2,0,P|104:119|138:126,1,70,0|0,1:0|1:0,0:0:0:0:
216,201,32207,2,0,L|221:270,1,70,8|0,0:0|0:0,0:0:0:0:
301,355,32550,2,0,P|336:361|370:354,1,70,0|0,1:0|1:0,0:0:0:0:
460,281,32893,2,0,L|465:212,1,70,8|0,0:0|0:0,0:0:0:0:
471,120,33236,5,4,1:2:0:0:
471,120,33407,1,0,1:0:0:0:
387,156,33579,2,0,P|338:165|303:152,1,70,10|0,0:0|0:0,0:0:0:0:
237,119,33922,1,2,1:2:0:0:
237,119,34093,1,2,1:2:0:0:
245,209,34264,2,0,L|250:278,1,70,10|0,0:0|0:0,0:0:0:0:
196,353,34607,6,0,P|147:362|112:349,1,70,2|0,1:2|1:0,0:0:0:0:
85,276,34950,2,0,P|134:267|169:280,1,70,10|0,0:0|0:0,0:0:0:0:
196,353,35293,2,0,B|235:371|235:371|343:361,1,140,2|8,1:2|0:0,0:0:0:0:
395,296,35807,1,0,0:0:0:0:
325,237,35979,2,0,L|241:245,1,70,0|0,1:0|1:0,0:0:0:0:
193,176,36322,2,0,P|182:140|190:102,1,70,10|0,0:0|0:0,0:0:0:0:
225,28,36664,1,2,1:2:0:0:
225,28,36836,1,2,1:2:0:0:
304,72,37007,2,0,P|346:80|394:56,1,70,10|0,0:0|0:0,0:0:0:0:
452,30,37350,6,0,L|460:123,1,70,2|0,1:2|1:0,0:0:0:0:
423,184,37693,2,0,L|417:253,1,70,10|0,0:0|0:0,0:0:0:0:
338,207,38036,2,0,P|284:184|234:204,1,105,2|0,1:2|0:0,0:0:0:0:
207,227,38379,2,0,L|212:296,1,70,10|0,0:0|1:0,0:0:0:0:
143,355,38722,2,0,P|101:363|53:339,1,70,6|2,1:2|0:0,0:0:0:0:
18,284,39064,2,0,L|23:214,1,70,10|2,0:0|0:0,0:0:0:0:
57,129,39407,2,0,L|50:24,1,105,2|0,1:2|0:0,0:0:0:0:
92,6,39750,2,0,P|134:-2|182:22,1,70,10|0,0:0|0:0,0:0:0:0:
204,84,40093,6,0,L|198:153,1,70,6|2,1:2|0:0,0:0:0:0:
209,244,40436,2,0,L|214:313,1,70,10|2,0:0|0:0,0:0:0:0:
297,352,40779,2,0,P|339:360|387:336,1,70,2|0,1:2|1:0,0:0:0:0:
431,290,41122,2,0,L|436:220,1,70,10|0,0:0|0:0,0:0:0:0:
379,148,41464,6,0,P|336:130|266:153,1,105,4|0,1:2|0:0,0:0:0:0:
250,176,41807,2,0,L|255:260,1,70,10|0,0:0|0:0,0:0:0:0:
261,336,42150,1,2,1:2:0:0:
261,336,42322,1,2,1:2:0:0:
175,367,42493,2,0,P|141:377|107:371,1,70,10|0,0:0|0:0,0:0:0:0:
36,314,42836,6,0,L|43:238,1,70,2|0,1:2|1:0,0:0:0:0:
77,160,43179,2,0,L|70:84,1,70,10|0,0:0|0:0,0:0:0:0:
135,25,43522,2,0,P|168:14|202:20,1,70,2|0,1:2|1:0,0:0:0:0:
270,80,43864,2,0,L|263:149,1,70,8|0,0:0|0:0,0:0:0:0:
252,240,44207,5,0,1:0:0:0:
252,240,44379,1,2,1:2:0:0:
331,284,44550,2,0,P|377:292|404:282,1,70,10|0,0:0|0:0,0:0:0:0:
481,247,44893,1,2,1:2:0:0:
481,247,45064,1,2,1:2:0:0:
405,196,45236,2,0,P|359:188|332:198,1,70,10|0,0:0|1:0,0:0:0:0:
254,233,45579,6,0,P|208:241|181:231,1,70,10|8,0:0|0:0,0:0:0:0:
147,210,45836,1,8,0:0:0:0:
147,210,45922,1,8,0:0:0:0:
161,120,46093,2,0,L|167:67,2,35,8|8|2,0:0|0:0|1:2,0:0:0:0:
241,162,46436,1,8,0:0:0:0:
294,88,46607,2,0,L|289:35,1,35,8|8,0:0|0:0,0:0:0:0:
327,25,46779,2,0,L|380:20,1,35,8|8,0:0|0:0,0:0:0:0:
401,44,46950,6,0,L|395:126,1,70,4|0,1:2|0:0,0:0:0:0:
354,195,47293,1,10,0:0:0:0:
276,147,47464,2,0,P|228:138|191:156,1,70,2|0,0:2|1:0,0:0:0:0:
135,198,47807,1,0,1:0:0:0:
68,135,47979,2,0,L|62:53,1,70,8|0,0:0|1:0,0:0:0:0:
187,26,48322,6,0,B|226:14|226:14|321:33,1,105,4|0,1:2|0:0,0:0:0:0:
332,40,48664,1,10,0:0:0:0:
289,120,48836,2,0,L|209:113,1,70,2|0,0:2|1:0,0:0:0:0:
146,169,49179,1,0,1:0:0:0:
200,241,49350,2,0,L|280:234,1,70,8|0,0:0|1:0,0:0:0:0:
403,188,49693,6,0,P|432:226|421:296,1,105,4|0,1:2|0:0,0:0:0:0:
397,319,50036,2,0,L|321:314,1,70,10|0,0:0|0:0,0:0:0:0:
263,248,50379,2,0,L|258:178,1,70,2|0,1:2|1:0,0:0:0:0:
256,86,50722,1,10,0:0:0:0:
256,86,50893,1,2,0:0:0:0:
175,128,51064,6,0,P|136:138|98:125,1,70,2|0,1:2|1:0,0:0:0:0:
71,47,51407,2,0,P|104:37|138:44,1,70,8|0,0:0|0:0,0:0:0:0:
175,128,51750,1,2,1:2:0:0:
256,86,51922,2,0,B|299:74|299:74|397:96,1,140,2|2,1:2|0:0,0:0:0:0:
464,208,52436,6,0,L|469:277,1,70,4|0,1:2|1:0,0:0:0:0:
407,344,52779,1,10,0:0:0:0:
322,295,52950,2,0,P|284:284|236:302,1,70,2|0,0:2|1:0,0:0:0:0:
175,335,53293,1,0,1:0:0:0:
123,260,53464,2,0,L|128:190,1,70,8|0,0:2|0:0,0:0:0:0:
246,136,53807,6,0,B|287:153|287:153|366:146,1,105,4|0,1:2|0:0,0:0:0:0:
392,140,54150,1,10,0:0:0:0:
356,56,54322,2,0,L|273:50,1,70,2|0,0:0|1:0,0:0:0:0:
195,50,54664,1,0,1:0:0:0:
176,141,54836,2,0,L|259:135,1,70,10|0,0:0|0:0,0:0:0:0:
353,225,55179,6,0,P|381:249|375:329,1,105,4|0,1:2|0:0,0:0:0:0:
353,345,55522,2,0,L|283:338,1,70,10|0,0:0|0:0,0:0:0:0:
213,280,55864,2,0,L|206:210,1,70,2|0,1:2|1:0,0:0:0:0:
190,119,56207,1,10,0:0:0:0:
190,119,56379,1,2,0:0:0:0:
275,150,56550,6,0,L|345:157,1,70,2|0,1:2|1:0,0:0:0:0:
416,100,56893,2,0,L|409:30,1,70,8|0,0:0|1:0,0:0:0:0:
318,6,57236,1,8,0:0:0:0:
271,84,57407,2,0,L|265:138,2,35,10|8|2,0:0|0:0|1:2,0:0:0:0:
182,54,57750,2,0,L|147:57,1,35,10|8,0:0|0:0,0:0:0:0:
114,90,57922,6,0,P|107:131|121:176,1,70,6|0,1:2|1:2,0:0:0:0:
175,224,58264,2,0,L|262:231,1,70,10|0,0:0|0:0,0:0:0:0:
318,282,58607,2,0,P|325:323|311:368,1,70,2|0,1:2|1:0,0:0:0:0:
233,380,58950,1,10,0:0:0:0:
201,294,59122,2,0,L|208:207,1,70,2|0,0:0|1:0,0:0:0:0:
215,133,59464,5,2,1:2:0:0:
215,133,59636,1,10,0:0:0:0:
179,49,59807,1,2,0:0:0:0:
179,49,59979,2,0,P|118:25|59:65,1,140,2|10,1:2|0:0,0:0:0:0:
61,154,60493,6,0,L|217:144,1,140,2|2,0:0|1:2,0:0:0:0:
263,210,61007,2,0,P|274:259|265:290,1,70,10|0,0:0|0:0,0:0:0:0:
205,341,61350,2,0,L|49:331,1,140,2|10,1:2|0:0,0:0:0:0:
32,246,61864,2,0,P|18:197|101:167,1,140,2|2,0:0|1:2,0:0:0:0:
153,220,62379,6,0,L|146:303,1,70,10|2,0:0|0:0,0:0:0:0:
213,351,62722,2,0,P|264:358|290:347,1,70,2|2,1:2|1:2,0:0:0:0:
346,290,63064,2,0,L|335:140,1,140,10|2,0:0|1:2,0:0:0:0:
398,83,63579,1,2,1:2:0:0:
427,168,63750,2,0,L|421:258,1,70,10|0,0:0|0:0,0:0:0:0:
346,290,64093,6,0,P|312:298|278:291,1,70,2|0,1:2|1:0,0:0:0:0:
201,241,64436,1,10,0:0:0:0:
262,174,64607,2,0,L|352:180,1,70,2|0,0:0|1:0,0:0:0:0:
394,112,64950,1,2,1:2:0:0:
320,57,65122,2,0,P|286:48|252:55,1,70,10|0,0:0|0:0,0:0:0:0:
179,109,65464,5,2,1:2:0:0:
213,193,65636,2,0,P|221:226|214:260,1,70,2|8,1:2|0:0,0:0:0:0:
132,301,65979,2,0,L|62:305,1,70,2|0,0:0|1:0,0:0:0:0:
2,236,66322,1,2,1:2:0:0:
61,167,66493,6,0,P|94:159|128:167,1,70,10|0,0:0|0:0,0:0:0:0:
204,219,66836,1,2,1:2:0:0:
237,134,67007,2,0,L|232:64,1,70,2|8,1:2|0:0,0:0:0:0:
305,8,67350,1,2,0:0:0:0:
344,90,67522,2,0,L|339:159,1,70,2|0,1:2|1:0,0:0:0:0:
287,234,67864,6,0,P|253:241|219:233,1,70,10|0,0:0|1:0,0:0:0:0:
134,198,68207,2,0,L|138:267,1,70,10|2,0:0|1:2,0:0:0:0:
191,342,68550,2,0,P|224:349|258:341,1,70,10|2,0:0|1:2,0:0:0:0:
358,256,68893,6,0,L|365:131,1,105,4|0,1:2|0:0,0:0:0:0:
366,105,69236,1,10,0:0:0:0:
283,143,69407,2,0,P|235:152|198:134,1,70,2|0,0:2|1:0,0:0:0:0:
140,94,69750,1,0,1:0:0:0:
213,39,69922,2,0,L|295:45,1,70,8|0,0:0|0:0,0:0:0:0:
379,135,70265,6,0,B|391:174|391:174|372:269,1,105,4|0,1:2|0:0,0:0:0:0:
364,277,70607,1,10,0:0:0:0:
278,245,70779,2,0,L|208:251,1,70,2|0,0:2|1:0,0:0:0:0:
118,264,71122,1,0,1:0:0:0:
150,348,71293,2,0,L|219:354,1,70,8|0,0:0|0:0,0:0:0:0:
278,245,71636,6,0,P|289:201|256:137,1,105,4|0,1:2|0:0,0:0:0:0:
229,122,71979,2,0,L|159:126,1,70,10|0,0:0|0:0,0:0:0:0:
106,51,72322,2,0,L|175:46,1,70,2|0,1:2|1:0,0:0:0:0:
266,83,72665,1,10,0:0:0:0:
266,83,72836,1,2,0:0:0:0:
347,125,73007,6,0,P|386:135|424:122,1,70,2|0,1:2|1:0,0:0:0:0:
451,44,73350,2,0,P|417:34|383:41,1,70,8|0,0:0|0:0,0:0:0:0:
347,125,73693,1,2,1:2:0:0:
266,83,73865,2,0,B|223:71|223:71|125:93,1,140,2|2,1:2|1:2,0:0:0:0:
58,205,74379,6,0,L|52:274,1,70,4|0,1:2|0:0,0:0:0:0:
115,341,74722,1,10,0:0:0:0:
200,292,74893,2,0,P|238:281|286:299,1,70,2|0,0:2|1:0,0:0:0:0:
347,332,75236,1,0,1:0:0:0:
408,265,75407,2,0,L|402:195,1,70,8|0,0:2|0:0,0:0:0:0:
276,133,75750,6,0,B|235:150|235:150|156:143,1,105,4|0,1:2|0:0,0:0:0:0:
130,137,76093,1,10,0:0:0:0:
166,53,76265,2,0,L|249:47,1,70,2|0,0:0|1:0,0:0:0:0:
327,47,76607,1,0,1:0:0:0:
346,138,76779,2,0,L|263:132,1,70,10|0,0:0|0:0,0:0:0:0:
169,222,77122,6,0,P|141:246|147:326,1,105,4|0,1:2|0:0,0:0:0:0:
169,342,77465,2,0,L|239:335,1,70,10|0,0:0|0:0,0:0:0:0:
309,277,77807,2,0,L|316:207,1,70,2|0,1:2|1:0,0:0:0:0:
329,117,78150,1,10,0:0:0:0:
329,117,78322,1,2,0:0:0:0:
238,127,78493,6,0,L|164:132,1,70,10|8,0:2|0:0,0:0:0:0:
133,139,78750,1,8,0:0:0:0:
133,139,78836,1,0,1:0:0:0:
69,203,79007,2,0,L|66:237,2,35,8|8|2,0:0|0:0|1:2,0:0:0:0:
33,118,79350,1,10,0:0:0:0:
85,43,79522,2,0,L|120:45,1,35,8|8,0:0|0:0,0:0:0:0:
165,41,79693,2,0,L|167:76,1,35,8|8,0:0|0:0,0:0:0:0:
170,121,79864,6,0,L|166:190,1,70,4|0,1:2|1:0,0:0:0:0:
243,239,80207,2,0,P|275:249|323:234,1,70,10|0,0:0|0:0,0:0:0:0:
390,199,80550,1,2,1:2:0:0:
390,199,80722,1,2,1:2:0:0:
392,289,80893,2,0,L|396:380,1,70,10|0,0:0|0:0,0:0:0:0:
304,371,81236,6,0,P|272:381|224:366,1,70,6|0,1:2|1:0,0:0:0:0:
190,295,81579,2,0,L|281:291,1,70,10|0,0:0|0:0,0:0:0:0:
335,240,81922,2,0,P|345:208|330:160,1,70,2|0,1:2|1:0,0:0:0:0:
288,99,82264,2,0,L|170:108,1,105,8|0,0:0|0:0,0:0:0:0:
145,92,82607,6,0,P|137:50|149:10,1,70,4|0,1:2|1:0,0:0:0:0:
231,5,82950,2,0,L|300:11,1,70,10|0,0:0|0:0,0:0:0:0:
377,60,83293,1,2,1:2:0:0:
377,60,83464,1,2,1:2:0:0:
308,120,83636,2,0,L|239:126,1,70,10|0,0:0|0:0,0:0:0:0:
182,198,83979,6,0,P|174:231|180:266,1,70,2|0,1:2|1:0,0:0:0:0:
232,340,84322,2,0,L|316:345,1,70,10|0,0:0|0:0,0:0:0:0:
324,256,84664,2,0,L|254:251,1,70,2|0,1:2|1:0,0:0:0:0:
166,277,85007,2,0,P|118:294|61:276,1,105,12|0,0:0|0:0,0:0:0:0:
27,258,85350,6,0,L|22:189,1,70,4|0,1:2|1:0,0:0:0:0:
78,116,85693,2,0,P|112:108|147:115,1,70,10|0,0:0|0:0,0:0:0:0:
227,154,86036,1,2,1:2:0:0:
227,154,86207,1,2,1:2:0:0:
236,244,86379,2,0,L|241:313,1,70,10|0,0:0|0:0,0:0:0:0:
315,366,86722,6,0,P|355:374|392:365,1,70,2|0,1:2|1:0,0:0:0:0:
454,312,87064,2,0,L|459:228,1,70,10|0,0:0|0:0,0:0:0:0:
436,153,87407,2,0,L|431:69,1,70,2|0,1:2|1:0,0:0:0:0:
354,34,87750,2,0,P|303:20|251:37,1,105,8|0,0:0|0:0,0:0:0:0:
213,55,88093,6,0,L|216:124,1,70,4|2,1:2|1:2,0:0:0:0:
268,199,88436,2,0,P|308:207|345:198,1,70,10|2,0:0|0:0,0:0:0:0:
423,173,88779,2,0,L|420:242,1,70,2|2,1:2|1:2,0:0:0:0:
360,312,89122,2,0,B|324:330|324:330|231:319,1,105,10|0,0:0|0:0,0:0:0:0:
219,302,89464,6,0,L|215:233,1,70,2|0,1:2|1:2,0:0:0:0:
247,146,89807,2,0,L|251:77,1,70,10|0,0:0|0:0,0:0:0:0:
176,23,90150,2,0,P|131:15|99:24,1,70,2|0,1:2|1:2,0:0:0:0:
41,83,90493,2,0,L|46:187,1,105,8|0,0:0|0:0,0:0:0:0:
63,230,90836,6,0,P|103:238|150:222,1,70,12|0,0:0|1:0,0:0:0:0:
220,182,91179,2,0,L|223:112,1,70,10|0,0:0|1:0,0:0:0:0:
326,41,91522,2,0,P|366:33|413:49,1,70,10|0,0:0|1:0,0:0:0:0:
481,124,91864,2,0,L|485:194,1,70,10|0,0:0|1:0,0:0:0:0:
411,299,92207,6,0,P|378:308|343:302,1,70,10|0,0:0|1:0,0:0:0:0:
261,210,92550,2,0,L|265:140,1,70,10|0,0:0|1:0,0:0:0:0:
169,37,92893,2,0,P|129:29|82:45,1,70,10|0,0:0|1:0,0:0:0:0:
28,137,93236,2,0,L|33:217,1,70,10|0,0:0|1:0,0:0:0:0:
42,297,93579,5,14,0:0:0:0:
