osu file format v14

[General]
AudioFilename: audio.mp3
AudioLeadIn: 0
PreviewTime: 46562
Countdown: 0
SampleSet: Normal
StackLeniency: 0.7
Mode: 0
LetterboxInBreaks: 0
WidescreenStoryboard: 1

[Editor]
DistanceSpacing: 1.4
BeatDivisor: 4
GridSize: 32
TimelineZoom: 1.7

[Metadata]
Title:Painkiller
TitleUnicode:Painkiller
Artist:Nothing But Thieves
ArtistUnicode:Nothing But Thieves
Creator:Lasse
Version:Insane
Source:
Tags:english rock alternative
BeatmapID:2541334
BeatmapSetID:1221724

[Difficulty]
HPDrainRate:6
CircleSize:4
OverallDifficulty:8
ApproachRate:8.5
SliderMultiplier:1.7
SliderTickRate:1

[Events]
//Background and Video events
0,0,"bg.jpg",0,0
//Break Periods
//Storyboard Layer 0 (Background)
//Storyboard Layer 1 (Fail)
//Storyboard Layer 2 (Pass)
//Storyboard Layer 3 (Foreground)
//Storyboard Layer 4 (Overlay)
//Storyboard Sound Samples

[TimingPoints]
320,342.857142857143,4,1,1,52,1,0
320,-133.333333333333,4,1,1,52,0,0
11291,-125,4,1,1,54,0,0
22262,-125,4,1,1,56,0,0
33234,-111.111111111111,4,1,1,58,0,0
41805,-100,4,1,1,60,0,0
44891,-100,4,1,1,62,0,0
45577,-90.9090909090909,4,1,1,64,0,0
46605,-100,4,1,1,65,0,0
46948,-90.9090909090909,4,1,1,70,0,1
57920,-100,4,3,1,55,0,0
60662,-90.9090909090909,4,1,1,70,0,1
63405,-100,4,3,1,55,0,0
65634,-166.666666666667,4,3,1,52,0,0
65805,-166.666666666667,4,3,1,58,0,0
66148,-100,4,1,1,62,0,0
71634,-125,4,1,1,58,0,0
71805,-125,4,1,1,55,0,0
82605,-142.857142857143,4,1,1,48,0,0
85348,-142.857142857143,4,1,1,50,0,0
87405,-142.857142857143,4,1,1,52,0,0
87748,-111.111111111111,4,1,1,55,0,0
88091,-100,4,1,1,60,0,0
90834,-100,4,1,1,64,0,0
93577,-90.9090909090909,4,1,1,70,0,1
104291,-90.9090909090909,4,1,1,70,0,0
104548,-86.9565217391304,4,1,1,72,0,1
115434,-86.9565217391304,4,1,1,72,0,0
115520,-83.3333333333333,4,1,1,74,0,1
126148,-83.3333333333333,4,1,1,74,0,0
126491,-76.9230769230769,4,1,1,76,0,1
137120,-76.9230769230769,4,1,1,76,0,0
137462,-71.4285714285714,4,1,1,78,0,1
140205,-200,4,2,1,60,0,0
140377,-200,4,2,1,20,0,0
141234,-200,4,2,1,26,0,0

[Colours]
Combo1 : 255,180,140
Combo2 : 180,180,240
Combo3 : 255,230,130
Combo4 : 170,200,250

[HitObjects]
0,68,320,6,0,L|71:50,1,63.7500024318696,6|0,0:2|0:0,0:0:0:0:
179,102,662,2,0,L|55:133,1,127.500004863739,10|0,0:3|0:0,0:0:0:0:
14,206,1177,1,2,0:2:0:0:
70,266,1348,1,10,0:3:0:0:
240,343,1691,6,0,L|245:279,1,63.7500024318696,2|0,0:2|0:0,0:0:0:0:
315,376,2034,2,0,L|325:248,1,127.500004863739,10|0,0:3|0:0,0:0:0:0:
407,306,2548,2,0,L|470:311,1,63.7500024318696,2|10,0:2|0:3,0:0:0:0:
443,209,2891,5,0,3:2:0:0:
443,209,2977,1,0,3:2:0:0:
443,209,3062,2,0,P|451:178|445:136,1,63.7500024318696,2|0,0:2|0:0,0:0:0:0:
393,84,3405,2,0,P|328:96|270:68,1,127.500004863739,10|0,0:3|0:0,0:0:0:0:
213,13,3920,1,2,0:2:0:0:
195,93,4091,1,10,0:3:0:0:
24,159,4434,6,0,P|20:127|25:93,1,63.7500024318696,2|0,0:2|0:0,0:0:0:0:
108,127,4777,2,0,P|112:159|107:193,1,63.7500024318696,10|0,0:3|0:0,0:0:0:0:
43,252,5120,1,2,0:2:0:0:
43,252,5291,1,0,0:0:0:0:
105,316,5462,1,10,0:3:0:0:
169,254,5634,1,0,0:0:0:0:
233,192,5805,6,0,L|240:115,1,63.7500024318696,2|0,0:2|0:0,0:0:0:0:
321,172,6148,2,0,P|359:162|454:184,1,127.500004863739,10|0,0:3|0:0,0:0:0:0:
505,233,6662,1,2,0:2:0:0:
487,314,6834,1,10,0:3:0:0:
336,383,7177,6,0,L|327:310,1,63.7500024318696,2|0,0:2|0:0,0:0:0:0:
237,238,7520,2,0,L|252:364,1,127.500004863739,10|0,0:3|0:0,0:0:0:0:
163,310,8034,2,0,L|99:317,1,63.7500024318696,2|8,0:2|0:0,0:0:0:0:
3,268,8377,5,0,3:0:0:0:
3,268,8462,1,0,3:0:0:0:
3,268,8548,2,0,P|-6:227|-5:199,1,63.7500024318696,2|0,0:2|0:0,0:0:0:0:
43,138,8891,2,0,L|174:121,1,127.500004863739,10|0,0:3|0:0,0:0:0:0:
250,142,9405,2,0,P|249:110|241:79,1,63.7500024318696,2|10,0:2|0:3,0:0:0:0:
79,14,9920,5,2,0:2:0:0:
79,14,10091,1,0,0:0:0:0:
46,110,10262,1,10,0:3:0:0:
142,143,10434,1,2,0:3:0:0:
142,143,10520,1,2,0:3:0:0:
142,143,10605,1,10,0:3:0:0:
109,239,10777,1,0,0:0:0:0:
13,206,10948,1,12,0:2:0:0:
136,370,11291,5,4,0:1:0:0:
136,370,11462,1,0,0:0:0:0:
221,307,11634,6,0,P|272:332|347:274,1,136,10|0,0:3|0:2,0:0:0:0:
405,355,12148,1,0,0:0:0:0:
478,304,12320,2,0,P|487:274|475:227,1,68,10|0,0:3|0:0,0:0:0:0:
392,147,12662,5,2,0:2:0:0:
392,147,12834,1,0,0:0:0:0:
312,210,13005,1,10,0:2:0:0:
268,128,13177,1,2,3:3:0:0:
268,128,13262,1,2,3:3:0:0:
268,128,13348,2,0,P|259:70|181:53,1,136,2|10,0:3|0:3,0:0:0:0:
7,104,14034,5,0,0:0:0:0:
7,104,14205,1,0,0:0:0:0:
105,157,14377,6,0,L|176:148,1,68,10|0,0:2|0:0,0:0:0:0:
255,208,14720,2,0,L|264:279,1,68,2|0,0:2|0:0,0:0:0:0:
204,358,15062,2,0,L|133:367,1,68,10|0,0:2|0:0,0:0:0:0:
36,344,15405,2,0,P|11:281|29:213,2,136,2|10|0,0:2|0:3|0:0,0:0:0:0:
108,382,16262,1,0,0:0:0:0:
176,337,16434,5,10,0:2:0:0:
114,258,16605,1,2,3:3:0:0:
114,258,16691,1,2,3:0:0:0:
114,258,16777,2,0,P|109:222|115:186,1,68,2|0,0:2|0:0,0:0:0:0:
233,303,17120,2,0,P|204:325|170:338,1,68,10|0,0:2|0:0,0:0:0:0:
213,178,17462,2,0,P|246:191|274:214,1,68,2|0,0:2|0:0,0:0:0:0:
354,271,17805,5,10,0:2:0:0:
450,228,17977,1,2,3:3:0:0:
450,228,18062,1,2,3:3:0:0:
450,228,18148,2,0,P|470:201|483:169,1,68,2|0,0:2|0:0,0:0:0:0:
428,82,18491,2,0,P|414:51|393:23,1,68,10|0,0:2|0:0,0:0:0:0:
296,55,18834,2,0,P|253:29|153:39,1,136,2|12,0:2|0:2,0:0:0:0:
4,151,19520,5,0,0:0:0:0:
4,151,19691,1,0,0:0:0:0:
80,194,19862,2,0,L|221:165,1,136,10|0,0:3|0:0,0:0:0:0:
297,218,20377,1,0,3:0:0:0:
297,218,20462,1,0,0:0:0:0:
297,218,20548,2,0,L|303:132,1,68,10|0,0:3|0:0,0:0:0:0:
385,46,20891,5,2,0:2:0:0:
416,142,21062,1,0,0:0:0:0:
512,111,21234,1,10,0:3:0:0:
481,15,21405,1,0,0:0:0:0:
385,46,21577,1,2,0:2:0:0:
294,24,21748,1,2,0:3:0:0:
294,24,21834,1,2,0:3:0:0:
294,24,21920,1,12,0:2:0:0:
166,183,22262,5,4,0:0:0:0:
166,183,22434,1,0,0:0:0:0:
249,241,22605,6,0,P|316:215|390:224,1,136,10|0,0:2|0:2,0:0:0:0:
432,291,23120,1,0,0:0:0:0:
373,357,23291,2,0,P|340:366|306:367,1,68,10|0,0:2|0:0,0:0:0:0:
200,334,23634,5,2,0:2:0:0:
200,334,23805,1,0,0:2:0:0:
249,241,23977,1,10,0:2:0:0:
170,193,24148,1,2,3:3:0:0:
170,193,24234,1,2,3:3:0:0:
170,193,24320,2,0,P|148:149|169:60,1,136,2|10,0:3|0:3,0:2:0:0:
302,1,24920,1,2,3:3:0:0:
310,12,25005,2,0,L|302:89,1,68,2|0,0:3|0:2,0:2:0:0:
371,155,25348,6,0,P|403:145|437:145,1,68,10|0,0:2|0:2,0:2:0:0:
497,228,25691,2,0,P|489:261|472:290,1,68,2|0,0:2|0:2,0:2:0:0:
370,300,26034,2,0,P|345:276|328:247,1,68,10|0,0:2|0:2,0:2:0:0:
267,165,26377,2,0,P|209:130|115:131,2,136,0|8|0,0:2|0:2|0:2,0:0:0:0:
387,329,27405,5,14,0:2:0:0:
293,294,27577,1,2,3:3:0:0:
293,294,27662,1,2,3:3:0:0:
293,294,27748,1,2,0:2:0:0:
221,376,27920,1,0,0:2:0:0:
124,326,28091,2,0,P|79:305|8:319,1,102,10|2,0:2|3:2,0:2:0:0:
27,309,28434,2,0,P|16:278|19:239,1,68,2|0,0:3|0:2,0:2:0:0:
83,134,28777,5,10,0:2:0:0:
185,205,28948,1,2,3:3:0:0:
185,205,29034,1,2,3:3:0:0:
185,205,29120,1,2,0:2:0:0:
278,137,29291,1,0,0:2:0:0:
377,194,29462,2,0,P|437:214|488:178,1,102,10|2,0:2|0:3,0:0:0:0:
469,199,29805,2,0,L|478:49,1,136,2|14,0:3|0:2,0:0:0:0:
291,0,30491,5,2,3:3:0:0:
291,0,30662,1,0,0:2:0:0:
216,60,30834,2,0,P|194:121|218:215,1,136,10|0,0:3|0:2,0:2:0:0:
280,263,31348,1,0,0:2:0:0:
280,263,31434,1,0,0:2:0:0:
280,263,31520,2,0,P|315:253|356:254,1,68,10|0,0:3|0:2,0:2:0:0:
234,360,31862,5,2,0:2:0:0:
234,360,32034,1,0,0:2:0:0:
168,282,32205,1,10,0:3:0:0:
133,378,32377,1,0,0:2:0:0:
37,343,32548,1,2,0:2:0:0:
72,247,32720,1,0,0:2:0:0:
72,247,32805,1,0,0:2:0:0:
72,247,32891,1,12,0:2:0:0:
344,230,33234,5,4,0:0:0:0:
344,230,33405,1,0,0:0:0:0:
440,176,33577,6,0,P|465:136|431:27,1,152.999995330811,10|2,0:2|0:2,0:2:0:0:
347,9,34091,1,2,0:2:0:0:
368,106,34262,1,10,0:3:0:0:
159,156,34605,6,0,P|156:118|168:76,1,76.4999976654053,2|0,0:2|0:2,0:2:0:0:
261,145,34948,2,0,P|264:182|254:219,1,76.4999976654053,10|0,0:2|0:2,0:2:0:0:
163,289,35291,2,0,L|-11:315,1,152.999995330811,2|10,0:2|0:3,0:2:0:0:
66,150,35891,1,2,3:3:0:0:
73,142,35977,2,0,L|61:67,1,76.4999976654053,2|0,0:3|0:2,0:2:0:0:
175,51,36320,6,0,P|215:26|324:60,1,152.999995330811,10|2,0:2|0:2,0:2:0:0:
342,144,36834,1,2,0:2:0:0:
245,123,37005,1,10,0:3:0:0:
37,237,37348,6,0,L|123:227,1,76.4999976654053,2|0,0:2|0:2,0:2:0:0:
162,331,37691,2,0,L|248:341,1,76.4999976654053,10|0,0:2|0:2,0:2:0:0:
308,249,38034,2,0,L|394:239,1,76.4999976654053,2|0,0:2|0:2,0:2:0:0:
496,281,38377,5,10,0:2:0:0:
496,281,38548,1,0,0:2:0:0:
472,168,38720,5,6,0:1:0:0:
383,240,38891,1,0,0:2:0:0:
287,177,39062,1,10,0:2:0:0:
316,66,39234,1,0,0:2:0:0:
431,60,39405,1,2,0:2:0:0:
381,150,39577,5,0,0:1:0:0:
381,150,39662,1,0,0:2:0:0:
381,150,39748,1,12,0:2:0:0:
202,61,40091,5,6,0:1:0:0:
188,177,40262,1,0,0:2:0:0:
72,201,40434,1,10,0:2:0:0:
12,99,40605,1,0,0:2:0:0:
92,11,40777,1,2,0:2:0:0:
210,68,40948,5,0,0:2:0:0:
210,68,41034,1,0,0:2:0:0:
210,68,41120,2,0,P|300:84|349:37,1,152.999995330811,10|4,0:3|0:1,0:2:0:0:
359,37,41805,6,0,P|404:106|391:188,1,170,10|2,0:2|0:2,0:2:0:0:
294,242,42320,1,2,0:2:0:0:
295,132,42491,1,10,0:3:0:0:
41,192,42834,6,0,L|139:182,1,85,2|0,0:2|0:2,0:2:0:0:
220,269,43177,2,0,L|318:259,1,85,10|0,0:2|0:2,0:2:0:0:
417,199,43520,2,0,L|399:29,2,170,2|10|2,0:2|0:3|0:3,0:2:0:0:
304,260,44377,5,2,0:2:0:0:
294,180,44548,2,0,L|285:95,1,85,10|0,0:3|0:2,0:2:0:0:
163,13,44891,5,2,0:2:0:0:
163,13,45062,1,2,0:2:0:0:
66,96,45234,1,2,0:2:0:0:
66,96,45405,1,2,0:2:0:0:
186,139,45577,5,14,0:2:0:0:
80,235,45748,1,8,0:2:0:0:
80,235,45834,1,8,0:2:0:0:
80,235,45920,1,8,0:2:0:0:
221,294,46091,1,8,0:2:0:0:
221,294,46177,1,8,0:2:0:0:
221,294,46262,2,0,L|321:285,1,93.5000028533936,8|8,0:2|0:2,0:0:0:0:
448,341,46605,5,8,0:0:0:0:
429,315,46691,1,8,0:0:0:0:
420,284,46777,1,8,0:0:0:0:
422,253,46862,1,8,0:0:0:0:
434,224,46948,6,2,P|463:157|412:45,1,187.000005706787,6|10,0:0|0:1,0:1:0:0:
288,18,47462,1,2,0:2:0:0:
354,145,47634,1,2,0:1:0:0:
227,211,47805,1,0,0:0:0:0:
161,84,47977,1,10,0:1:0:0:
161,84,48148,1,0,0:0:0:0:
19,150,48320,6,2,P|-19:232|9:318,1,187.000005706787,6|10,0:2|0:1,0:1:0:0:
142,363,48834,1,2,0:2:0:0:
142,363,48920,1,2,0:2:0:0:
142,363,49005,2,0,L|250:351,1,93.5000028533936,2|0,0:1|0:0,0:0:0:0:
372,382,49348,2,0,L|361:289,1,93.5000028533936,10|0,0:1|0:0,0:0:0:0:
448,139,49691,6,2,P|383:210|293:193,1,187.000005706787,6|10,0:0|0:1,0:1:0:0:
202,253,50205,1,2,0:2:0:0:
115,181,50377,2,0,P|111:129|126:84,1,93.5000028533936,2|0,0:1|0:0,0:0:0:0:
218,28,50720,5,10,0:1:0:0:
218,28,50891,1,0,0:0:0:0:
307,95,51062,5,2,0:0:0:0:
414,62,51234,1,2,0:2:0:0:
478,153,51405,1,10,0:1:0:0:
411,241,51577,1,2,0:2:0:0:
306,204,51748,1,2,0:0:0:0:
238,292,51920,1,2,0:2:0:0:
300,383,52091,1,10,0:1:0:0:
405,352,52262,1,2,0:2:0:0:
411,241,52434,6,2,L|417:26,1,187.000005706787,6|10,0:0|0:0,0:1:0:0:
310,107,52948,1,2,0:2:0:0:
310,107,53034,1,2,0:2:0:0:
310,107,53120,1,2,0:1:0:0:
230,15,53291,1,0,0:0:0:0:
172,121,53462,1,10,0:1:0:0:
252,213,53634,1,0,0:0:0:0:
184,330,53805,6,2,P|120:351|8:300,1,187.000005706787,6|10,0:2|0:0,0:1:0:0:
77,184,54320,1,2,0:2:0:0:
77,184,54405,1,2,0:2:0:0:
77,184,54491,2,0,P|65:138|67:92,1,93.5000028533936,2|0,0:1|0:0,0:0:0:0:
205,120,54834,2,0,P|218:75|242:35,1,93.5000028533936,10|0,0:1|0:0,0:0:0:0:
364,106,55177,6,2,P|417:98|495:220,1,187.000005706787,6|10,0:0|0:1,0:1:0:0:
511,300,55691,1,2,0:2:0:0:
415,358,55862,2,0,L|317:346,1,93.5000028533936,2|0,0:1|0:0,0:0:0:0:
217,382,56205,5,10,0:0:0:0:
217,382,56377,1,0,0:0:0:0:
159,286,56548,5,2,0:0:0:0:
252,222,56720,1,2,0:2:0:0:
188,129,56891,1,10,0:1:0:0:
95,193,57062,1,2,0:2:0:0:
291,115,57234,5,2,0:1:0:0:
273,238,57405,1,2,0:2:0:0:
397,254,57577,1,10,0:1:0:0:
414,131,57748,1,2,0:2:0:0:
343,184,57920,5,6,3:2:0:0:
303,53,59291,1,6,3:2:0:0:
236,131,60662,6,0,P|215:172|202:217,1,93.5000028533936,6|0,0:0|0:2,0:0:0:0:
276,253,61005,2,0,P|296:211|309:166,1,93.5000028533936,10|0,0:1|0:2,0:0:0:0:
181,225,61348,6,0,P|195:269|218:309,1,93.5000028533936,2|0,0:1|0:2,0:0:0:0:
331,159,61691,2,0,P|317:115|294:75,1,93.5000028533936,10|0,0:1|0:2,0:0:0:0:
216,331,62034,6,0,P|257:351|302:364,1,93.5000028533936,2|0,0:0|0:2,0:0:0:0:
296,53,62377,2,0,P|255:33|210:20,1,93.5000028533936,10|0,0:1|0:2,0:0:0:0:
319,376,62720,6,0,P|363:361|403:338,1,93.5000028533936,2|0,0:1|0:2,0:0:0:0:
193,8,63062,2,0,P|149:23|109:46,1,93.5000028533936,10|0,0:1|0:2,0:0:0:0:
256,192,63405,5,6,0:2:0:0:
512,69,64777,1,6,0:2:0:0:
467,382,65634,2,0,B|459:366|459:366|462:359|462:359|451:328,1,50.9999984436036,2|8,0:2|0:2,0:0:0:0:
453,334,66148,6,0,P|414:350|369:344,1,85,6|0,0:0|0:0,0:0:0:0:
275,313,66491,2,0,P|233:308|194:324,1,85,10|0,0:2|0:0,0:0:0:0:
186,333,66748,1,0,0:0:0:0:
176,342,66834,2,0,P|137:358|95:353,1,85,2|0,0:2|0:0,0:0:0:0:
15,288,67177,2,0,P|10:246|26:207,1,85,10|0,0:2|0:0,0:0:0:0:
117,123,67520,6,0,L|125:218,1,85,2|0,0:2|0:0,0:0:0:0:
219,244,67862,2,0,L|226:159,1,85,10|0,0:2|0:0,0:0:0:0:
226,159,68120,1,0,0:0:0:0:
226,159,68205,1,2,0:2:0:0:
307,209,68377,1,0,0:2:0:0:
383,171,68548,1,10,0:2:0:0:
453,219,68720,1,0,0:2:0:0:
508,134,68891,6,0,P|511:94|492:23,1,85,2|0,0:2|0:0,0:0:0:0:
405,20,69234,2,0,P|373:34|316:38,1,85,10|0,0:2|0:0,0:0:0:0:
306,40,69491,1,0,0:0:0:0:
289,34,69577,2,0,P|249:18|207:15,1,85,2|0,0:2|0:0,0:0:0:0:
117,63,69920,2,0,P|109:104|112:146,1,85,10|0,0:2|0:0,0:0:0:0:
183,239,70262,5,2,0:1:0:0:
282,213,70434,1,2,0:2:0:0:
308,312,70605,1,10,0:1:0:0:
209,338,70777,1,2,0:2:0:0:
209,338,70862,1,2,0:2:0:0:
209,338,70948,2,0,L|106:329,1,85,10|0,0:1|0:2,0:0:0:0:
33,377,71291,2,0,L|42:274,1,85,10|0,0:1|0:0,0:0:0:0:
0,217,71634,5,0,0:2:0:0:
0,217,71805,1,0,0:0:0:0:
59,123,71977,6,0,B|56:179|114:189|114:189|149:174,1,136,10|0,0:3|0:2,0:0:0:0:
231,210,72491,1,0,0:0:0:0:
305,161,72662,2,0,L|314:83,1,68,10|0,0:3|0:0,0:0:0:0:
412,23,73005,5,2,0:2:0:0:
412,23,73177,1,0,0:0:0:0:
492,85,73348,1,10,0:2:0:0:
487,193,73520,1,2,3:3:0:0:
487,193,73605,1,2,3:3:0:0:
487,193,73691,2,0,L|470:334,1,136,2|10,0:3|0:3,0:0:0:0:
271,382,74377,5,0,0:0:0:0:
271,382,74548,1,0,0:0:0:0:
216,277,74720,6,0,L|294:268,1,68,10|0,0:2|0:0,0:0:0:0:
384,258,75062,2,0,L|376:190,1,68,2|0,0:2|0:0,0:0:0:0:
365,90,75405,2,0,L|297:97,1,68,10|0,0:2|0:0,0:0:0:0:
197,109,75748,2,0,L|215:265,2,136,2|10|0,0:2|0:3|0:0,0:0:0:0:
197,109,76605,1,0,0:0:0:0:
101,29,76777,5,10,0:2:0:0:
38,110,76948,1,2,3:3:0:0:
38,110,77034,1,2,3:0:0:0:
38,110,77120,2,0,L|47:188,1,68,2|0,0:2|0:0,0:0:0:0:
109,257,77462,2,0,L|176:249,1,68,10|0,0:2|0:0,0:0:0:0:
264,197,77805,2,0,L|256:129,1,68,2|0,0:2|0:0,0:0:0:0:
336,36,78148,5,10,0:2:0:0:
432,70,78320,1,2,3:3:0:0:
432,70,78405,1,2,3:3:0:0:
432,70,78491,2,0,P|449:113|440:151,1,68,2|0,0:2|0:0,0:0:0:0:
412,230,78834,2,0,P|379:238|354:260,1,68,10|0,0:2|0:0,0:0:0:0:
299,347,79177,2,0,P|231:371|166:358,1,136,2|12,0:2|0:2,0:0:0:0:
0,231,79862,5,0,0:0:0:0:
0,231,80034,1,0,0:0:0:0:
75,277,80205,2,0,L|218:253,1,136,10|0,0:3|0:0,0:0:0:0:
277,197,80720,1,0,3:0:0:0:
277,197,80805,1,0,0:0:0:0:
277,197,80891,2,0,P|263:166|264:109,1,68,10|0,0:3|0:0,0:0:0:0:
367,77,81234,5,2,0:2:0:0:
427,158,81405,1,0,0:0:0:0:
508,99,81577,1,10,0:3:0:0:
449,18,81748,1,0,0:0:0:0:
367,77,81920,1,2,0:2:0:0:
294,21,82091,1,2,0:3:0:0:
294,21,82177,1,2,0:3:0:0:
294,21,82262,1,12,0:2:0:0:
118,49,82605,5,2,0:3:0:0:
118,49,82948,1,2,0:3:0:0:
118,49,83291,1,2,0:3:0:0:
118,49,83634,1,2,0:3:0:0:
174,102,83805,5,2,0:3:0:0:
144,179,83977,5,2,0:3:0:0:
144,179,84320,1,2,0:3:0:0:
144,179,84662,1,2,0:3:0:0:
144,179,85005,1,2,0:3:0:0:
205,226,85177,5,2,0:3:0:0:
281,195,85348,5,2,0:3:0:0:
281,195,85691,1,2,0:3:0:0:
281,195,86034,1,2,0:3:0:0:
281,195,86377,1,2,0:3:0:0:
339,245,86548,5,2,0:3:0:0:
406,207,86720,5,2,0:3:0:0:
379,359,87062,1,2,0:3:0:0:
227,332,87405,2,2,L|156:320,1,59.4999981842042,2|0,0:2|0:0,0:1:0:0:
254,172,87748,6,2,L|268:88,1,76.4999976654053,10|0,0:1|0:0,0:1:0:0:
376,26,88091,5,6,0:1:0:0:
440,168,88262,1,0,0:2:0:0:
471,12,88434,1,10,0:2:0:0:
355,120,88605,1,0,0:2:0:0:
511,103,88777,1,2,0:2:0:0:
436,89,88948,5,0,0:1:0:0:
436,89,89034,1,0,0:2:0:0:
436,89,89120,1,14,0:2:0:0:
254,29,89462,5,6,0:1:0:0:
183,185,89634,1,0,0:2:0:0:
149,13,89805,1,10,0:2:0:0:
277,132,89977,1,0,0:2:0:0:
105,113,90148,1,2,0:2:0:0:
194,98,90320,5,0,0:2:0:0:
194,98,90405,1,0,0:2:0:0:
194,98,90491,1,10,0:3:0:0:
10,277,90834,5,4,0:1:0:0:
10,277,91005,1,0,0:0:0:0:
94,384,91177,6,0,L|102:293,1,85,10|0,0:3|0:2,0:2:0:0:
197,192,91520,5,2,0:2:0:0:
234,313,91691,1,2,0:2:0:0:
356,275,91862,1,10,0:2:0:0:
318,154,92034,1,2,0:2:0:0:
201,196,92205,5,10,0:1:0:0:
201,196,92377,1,2,0:2:0:0:
360,280,92548,1,10,0:1:0:0:
360,280,92720,1,2,0:2:0:0:
318,154,92891,5,10,0:1:0:0:
242,320,93062,1,10,0:2:0:0:
242,320,93148,1,10,0:2:0:0:
242,320,93234,1,10,0:1:0:0:
76,243,93405,1,2,0:2:0:0:
152,77,93577,6,2,L|165:270,1,187.000005706787,6|10,0:0|0:1,0:1:0:0:
319,369,94091,1,2,0:2:0:0:
371,238,94262,1,2,0:1:0:0:
457,347,94434,1,0,0:0:0:0:
323,373,94605,1,10,0:1:0:0:
323,373,94777,1,0,0:0:0:0:
369,217,94948,6,2,L|356:24,1,187.000005706787,6|10,0:2|0:1,0:1:0:0:
284,171,95462,1,2,0:2:0:0:
284,171,95548,1,2,0:2:0:0:
284,171,95634,2,0,L|276:66,1,93.5000028533936,2|0,0:1|0:0,0:0:0:0:
445,163,95977,2,0,L|438:69,1,93.5000028533936,10|0,0:1|0:0,0:0:0:0:
357,263,96320,6,2,P|319:207|194:237,1,187.000005706787,6|10,0:0|0:1,0:1:0:0:
127,292,96834,1,2,0:2:0:0:
31,232,97005,2,0,P|18:187|31:137,1,93.5000028533936,2|0,0:1|0:0,0:0:0:0:
108,63,97348,5,10,0:1:0:0:
108,63,97520,1,0,0:0:0:0:
201,124,97691,5,2,0:0:0:0:
262,29,97862,1,2,0:2:0:0:
357,90,98034,1,10,0:2:0:0:
296,185,98205,1,2,0:2:0:0:
391,246,98377,1,2,0:0:0:0:
452,151,98548,1,2,0:2:0:0:
296,185,98720,1,14,0:2:0:0:
357,90,98891,1,2,0:2:0:0:
389,268,99062,6,2,P|429:344|515:311,1,187.000005706787,6|10,0:0|0:0,0:1:0:0:
438,184,99577,1,2,0:2:0:0:
438,184,99662,1,2,0:2:0:0:
438,184,99748,1,2,0:1:0:0:
321,217,99920,1,0,0:0:0:0:
207,173,100091,1,10,0:1:0:0:
91,210,100262,1,0,0:0:0:0:
3,110,100434,6,2,P|43:34|129:67,1,187.000005706787,6|10,0:2|0:0,0:1:0:0:
215,180,100948,1,2,0:2:0:0:
215,180,101034,1,2,0:2:0:0:
215,180,101120,2,0,P|203:226|209:275,1,93.5000028533936,2|0,0:1|0:0,0:0:0:0:
391,326,101462,2,0,P|402:281|398:234,1,93.5000028533936,10|0,0:1|0:0,0:0:0:0:
310,86,101805,6,2,L|102:57,1,187.000005706787,6|10,0:0|0:1,0:1:0:0:
13,39,102320,1,2,0:2:0:0:
50,144,102491,2,0,L|35:248,1,93.5000028533936,2|0,0:1|0:0,0:0:0:0:
21,348,102834,5,10,0:0:0:0:
21,348,103005,1,0,0:0:0:0:
133,293,103177,5,2,0:0:0:0:
224,358,103348,1,2,0:2:0:0:
235,246,103520,1,10,0:1:0:0:
133,293,103691,1,2,0:2:0:0:
241,154,103862,5,6,0:1:0:0:
341,240,104034,1,10,0:2:0:0:
341,240,104120,1,8,0:2:0:0:
341,240,104205,1,10,0:2:0:0:
428,155,104377,5,10,0:2:0:0:
428,155,104462,1,8,0:0:0:0:
428,155,104548,2,2,B|416:119|416:119|419:98|419:98|406:61,1,97.7500018644333,6|0,0:0|0:0,0:1:0:0:
158,116,104891,2,2,B|170:80|170:80|167:59|167:59|180:22,1,97.7500018644333,10|0,0:1|0:0,0:1:0:0:
259,171,105234,5,2,0:0:0:0:
149,235,105405,1,2,0:2:0:0:
213,345,105577,1,10,0:0:0:0:
323,281,105748,2,0,L|376:250,2,48.8750009322167,2|0|0,0:2|0:2|0:2,0:0:0:0:
204,356,106091,5,2,0:1:0:0:
132,325,106262,1,10,0:1:0:0:
75,379,106434,1,2,0:2:0:0:
8,337,106605,2,2,B|-8:312|-8:312|9:240,1,97.7500018644333,2|0,0:1|0:0,0:1:0:0:
107,114,106948,5,10,0:1:0:0:
207,175,107120,2,2,B|251:191|251:191|312:169,1,97.7500018644333,2|0,0:1|0:0,0:1:0:0:
100,133,107462,1,2,0:1:0:0:
200,194,107634,2,2,B|244:210|244:210|305:188,1,97.7500018644333,10|0,0:1|0:0,0:1:0:0:
287,54,107977,2,2,B|243:38|243:38|182:60,1,97.7500018644333,2|0,0:1|0:0,0:1:0:0:
373,133,108320,5,10,0:0:0:0:
415,49,108491,1,2,0:2:0:0:
415,49,108577,1,2,0:2:0:0:
415,49,108662,1,2,0:1:0:0:
499,91,108834,1,2,0:2:0:0:
457,175,109005,1,10,0:0:0:0:
373,133,109177,1,2,0:2:0:0:
331,217,109348,1,2,0:0:0:0:
415,259,109520,1,2,0:2:0:0:
457,175,109691,1,10,0:0:0:0:
288,28,110034,5,2,0:1:0:0:
288,28,110205,1,0,0:0:0:0:
178,71,110377,2,2,B|131:86|131:86|89:60,1,97.7500018644333,10|0,0:1|0:0,0:1:0:0:
261,151,110720,6,2,B|308:136|308:136|349:161,1,97.7500018644333,2|0,0:1|0:0,0:1:0:0:
425,250,111062,1,10,0:0:0:0:
327,315,111234,2,2,B|280:330|280:330|238:304,1,97.7500018644333,2|0,0:1|0:0,0:1:0:0:
163,219,111577,5,2,0:1:0:0:
265,155,111748,1,10,0:1:0:0:
265,155,111920,1,2,0:2:0:0:
235,37,112091,1,2,0:1:0:0:
113,29,112262,2,0,L|95:145,1,97.7500018644333,2|8,0:2|0:0,0:0:0:0:
73,254,112605,5,2,0:2:0:0:
73,254,112691,1,2,0:2:0:0:
73,254,112777,1,2,0:1:0:0:
174,230,112948,1,2,0:2:0:0:
233,307,113120,1,10,0:1:0:0:
322,268,113291,1,2,0:2:0:0:
404,331,113462,5,2,0:1:0:0:
439,218,113634,1,2,0:2:0:0:
349,142,113805,1,10,0:1:0:0:
247,201,113977,1,2,0:2:0:0:
146,140,114148,5,2,1:1:0:0:
147,127,114234,1,0,1:2:0:0:
149,115,114320,1,0,1:2:0:0:
151,103,114405,1,0,1:2:0:0:
153,91,114491,1,10,1:1:0:0:
155,79,114577,1,0,1:2:0:0:
156,67,114662,1,0,1:2:0:0:
158,55,114748,1,0,1:2:0:0:
160,43,114834,5,10,0:1:0:0:
242,102,115005,1,2,0:2:0:0:
247,201,115177,5,10,0:1:0:0:
339,68,115348,1,2,0:2:0:0:
441,160,115520,6,0,P|476:238|458:368,1,203.999993774414,6|10,0:1|0:1,0:0:0:0:
319,242,116034,1,2,0:2:0:0:
249,377,116205,1,2,0:1:0:0:
114,307,116377,1,0,0:0:0:0:
184,172,116548,1,10,0:1:0:0:
184,172,116720,1,0,0:0:0:0:
328,256,116891,6,2,P|428:275|448:171,1,203.999993774414,6|10,0:2|0:1,0:1:0:0:
335,103,117405,1,2,0:2:0:0:
335,103,117491,1,2,0:2:0:0:
335,103,117577,2,0,P|352:45|332:-23,1,101.999996887207,2|0,0:1|0:0,0:0:0:0:
194,76,117920,2,0,P|152:32|83:15,1,101.999996887207,10|0,0:1|0:0,0:0:0:0:
29,159,118262,6,2,P|-3:214|22:353,1,203.999993774414,6|10,0:0|0:1,0:1:0:0:
136,382,118777,1,2,0:2:0:0:
232,307,118948,2,0,L|246:196,1,101.999996887207,2|0,0:1|0:0,0:0:0:0:
296,96,119291,5,10,0:1:0:0:
296,96,119462,1,0,0:0:0:0:
398,165,119634,5,2,0:0:0:0:
491,86,119805,1,2,0:2:0:0:
389,17,119977,1,10,0:1:0:0:
296,96,120148,1,2,0:2:0:0:
203,175,120320,1,2,0:0:0:0:
101,106,120491,1,2,0:2:0:0:
194,27,120662,1,10,0:1:0:0:
296,96,120834,1,2,0:2:0:0:
198,196,121005,6,2,P|159:278|200:389,1,203.999993774414,6|10,0:0|0:0,0:1:0:0:
322,268,121520,1,2,0:2:0:0:
322,268,121605,1,2,0:2:0:0:
322,268,121691,1,2,0:1:0:0:
439,328,121862,1,0,0:0:0:0:
499,211,122034,1,10,0:1:0:0:
382,151,122205,1,0,0:0:0:0:
227,248,122377,6,2,P|164:274|49:210,1,203.999993774414,6|10,0:2|0:0,0:1:0:0:
217,103,122891,1,2,0:2:0:0:
217,103,122977,1,2,0:2:0:0:
217,103,123062,2,0,L|230:-12,1,101.999996887207,2|0,0:1|0:0,0:0:0:0:
366,95,123405,2,0,L|481:108,1,101.999996887207,10|0,0:1|0:0,0:0:0:0:
409,261,123748,6,2,P|395:338|271:342,1,203.999993774414,6|10,0:0|0:1,0:1:0:0:
173,301,124262,1,2,0:2:0:0:
220,187,124434,2,0,P|232:144|219:74,1,101.999996887207,10|0,0:1|0:0,0:0:0:0:
126,6,124777,5,10,0:0:0:0:
126,6,124948,1,0,0:0:0:0:
14,77,125120,5,6,0:0:0:0:
68,207,125291,1,8,0:2:0:0:
68,207,125377,1,8,0:2:0:0:
68,207,125462,1,10,0:1:0:0:
207,188,125634,1,8,0:2:0:0:
207,188,125720,1,8,0:0:0:0:
207,188,125805,2,0,L|226:79,1,101.999996887207,10|8,0:1|0:2,0:0:0:0:
322,27,126148,5,10,0:1:0:0:
324,58,126234,1,8,0:0:0:0:
345,83,126320,1,8,0:2:0:0:
376,90,126405,1,8,0:0:0:0:
405,77,126491,1,6,0:1:0:0:
485,0,126662,5,2,0:2:0:0:
512,117,126834,2,0,L|500:246,1,110.499994941712,10|0,0:1|0:0,0:0:0:0:
373,192,127177,1,2,0:1:0:0:
306,306,127348,1,2,0:2:0:0:
187,245,127520,2,0,L|176:134,1,110.499994941712,10|0,0:1|0:0,0:0:0:0:
46,58,127862,5,6,0:1:0:0:
46,58,128034,1,0,0:0:0:0:
0,208,128205,1,10,0:1:0:0:
0,208,128377,1,0,0:0:0:0:
150,254,128548,2,2,L|397:228,2,220.999989883423,2|8|4,0:1|0:0|0:1,0:1:0:0:
33,337,129405,5,2,0:2:0:0:
0,208,129577,2,0,L|19:76,1,110.499994941712,10|0,0:1|0:0,0:0:0:0:
126,172,129920,1,2,0:1:0:0:
232,93,130091,1,2,0:2:0:0:
317,193,130262,2,0,L|298:325,1,110.499994941712,10|0,0:1|0:0,0:0:0:0:
452,384,130605,5,2,0:1:0:0:
452,384,130777,1,0,0:2:0:0:
476,234,130948,1,10,0:1:0:0:
476,234,131120,1,2,0:3:0:0:
326,210,131291,2,2,L|90:167,2,220.999989883423,2|12|4,0:1|0:2|0:1,0:1:0:0:
445,308,132148,5,2,0:2:0:0:
476,155,132320,2,0,L|497:37,1,110.499994941712,10|0,0:1|0:0,0:0:0:0:
370,88,132662,1,2,0:1:0:0:
258,15,132834,1,2,0:2:0:0:
143,82,133005,2,0,L|121:200,1,110.499994941712,10|0,0:1|0:0,0:0:0:0:
164,344,133348,5,6,0:1:0:0:
164,344,133520,1,0,0:2:0:0:
302,275,133691,1,10,0:0:0:0:
302,275,133862,1,0,0:0:0:0:
431,360,134034,2,2,P|453:260|417:137,2,220.999989883423,2|10|4,0:1|0:1|0:1,0:1:0:0:
269,260,134891,5,2,0:2:0:0:
259,370,135062,1,10,0:1:0:0:
154,363,135234,1,2,0:2:0:0:
154,363,135320,1,2,0:2:0:0:
154,363,135405,2,0,L|28:348,1,110.499994941712,2|2,0:1|0:2,0:0:0:0:
151,192,135748,2,0,L|166:66,1,110.499994941712,10|0,0:1|0:0,0:0:0:0:
310,8,136091,5,2,0:1:0:0:
310,8,136262,1,2,0:2:0:0:
412,131,136434,1,10,0:1:0:0:
412,131,136605,1,2,0:2:0:0:
289,233,136777,1,2,0:1:0:0:
289,233,136948,1,2,0:2:0:0:
187,110,137120,1,10,0:1:0:0:
195,83,137205,1,8,0:0:0:0:
196,56,137291,1,8,0:0:0:0:
189,29,137377,1,8,0:0:0:0:
175,5,137462,6,0,P|115:5|59:23,1,118.999996368408,6|0,0:1|0:2,0:0:0:0:
289,233,137805,2,0,P|348:232|404:214,1,118.999996368408,10|0,0:1|0:2,0:0:0:0:
65,114,138148,6,0,P|65:173|83:229,1,118.999996368408,10|0,0:1|0:2,0:0:0:0:
392,133,138491,2,0,P|391:73|373:17,1,118.999996368408,10|0,0:1|0:0,0:0:0:0:
166,273,138834,5,14,0:1:0:0:
166,273,139005,1,0,0:0:0:0:
213,89,139177,5,10,0:1:0:0:
213,89,139348,1,0,0:0:0:0:
396,137,139520,5,10,0:1:0:0:
396,137,139691,1,0,0:0:0:0:
348,320,139862,5,10,0:1:0:0:
348,320,140034,1,0,0:0:0:0:
228,179,140205,6,0,B|168:235|175:290|221:346|285:323|298:271|257:215|210:245|231:279,1,255,6|2,1:2|0:2,0:1:0:0:
