osu file format v14

[General]
AudioFilename: audio.mp3
AudioLeadIn: 0
PreviewTime: 99282
Countdown: 0
SampleSet: Soft
StackLeniency: 0.7
Mode: 3
LetterboxInBreaks: 0
SpecialStyle: 0
WidescreenStoryboard: 1

[Editor]
Bookmarks: 8082,22482,42282,56682,63882,71082,85482,99882,114282,128682,143082,155682,157482,161082
DistanceSpacing: 1.8
BeatDivisor: 4
GridSize: 32
TimelineZoom: 0.9

[Metadata]
Title:Horizon Blue
TitleUnicode:Horizon Blue
Artist:Nothing But Requiem feat. Aikapin & Chiyoko
ArtistUnicode:Nothing But Requiem feat. Aikapin & Chiyoko
Creator:cai_ji_ccc
Version:Muze_0407's Acoustic
Source:Lanota
Tags:qiufeng_xz Chain & Horizon Blue Muze_0407 Koharu Rikka Su8primer ChiralSS Video Game Japanese Noxy Games Chapter VI-5 Blue Android electronic instrumental gabber hardcore The Sound of Life 生命の音 2.2 ch. 6 phigros
BeatmapID:3973404
BeatmapSetID:1921040

[Difficulty]
HPDrainRate:7
CircleSize:4
OverallDifficulty:7
ApproachRate:5
SliderMultiplier:1.4
SliderTickRate:1

[Events]
//Background and Video events
0,0,"1673508153627.jpg",0,0
//Break Periods
//Storyboard Layer 0 (Background)
//Storyboard Layer 1 (Fail)
//Storyboard Layer 2 (Pass)
//Storyboard Layer 3 (Foreground)
//Storyboard Layer 4 (Overlay)
//Storyboard Sound Samples
Sample,92682,0,"snare1.wav",40
Sample,94482,0,"snare1.wav",40
Sample,129582,0,"clap07.wav",40
Sample,130182,0,"snare2.wav",35
Sample,130482,0,"clap07.wav",40
Sample,131382,0,"clap07.wav",40
Sample,131982,0,"snare2.wav",35
Sample,133182,0,"clap07.wav",40
Sample,133782,0,"snare2.wav",35
Sample,134082,0,"clap07.wav",40
Sample,134982,0,"clap07.wav",40

[TimingPoints]
882,300,3,2,1,30,1,0
99882,-100,3,2,1,30,0,1
113382,-100,3,2,1,30,0,0
116082,-100,3,2,1,30,0,1
127782,-100,3,2,1,30,0,0
143082,-100,3,2,1,30,0,1
151032,-100,3,2,1,30,0,0
152082,-100,3,2,1,30,0,1
152832,-100,3,2,1,30,0,0
153882,-100,3,2,1,30,0,1
155682,-100,3,2,1,30,0,0
157482,-100,3,2,1,30,0,1
161082,-100,3,2,1,30,0,0

[HitObjects]
448,192,582,128,0,882:0:0:0:0:
64,192,882,128,0,1482:0:0:0:35:snare2.wav
192,192,882,1,0,0:0:0:40:snare1.wav
448,192,1182,1,0,0:0:0:40:snare1.wav
192,192,1482,1,0,0:0:0:40:snare1.wav
320,192,1782,1,0,0:0:0:40:snare1.wav
448,192,1782,128,0,2382:0:0:0:0:
64,192,2082,1,0,0:0:0:40:snare1.wav
320,192,2382,1,0,0:0:0:40:snare1.wav
192,192,2532,1,0,0:0:0:40:snare1.wav
64,192,2682,128,0,3282:0:0:0:40:snare1.wav
448,192,2682,1,0,0:0:0:0:
320,192,2982,1,0,0:0:0:40:snare1.wav
192,192,3282,1,0,0:0:0:40:snare1.wav
448,192,3582,1,0,0:0:0:40:snare1.wav
64,192,3732,1,0,0:0:0:40:snare1.wav
320,192,3882,1,0,0:0:0:40:snare1.wav
192,192,4182,1,0,0:0:0:40:snare1.wav
448,192,4332,1,0,0:0:0:40:snare1.wav
64,192,4482,1,0,0:0:0:35:snare2.wav
320,192,4482,1,0,0:0:0:40:snare1.wav
192,192,4632,1,0,0:0:0:40:snare1.wav
320,192,4782,1,0,0:0:0:40:snare1.wav
64,192,4932,1,0,0:0:0:40:snare1.wav
192,192,5082,1,0,0:0:0:40:snare1.wav
448,192,5232,1,0,0:0:0:40:snare1.wav
320,192,5382,128,0,5682:0:0:0:40:snare1.wav
64,192,5682,128,0,5982:0:0:0:40:snare1.wav
320,192,5982,1,0,0:0:0:35:snare2.wav
448,192,5982,1,0,0:0:0:40:snare1.wav
64,192,6282,1,0,0:0:0:35:snare2.wav
192,192,6282,1,0,0:0:0:40:snare1.wav
448,192,7182,128,0,7782:0:0:0:0:
64,192,7782,1,0,0:0:0:0:
320,192,8082,1,0,0:0:0:0:
192,192,8382,1,0,0:0:0:0:
448,192,8682,1,0,0:0:0:0:
320,192,8982,1,0,0:0:0:0:
64,192,9282,1,0,0:0:0:0:
192,192,9582,1,0,0:0:0:0:
448,192,9882,128,0,10482:0:0:0:0:
64,192,10782,128,0,11082:0:0:0:0:
320,192,11382,1,0,0:0:0:0:
192,192,11532,1,0,0:0:0:0:
448,192,11682,1,0,0:0:0:0:
320,192,11982,1,0,0:0:0:0:
64,192,12282,1,0,0:0:0:0:
192,192,12582,128,0,13182:0:0:0:0:
448,192,13182,1,0,0:0:0:0:
320,192,13482,128,0,14082:0:0:0:0:
64,192,14382,1,0,0:0:0:0:
448,192,14982,1,0,0:0:0:0:
320,192,15132,1,0,0:0:0:0:
64,192,15282,1,0,0:0:0:0:
192,192,15582,1,0,0:0:0:0:
320,192,15882,1,0,0:0:0:0:
448,192,16182,1,0,0:0:0:0:
320,192,16782,1,0,0:0:0:0:
192,192,16932,1,0,0:0:0:0:
64,192,17082,1,0,0:0:0:0:
448,192,17382,1,0,0:0:0:0:
192,192,17832,1,0,0:0:0:0:
320,192,17982,1,0,0:0:0:0:
448,192,18582,1,0,0:0:0:0:
320,192,18732,1,0,0:0:0:0:
64,192,18882,1,0,0:0:0:0:
192,192,19182,1,0,0:0:0:0:
448,192,19482,1,0,0:0:0:0:
192,192,19782,1,0,0:0:0:0:
320,192,19932,1,0,0:0:0:0:
448,192,20082,128,0,20532:0:0:0:0:
64,192,20532,1,0,0:0:0:0:
192,192,20682,128,0,21282:0:0:0:0:
448,192,21582,1,0,0:0:0:0:
192,192,22182,128,0,22482:0:0:0:0:
64,192,22482,1,0,0:0:0:50:kick.wav
448,192,22482,128,0,22782:0:0:0:35:cymbal01.wav
320,192,22782,1,0,0:0:0:0:
192,192,22932,1,0,0:0:0:50:kick.wav
64,192,23082,128,0,23382:0:0:0:0:
320,192,23382,1,0,0:0:0:35:snare2.wav
448,192,23382,1,0,0:0:0:0:
192,192,23682,1,0,0:0:0:0:
448,192,23982,128,0,24282:0:0:0:0:
64,192,24282,1,0,0:0:0:50:kick.wav
192,192,24282,1,0,0:0:0:0:
320,192,24582,1,0,0:0:0:0:
192,192,24732,1,0,0:0:0:50:kick.wav
448,192,24882,128,0,25182:0:0:0:0:
64,192,25182,1,0,0:0:0:35:snare2.wav
320,192,25182,1,0,0:0:0:0:
192,192,25482,1,0,0:0:0:0:
320,192,25782,128,0,26082:0:0:0:0:
64,192,26082,128,0,26382:0:0:0:50:kick.wav
448,192,26082,1,0,0:0:0:0:
192,192,26382,1,0,0:0:0:0:
320,192,26532,1,0,0:0:0:50:kick.wav
448,192,26682,128,0,26982:0:0:0:0:
64,192,26982,1,0,0:0:0:35:snare2.wav
192,192,26982,128,0,27282:0:0:0:0:
320,192,27282,128,0,27732:0:0:0:0:
192,192,27732,1,0,0:0:0:0:
64,192,27882,1,0,0:0:0:50:kick.wav
448,192,27882,128,0,28782:0:0:0:0:
320,192,28332,1,0,0:0:0:50:kick.wav
64,192,28782,1,0,0:0:0:35:snare2.wav
192,192,28782,1,0,0:0:0:0:
320,192,29082,1,0,0:0:0:0:
192,192,29382,1,0,0:0:0:35:snare2.wav
320,192,29532,1,0,0:0:0:35:snare2.wav
64,192,29682,128,0,29982:0:0:0:50:kick.wav
448,192,29682,1,0,0:0:0:35:cymbal01.wav
192,192,29982,1,0,0:0:0:0:
320,192,30132,1,0,0:0:0:50:kick.wav
448,192,30282,128,0,30582:0:0:0:0:
64,192,30582,1,0,0:0:0:35:snare2.wav
192,192,30582,1,0,0:0:0:0:
320,192,30882,1,0,0:0:0:0:
64,192,31182,128,0,31482:0:0:0:0:
192,192,31482,1,0,0:0:0:50:kick.wav
448,192,31482,128,0,31782:0:0:0:0:
320,192,31782,1,0,0:0:0:0:
64,192,31932,1,0,0:0:0:50:kick.wav
192,192,32082,1,0,0:0:0:0:
320,192,32382,128,0,32682:0:0:0:35:snare2.wav
448,192,32382,1,0,0:0:0:0:
64,192,32682,1,0,0:0:0:0:
192,192,32982,1,0,0:0:0:35:snare2.wav
320,192,33132,1,0,0:0:0:35:snare2.wav
64,192,33282,128,0,33582:0:0:0:50:kick.wav
448,192,33282,1,0,0:0:0:35:cymbal01.wav
192,192,33582,1,0,0:0:0:0:
448,192,33732,1,0,0:0:0:50:kick.wav
320,192,33882,128,0,34182:0:0:0:0:
64,192,34182,1,0,0:0:0:35:snare2.wav
192,192,34182,1,0,0:0:0:0:
448,192,34482,1,0,0:0:0:0:
64,192,34782,1,0,0:0:0:35:snare2.wav
320,192,34782,1,0,0:0:0:0:
192,192,35082,1,0,0:0:0:50:kick.wav
448,192,35082,1,0,0:0:0:35:cymbal01.wav
320,192,35232,1,0,0:0:0:35:snare2.wav
64,192,35382,1,0,0:0:0:0:
192,192,35532,1,0,0:0:0:50:kick.wav
448,192,35832,1,0,0:0:0:0:
64,192,35982,128,0,36882:0:0:0:35:snare2.wav
320,192,35982,1,0,0:0:0:0:
192,192,36282,1,0,0:0:0:0:
448,192,36582,1,0,0:0:0:35:snare2.wav
192,192,36732,1,0,0:0:0:35:snare2.wav
320,192,36882,128,0,37782:0:0:0:50:kick.wav
448,192,36882,1,0,0:0:0:35:cymbal01.wav
192,192,37182,1,0,0:0:0:0:
448,192,37332,1,0,0:0:0:50:kick.wav
64,192,37482,1,0,0:0:0:0:
192,192,37782,128,0,38682:0:0:0:35:snare2.wav
448,192,37782,1,0,0:0:0:0:
320,192,38082,1,0,0:0:0:0:
64,192,38382,1,0,0:0:0:35:snare2.wav
320,192,38682,1,0,0:0:0:50:kick.wav
448,192,38682,128,0,40482:0:0:0:35:cymbal01.wav
64,192,38832,1,0,0:0:0:35:snare2.wav
320,192,39132,1,0,0:0:0:50:kick.wav
192,192,39432,1,0,0:0:0:0:
320,192,39582,1,0,0:0:0:35:snare2.wav
64,192,39882,1,0,0:0:0:35:snare2.wav
320,192,40182,1,0,0:0:0:35:snare2.wav
192,192,40332,1,0,0:0:0:35:snare2.wav
64,192,40482,128,0,40782:0:0:0:50:kick.wav
320,192,40782,128,0,41082:0:0:0:40:kick.wav
192,192,41082,128,0,41382:0:0:0:20:kick.wav
64,192,41382,1,0,0:0:0:0:
448,192,41382,1,0,0:0:0:0:
320,192,41682,128,0,41982:0:0:0:0:
64,192,41982,128,0,42282:0:0:0:0:
192,192,42282,1,0,0:0:0:50:kick.wav
448,192,42282,128,0,43182:0:0:0:35:cymbal01.wav
320,192,42732,1,0,0:0:0:35:snare2.wav
64,192,43182,1,0,0:0:0:50:kick.wav
192,192,43182,128,0,44082:0:0:0:0:
320,192,43482,1,0,0:0:0:50:kick.wav
64,192,43782,1,0,0:0:0:35:snare2.wav
320,192,44082,128,0,44532:0:0:0:50:kick.wav
448,192,44082,1,0,0:0:0:0:
192,192,44532,1,0,0:0:0:35:snare2.wav
64,192,44682,128,0,44982:0:0:0:0:
320,192,44982,1,0,0:0:0:50:kick.wav
448,192,44982,128,0,45282:0:0:0:0:
192,192,45282,1,0,0:0:0:50:kick.wav
320,192,45582,1,0,0:0:0:35:snare2.wav
192,192,45732,1,0,0:0:0:0:
64,192,45882,128,0,46782:0:0:0:50:kick.wav
448,192,45882,1,0,0:0:0:0:
192,192,46332,1,0,0:0:0:35:snare2.wav
320,192,46782,1,0,0:0:0:50:kick.wav
448,192,46782,128,0,47382:0:0:0:0:
192,192,47082,1,0,0:0:0:50:kick.wav
64,192,47382,1,0,0:0:0:35:snare2.wav
320,192,47382,128,0,47682:0:0:0:0:
192,192,47682,128,0,49182:0:0:0:50:kick.wav
448,192,47682,1,0,0:0:0:0:
320,192,48132,1,0,0:0:0:35:snare2.wav
448,192,48582,128,0,48882:0:0:0:50:kick.wav
320,192,48882,128,0,49182:0:0:0:35:snare2.wav
64,192,49182,1,0,0:0:0:35:snare2.wav
448,192,49332,1,0,0:0:0:35:snare2.wav
64,192,49482,128,0,50382:0:0:0:50:kick.wav
192,192,49482,1,0,0:0:0:35:cymbal01.wav
320,192,49932,1,0,0:0:0:35:snare2.wav
192,192,50382,1,0,0:0:0:50:kick.wav
448,192,50382,128,0,51282:0:0:0:0:
320,192,50682,1,0,0:0:0:50:kick.wav
64,192,50982,1,0,0:0:0:35:snare2.wav
192,192,51282,128,0,51732:0:0:0:50:kick.wav
320,192,51282,1,0,0:0:0:0:
448,192,51732,1,0,0:0:0:35:snare2.wav
320,192,51882,128,0,52182:0:0:0:0:
64,192,52182,1,0,0:0:0:50:kick.wav
192,192,52182,1,0,0:0:0:0:
320,192,52482,1,0,0:0:0:50:kick.wav
192,192,52782,1,0,0:0:0:35:snare2.wav
320,192,52932,1,0,0:0:0:0:
64,192,53082,1,0,0:0:0:50:kick.wav
448,192,53082,128,0,53982:0:0:0:0:
192,192,53532,1,0,0:0:0:35:snare2.wav
64,192,53982,128,0,54582:0:0:0:50:kick.wav
320,192,53982,1,0,0:0:0:0:
192,192,54282,1,0,0:0:0:50:kick.wav
320,192,54582,128,0,54882:0:0:0:35:snare2.wav
448,192,54582,1,0,0:0:0:0:
64,192,54882,1,0,0:0:0:50:kick.wav
192,192,54882,128,0,55782:0:0:0:0:
448,192,55332,1,0,0:0:0:35:snare2.wav
320,192,55782,1,0,0:0:0:50:kick.wav
64,192,56082,1,0,0:0:0:35:snare2.wav
448,192,56082,1,0,0:0:0:0:
320,192,56382,1,0,0:0:0:35:snare2.wav
192,192,56532,1,0,0:0:0:35:snare2.wav
64,192,56682,128,0,57582:0:0:0:50:kick.wav
448,192,56682,1,0,0:0:0:35:cymbal01.wav
320,192,57132,1,0,0:0:0:35:snare2.wav
192,192,57582,1,0,0:0:0:50:kick.wav
448,192,57582,128,0,58182:0:0:0:0:
320,192,57882,1,0,0:0:0:50:kick.wav
64,192,58182,1,0,0:0:0:35:snare2.wav
192,192,58182,128,0,58482:0:0:0:0:
320,192,58482,128,0,59382:0:0:0:50:kick.wav
448,192,58482,1,0,0:0:0:0:
192,192,58932,1,0,0:0:0:35:snare2.wav
64,192,59382,1,0,0:0:0:50:kick.wav
448,192,59382,1,0,0:0:0:0:
320,192,59682,1,0,0:0:0:50:kick.wav
192,192,59982,1,0,0:0:0:35:snare2.wav
320,192,60132,1,0,0:0:0:0:
64,192,60282,1,0,0:0:0:50:kick.wav
448,192,60282,128,0,60582:0:0:0:0:
320,192,60582,1,0,0:0:0:0:
192,192,60732,1,0,0:0:0:35:snare2.wav
64,192,60882,128,0,61182:0:0:0:0:
320,192,61182,1,0,0:0:0:50:kick.wav
448,192,61182,128,0,61782:0:0:0:0:
192,192,61482,1,0,0:0:0:50:kick.wav
64,192,61782,128,0,62082:0:0:0:35:snare2.wav
320,192,61782,1,0,0:0:0:0:
192,192,62082,128,0,63582:0:0:0:50:kick.wav
448,192,62082,1,0,0:0:0:0:
320,192,62532,1,0,0:0:0:35:snare2.wav
448,192,62982,128,0,63282:0:0:0:50:kick.wav
320,192,63282,128,0,63582:0:0:0:35:snare2.wav
64,192,63582,1,0,0:0:0:35:snare2.wav
448,192,63732,1,0,0:0:0:35:snare2.wav
64,192,63882,128,0,64782:0:0:0:50:kick.wav
320,192,63882,1,0,0:0:0:35:cymbal01.wav
192,192,64332,1,0,0:0:0:35:snare2.wav
320,192,64782,1,0,0:0:0:50:kick.wav
448,192,64782,128,0,65382:0:0:0:0:
192,192,65082,1,0,0:0:0:35:snare2.wav
320,192,65382,1,0,0:0:0:35:snare2.wav
192,192,65532,1,0,0:0:0:35:snare2.wav
64,192,65682,128,0,65982:0:0:0:50:kick.wav
448,192,65682,1,0,0:0:0:35:cymbal01.wav
192,192,65982,1,0,0:0:0:0:
320,192,66132,1,0,0:0:0:35:snare2.wav
448,192,66282,128,0,66582:0:0:0:0:
192,192,66582,128,0,66882:0:0:0:50:kick.wav
64,192,66882,1,0,0:0:0:35:snare2.wav
448,192,66882,1,0,0:0:0:0:
320,192,67182,1,0,0:0:0:35:snare2.wav
192,192,67332,1,0,0:0:0:35:snare2.wav
64,192,67482,1,0,0:0:0:50:kick.wav
448,192,67482,128,0,67782:0:0:0:35:cymbal01.wav
320,192,67782,1,0,0:0:0:0:
192,192,67932,1,0,0:0:0:35:snare2.wav
64,192,68082,128,0,68382:0:0:0:0:
320,192,68382,1,0,0:0:0:50:kick.wav
448,192,68382,1,0,0:0:0:35:cymbal01.wav
192,192,68532,1,0,0:0:0:35:snare2.wav
448,192,68682,1,0,0:0:0:35:snare2.wav
320,192,68832,1,0,0:0:0:35:snare2.wav
64,192,68982,1,0,0:0:0:35:snare2.wav
192,192,69132,1,0,0:0:0:35:snare2.wav
320,192,69282,1,0,0:0:0:0:
64,192,69582,1,0,0:0:0:0:
448,192,69882,1,0,0:0:0:0:
320,192,70182,1,0,0:0:0:0:
192,192,70482,128,0,70782:0:0:0:0:
448,192,70782,128,0,71082:0:0:0:0:
64,192,71082,128,0,71232:0:0:0:50:kick.wav
320,192,71082,1,0,0:0:0:0:
192,192,71382,128,0,71532:0:0:0:0:
320,192,71682,128,0,71832:0:0:0:0:
448,192,71982,128,0,72132:0:0:0:0:
64,192,72282,128,0,72582:0:0:0:0:
320,192,72582,128,0,72732:0:0:0:0:
192,192,72732,128,0,72882:0:0:0:0:
448,192,72882,128,0,73032:0:0:0:0:
320,192,73182,128,0,73332:0:0:0:0:
192,192,73482,128,0,73632:0:0:0:0:
64,192,73782,128,0,73932:0:0:0:0:
448,192,74082,128,0,74382:0:0:0:0:
192,192,74382,128,0,74682:0:0:0:0:
320,192,74682,128,0,74832:0:0:0:0:
64,192,74982,128,0,75132:0:0:0:0:
448,192,75282,128,0,75432:0:0:0:0:
192,192,75582,128,0,75732:0:0:0:0:
320,192,75882,128,0,76032:0:0:0:0:
64,192,76182,128,0,76332:0:0:0:0:
448,192,76482,128,0,76632:0:0:0:0:
320,192,76782,128,0,76932:0:0:0:0:
192,192,77082,128,0,77232:0:0:0:0:
448,192,77382,128,0,77682:0:0:0:0:
64,192,77682,128,0,77982:0:0:0:0:
192,192,77982,128,0,78132:0:0:0:0:
320,192,78132,128,0,78282:0:0:0:0:
64,192,78282,1,0,0:0:0:50:kick.wav
448,192,78282,128,0,78432:0:0:0:0:
192,192,78582,128,0,78732:0:0:0:0:
320,192,78882,128,0,79032:0:0:0:0:
64,192,79182,128,0,79332:0:0:0:0:
448,192,79482,128,0,79782:0:0:0:0:
192,192,79782,128,0,79932:0:0:0:0:
320,192,79932,128,0,80082:0:0:0:0:
64,192,80082,128,0,80232:0:0:0:0:
192,192,80382,128,0,80532:0:0:0:0:
320,192,80682,128,0,80832:0:0:0:0:
448,192,80982,128,0,81132:0:0:0:0:
64,192,81282,128,0,81582:0:0:0:0:
320,192,81582,128,0,81882:0:0:0:0:
192,192,81882,128,0,82032:0:0:0:0:
448,192,82182,128,0,82332:0:0:0:0:
64,192,82482,128,0,82632:0:0:0:0:
320,192,82782,128,0,82932:0:0:0:0:
192,192,83082,128,0,83232:0:0:0:0:
448,192,83382,128,0,83532:0:0:0:0:
320,192,83682,128,0,83832:0:0:0:0:
192,192,83982,128,0,84132:0:0:0:0:
64,192,84282,128,0,84432:0:0:0:0:
448,192,84582,128,0,85482:0:0:0:0:
64,192,85482,128,0,86382:0:0:0:35:cymbal01.wav
192,192,85482,1,0,0:0:0:40:snare1.wav
448,192,85782,1,0,0:0:0:40:snare1.wav
192,192,86082,1,0,0:0:0:40:snare1.wav
320,192,86382,1,0,0:0:0:40:snare1.wav
448,192,86382,128,0,87282:0:0:0:0:
192,192,86682,1,0,0:0:0:40:snare1.wav
320,192,86982,1,0,0:0:0:40:snare1.wav
192,192,87132,1,0,0:0:0:40:snare1.wav
64,192,87282,128,0,88482:0:0:0:40:snare1.wav
320,192,87282,1,0,0:0:0:0:
192,192,87582,1,0,0:0:0:40:snare1.wav
448,192,87882,1,0,0:0:0:40:snare1.wav
192,192,88182,1,0,0:0:0:40:snare1.wav
320,192,88332,1,0,0:0:0:40:snare1.wav
192,192,88482,1,0,0:0:0:40:snare1.wav
448,192,88482,128,0,89082:0:0:0:0:
320,192,88782,1,0,0:0:0:40:snare1.wav
192,192,88932,1,0,0:0:0:40:snare1.wav
64,192,89082,128,0,89982:0:0:0:40:snare1.wav
320,192,89082,1,0,0:0:0:0:
192,192,89382,1,0,0:0:0:40:snare1.wav
320,192,89682,1,0,0:0:0:40:snare1.wav
192,192,89982,1,0,0:0:0:40:snare1.wav
448,192,89982,128,0,90882:0:0:0:0:
320,192,90282,1,0,0:0:0:40:snare1.wav
64,192,90582,1,0,0:0:0:40:snare1.wav
320,192,90732,1,0,0:0:0:40:snare1.wav
64,192,90882,128,0,91782:0:0:0:40:snare1.wav
192,192,90882,1,0,0:0:0:0:
448,192,91182,1,0,0:0:0:40:snare1.wav
192,192,91482,1,0,0:0:0:40:snare1.wav
448,192,91782,1,0,0:0:0:40:snare1.wav
320,192,91932,1,0,0:0:0:40:snare1.wav
192,192,92082,1,0,0:0:0:40:snare1.wav
64,192,92382,1,0,0:0:0:40:snare1.wav
192,192,92532,1,0,0:0:0:40:snare1.wav
320,192,92682,1,0,0:0:0:35:cymbal01.wav
448,192,92682,128,0,92982:0:0:0:35:snare2.wav
64,192,92982,1,0,0:0:0:35:snare2.wav
192,192,92982,128,0,93282:0:0:0:40:snare1.wav
320,192,93282,128,0,93582:0:0:0:35:snare2.wav
448,192,93282,1,0,0:0:0:40:snare1.wav
64,192,93582,1,0,0:0:0:0:
192,192,93882,1,0,0:0:0:0:
320,192,94182,1,0,0:0:0:0:
64,192,94482,128,0,94782:0:0:0:35:cymbal01.wav
192,192,94482,1,0,0:0:0:35:snare2.wav
320,192,94782,128,0,95082:0:0:0:35:snare2.wav
448,192,94782,1,0,0:0:0:40:snare1.wav
64,192,95082,1,0,0:0:0:35:snare2.wav
192,192,95082,128,0,95382:0:0:0:40:snare1.wav
448,192,95382,128,0,95682:0:0:0:0:
64,192,95682,128,0,95982:0:0:0:0:
320,192,95982,1,0,0:0:0:0:
192,192,96132,1,0,0:0:0:0:
320,192,96282,1,0,0:0:0:35:cymbal01.wav
448,192,96282,128,0,96482:0:0:0:40:snare1.wav
192,192,96482,128,0,96682:0:0:0:40:snare1.wav
448,192,96682,128,0,96882:0:0:0:40:snare1.wav
64,192,96882,1,0,0:0:0:40:snare1.wav
192,192,96982,1,0,0:0:0:40:snare1.wav
320,192,97082,1,0,0:0:0:40:snare1.wav
64,192,97182,128,0,97382:0:0:0:40:snare1.wav
320,192,97382,128,0,97582:0:0:0:40:snare1.wav
64,192,97582,128,0,97782:0:0:0:40:snare1.wav
448,192,97782,1,0,0:0:0:40:snare1.wav
320,192,97882,1,0,0:0:0:40:snare1.wav
192,192,97982,1,0,0:0:0:40:snare1.wav
320,192,98082,1,0,0:0:0:40:snare1.wav
448,192,98082,1,0,0:0:0:0:
64,192,99282,128,0,99582:0:0:0:0:
320,192,99582,128,0,99882:0:0:0:0:
64,192,99882,1,0,0:0:0:35:cymbal01.wav
192,192,99882,1,0,0:0:0:40:snare1.wav
192,192,100182,1,0,0:0:0:40:snare1.wav
448,192,100182,1,0,0:0:0:0:
320,192,100482,1,0,0:0:0:40:snare1.wav
448,192,100482,1,0,0:0:0:0:
64,192,100782,1,0,0:0:0:40:snare1.wav
320,192,100782,1,0,0:0:0:0:
192,192,101082,1,0,0:0:0:40:snare1.wav
448,192,101382,1,0,0:0:0:40:snare1.wav
320,192,101532,1,0,0:0:0:0:
64,192,101682,1,0,0:0:0:40:snare1.wav
192,192,101682,1,0,0:0:0:0:
64,192,101982,1,0,0:0:0:40:snare1.wav
448,192,101982,1,0,0:0:0:0:
320,192,102282,1,0,0:0:0:40:snare1.wav
448,192,102282,1,0,0:0:0:0:
192,192,102582,1,0,0:0:0:40:snare1.wav
320,192,102582,1,0,0:0:0:0:
64,192,102882,1,0,0:0:0:40:snare1.wav
192,192,102882,128,0,103182:0:0:0:0:
448,192,103182,1,0,0:0:0:40:snare1.wav
320,192,103332,1,0,0:0:0:40:snare1.wav
64,192,103482,1,0,0:0:0:40:snare1.wav
192,192,103482,1,0,0:0:0:0:
64,192,103782,1,0,0:0:0:40:snare1.wav
448,192,103782,1,0,0:0:0:0:
320,192,104082,1,0,0:0:0:40:snare1.wav
448,192,104082,1,0,0:0:0:0:
192,192,104382,1,0,0:0:0:40:snare1.wav
320,192,104382,1,0,0:0:0:0:
64,192,104682,1,0,0:0:0:40:snare1.wav
192,192,104682,1,0,0:0:0:0:
64,192,104982,1,0,0:0:0:40:snare1.wav
448,192,104982,1,0,0:0:0:0:
320,192,105282,1,0,0:0:0:40:snare1.wav
192,192,105432,1,0,0:0:0:40:snare1.wav
64,192,105582,1,0,0:0:0:40:snare1.wav
448,192,105582,1,0,0:0:0:0:
192,192,105882,1,0,0:0:0:40:snare1.wav
320,192,106032,1,0,0:0:0:40:snare1.wav
64,192,106182,1,0,0:0:0:40:snare1.wav
192,192,106332,1,0,0:0:0:40:snare1.wav
320,192,106482,1,0,0:0:0:40:snare1.wav
448,192,106482,1,0,0:0:0:0:
192,192,106782,1,0,0:0:0:40:snare1.wav
320,192,106932,1,0,0:0:0:40:snare1.wav
64,192,107082,1,0,0:0:0:40:snare1.wav
448,192,107082,1,0,0:0:0:0:
64,192,107382,1,0,0:0:0:40:snare1.wav
192,192,107382,1,0,0:0:0:0:
320,192,107682,1,0,0:0:0:40:snare1.wav
448,192,107682,1,0,0:0:0:0:
64,192,107982,1,0,0:0:0:40:snare1.wav
448,192,107982,1,0,0:0:0:0:
192,192,108282,1,0,0:0:0:40:snare1.wav
320,192,108582,1,0,0:0:0:40:snare1.wav
192,192,108732,1,0,0:0:0:40:snare1.wav
64,192,108882,1,0,0:0:0:40:snare1.wav
448,192,108882,1,0,0:0:0:0:
320,192,109182,1,0,0:0:0:40:snare1.wav
448,192,109182,1,0,0:0:0:0:
64,192,109482,1,0,0:0:0:40:snare1.wav
320,192,109482,1,0,0:0:0:0:
192,192,109782,1,0,0:0:0:40:snare1.wav
320,192,109932,1,0,0:0:0:40:snare1.wav
64,192,110082,1,0,0:0:0:40:snare1.wav
192,192,110232,1,0,0:0:0:40:snare1.wav
320,192,110382,1,0,0:0:0:40:snare1.wav
448,192,110382,128,0,110682:0:0:0:0:
64,192,110682,1,0,0:0:0:40:snare1.wav
192,192,110682,1,0,0:0:0:0:
64,192,110982,1,0,0:0:0:40:snare1.wav
448,192,110982,1,0,0:0:0:0:
320,192,111282,1,0,0:0:0:40:snare1.wav
192,192,111432,1,0,0:0:0:40:snare1.wav
448,192,111582,1,0,0:0:0:40:snare1.wav
320,192,111732,1,0,0:0:0:40:snare1.wav
64,192,111882,1,0,0:0:0:40:snare1.wav
192,192,111882,1,0,0:0:0:0:
320,192,112182,128,0,112482:0:0:0:40:snare1.wav
448,192,112182,1,0,0:0:0:0:
64,192,112482,1,0,0:0:0:40:snare1.wav
192,192,112482,128,0,112782:0:0:0:0:
320,192,112782,1,0,0:0:0:40:snare1.wav
448,192,112782,128,0,113082:0:0:0:0:
64,192,113082,128,0,113382:0:0:0:40:snare1.wav
192,192,113082,1,0,0:0:0:0:
320,192,113382,128,0,114282:0:0:0:40:snare1.wav
448,192,113382,1,0,0:0:0:0:
64,192,114282,128,0,114582:0:0:0:40:snare1.wav
320,192,114582,128,0,114882:0:0:0:40:snare1.wav
192,192,114882,128,0,115182:0:0:0:40:snare1.wav
448,192,115182,128,0,115482:0:0:0:40:snare1.wav
320,192,115482,128,0,115782:0:0:0:40:snare1.wav
64,192,115782,1,0,0:0:0:40:snare1.wav
192,192,115932,1,0,0:0:0:0:
320,192,116082,1,0,0:0:0:40:snare1.wav
64,192,116232,1,0,0:0:0:40:snare1.wav
192,192,116382,1,0,0:0:0:40:snare1.wav
448,192,116382,1,0,0:0:0:0:
320,192,116682,1,0,0:0:0:40:snare1.wav
448,192,116682,1,0,0:0:0:0:
64,192,116982,1,0,0:0:0:40:snare1.wav
192,192,116982,1,0,0:0:0:0:
320,192,117282,1,0,0:0:0:40:snare1.wav
448,192,117282,128,0,117582:0:0:0:0:
192,192,117582,1,0,0:0:0:40:snare1.wav
320,192,117732,1,0,0:0:0:40:snare1.wav
64,192,117882,1,0,0:0:0:40:snare1.wav
448,192,117882,1,0,0:0:0:0:
64,192,118182,1,0,0:0:0:40:snare1.wav
192,192,118182,1,0,0:0:0:0:
320,192,118482,1,0,0:0:0:40:snare1.wav
192,192,118632,1,0,0:0:0:40:snare1.wav
64,192,118782,1,0,0:0:0:40:snare1.wav
448,192,118782,1,0,0:0:0:0:
320,192,119082,1,0,0:0:0:40:snare1.wav
448,192,119082,1,0,0:0:0:0:
64,192,119382,1,0,0:0:0:40:snare1.wav
192,192,119532,1,0,0:0:0:40:snare1.wav
320,192,119682,1,0,0:0:0:40:snare1.wav
448,192,119682,1,0,0:0:0:0:
64,192,119982,1,0,0:0:0:40:snare1.wav
192,192,119982,1,0,0:0:0:0:
64,192,120282,1,0,0:0:0:40:snare1.wav
448,192,120282,1,0,0:0:0:0:
320,192,120582,1,0,0:0:0:40:snare1.wav
448,192,120582,128,0,120882:0:0:0:0:
64,192,120882,128,0,121182:0:0:0:40:snare1.wav
192,192,120882,1,0,0:0:0:0:
320,192,121182,1,0,0:0:0:40:snare1.wav
192,192,121332,1,0,0:0:0:40:snare1.wav
64,192,121482,1,0,0:0:0:40:snare1.wav
448,192,121482,1,0,0:0:0:0:
320,192,121782,1,0,0:0:0:40:snare1.wav
448,192,121782,1,0,0:0:0:0:
64,192,122082,1,0,0:0:0:40:snare1.wav
192,192,122082,1,0,0:0:0:0:
320,192,122382,1,0,0:0:0:40:snare1.wav
448,192,122382,1,0,0:0:0:0:
64,192,122607,1,0,0:0:0:40:snare1.wav
192,192,122607,1,0,0:0:0:0:
320,192,122832,1,0,0:0:0:40:snare1.wav
448,192,122832,1,0,0:0:0:0:
192,192,122982,1,0,0:0:0:40:snare1.wav
320,192,123132,1,0,0:0:0:40:snare1.wav
64,192,123282,1,0,0:0:0:40:snare1.wav
448,192,123282,1,0,0:0:0:0:
64,192,123582,1,0,0:0:0:40:snare1.wav
192,192,123582,1,0,0:0:0:0:
320,192,123882,1,0,0:0:0:40:snare1.wav
64,192,123957,1,0,0:0:0:40:snare1.wav
192,192,124107,1,0,0:0:0:40:snare1.wav
448,192,124182,1,0,0:0:0:40:snare1.wav
64,192,124332,1,0,0:0:0:40:snare1.wav
448,192,124482,1,0,0:0:0:40:snare1.wav
64,192,124632,1,0,0:0:0:40:snare1.wav
192,192,124782,1,0,0:0:0:40:snare1.wav
448,192,124782,128,0,125082:0:0:0:0:
64,192,125082,1,0,0:0:0:40:snare1.wav
320,192,125082,1,0,0:0:0:0:
192,192,125232,1,0,0:0:0:40:snare1.wav
448,192,125382,1,0,0:0:0:40:snare1.wav
320,192,125532,1,0,0:0:0:40:snare1.wav
64,192,125682,1,0,0:0:0:40:snare1.wav
64,192,125832,1,0,0:0:0:40:snare1.wav
448,192,125982,1,0,0:0:0:40:snare1.wav
192,192,126132,1,0,0:0:0:40:snare1.wav
320,192,126282,1,0,0:0:0:40:snare1.wav
64,192,126432,1,0,0:0:0:40:snare1.wav
192,192,126582,1,0,0:0:0:40:snare1.wav
192,192,126732,1,0,0:0:0:40:snare1.wav
320,192,126882,1,0,0:0:0:40:snare1.wav
448,192,126882,1,0,0:0:0:0:
64,192,127107,1,0,0:0:0:40:snare1.wav
192,192,127107,1,0,0:0:0:0:
320,192,127332,1,0,0:0:0:40:snare1.wav
448,192,127332,1,0,0:0:0:0:
192,192,127482,1,0,0:0:0:40:snare1.wav
320,192,127632,1,0,0:0:0:40:snare1.wav
64,192,127782,128,0,128682:0:0:0:35:cymbal01.wav
192,192,127782,1,0,0:0:0:40:snare1.wav
320,192,128682,1,0,0:0:0:50:kick.wav
448,192,128682,128,0,129582:0:0:0:35:cymbal01.wav
192,192,128982,1,0,0:0:0:40:clap07.wav
320,192,129132,1,0,0:0:0:35:snare2.wav
192,192,129282,1,0,0:0:0:40:clap07.wav
64,192,129582,128,0,130482:0:0:0:50:kick.wav
320,192,129882,1,0,0:0:0:40:clap07.wav
192,192,130182,1,0,0:0:0:40:clap07.wav
448,192,130482,128,0,131382:0:0:0:50:kick.wav
320,192,130782,1,0,0:0:0:40:clap07.wav
64,192,130932,1,0,0:0:0:35:snare2.wav
320,192,131082,1,0,0:0:0:40:clap07.wav
192,192,131382,128,0,131682:0:0:0:50:kick.wav
320,192,131682,128,0,131982:0:0:0:40:clap07.wav
64,192,131982,1,0,0:0:0:40:clap07.wav
448,192,132132,1,0,0:0:0:0:
192,192,132282,128,0,134082:0:0:0:50:kick.wav
320,192,132282,1,0,0:0:0:40:clap07.wav
64,192,132582,1,0,0:0:0:40:clap07.wav
448,192,132732,1,0,0:0:0:35:snare2.wav
320,192,132882,1,0,0:0:0:40:clap07.wav
64,192,133182,1,0,0:0:0:50:kick.wav
320,192,133482,1,0,0:0:0:40:clap07.wav
64,192,133782,1,0,0:0:0:40:clap07.wav
448,192,134082,128,0,134982:0:0:0:50:kick.wav
320,192,134382,1,0,0:0:0:40:clap07.wav
64,192,134532,1,0,0:0:0:35:snare2.wav
192,192,134682,1,0,0:0:0:40:clap07.wav
320,192,134982,1,0,0:0:0:50:kick.wav
64,192,135282,1,0,0:0:0:40:clap07.wav
192,192,135282,1,0,0:0:0:35:snare2.wav
320,192,135582,1,0,0:0:0:35:snare2.wav
192,192,135732,1,0,0:0:0:35:snare2.wav
64,192,135882,1,0,0:0:0:35:cymbal01.wav
448,192,135882,128,0,136782:0:0:0:40:snare1.wav
320,192,136182,1,0,0:0:0:40:snare1.wav
192,192,136482,1,0,0:0:0:40:snare1.wav
64,192,136782,128,0,137682:0:0:0:40:snare1.wav
320,192,136782,1,0,0:0:0:0:
192,192,137082,1,0,0:0:0:40:snare1.wav
448,192,137382,1,0,0:0:0:40:snare1.wav
192,192,137532,1,0,0:0:0:40:snare1.wav
320,192,137682,1,0,0:0:0:40:snare1.wav
448,192,137682,128,0,138582:0:0:0:0:
64,192,137982,1,0,0:0:0:40:snare1.wav
320,192,138282,1,0,0:0:0:40:snare1.wav
192,192,138582,1,0,0:0:0:40:snare1.wav
320,192,138732,1,0,0:0:0:40:snare1.wav
64,192,138882,1,0,0:0:0:40:snare1.wav
448,192,138882,1,0,0:0:0:0:
320,192,139182,1,0,0:0:0:40:snare1.wav
192,192,139332,1,0,0:0:0:40:snare1.wav
64,192,139482,128,0,140382:0:0:0:40:snare1.wav
448,192,139482,1,0,0:0:0:0:
192,192,139782,1,0,0:0:0:40:snare1.wav
320,192,140082,1,0,0:0:0:40:snare1.wav
192,192,140382,1,0,0:0:0:40:snare1.wav
448,192,140382,128,0,141282:0:0:0:0:
320,192,140682,1,0,0:0:0:40:snare1.wav
64,192,140982,1,0,0:0:0:40:snare1.wav
320,192,141132,1,0,0:0:0:40:snare1.wav
64,192,141282,1,0,0:0:0:0:
192,192,141282,128,0,141882:0:0:0:0:
320,192,141882,128,0,142182:0:0:0:0:
64,192,142182,128,0,143082:0:0:0:0:
448,192,142182,128,0,142482:0:0:0:0:
192,192,142482,128,0,142782:0:0:0:0:
320,192,142782,128,0,143082:0:0:0:0:
192,192,143082,1,0,0:0:0:40:snare1.wav
448,192,143082,1,0,0:0:0:0:
320,192,143232,1,0,0:0:0:40:snare1.wav
64,192,143382,1,0,0:0:0:40:snare1.wav
192,192,143382,1,0,0:0:0:0:
320,192,143682,1,0,0:0:0:40:snare1.wav
192,192,143832,1,0,0:0:0:40:snare1.wav
64,192,143982,1,0,0:0:0:40:snare1.wav
448,192,143982,1,0,0:0:0:0:
320,192,144282,1,0,0:0:0:40:snare1.wav
192,192,144582,1,0,0:0:0:40:snare1.wav
320,192,144732,1,0,0:0:0:40:snare1.wav
64,192,144882,1,0,0:0:0:40:snare1.wav
448,192,144882,1,0,0:0:0:0:
64,192,145182,1,0,0:0:0:40:snare1.wav
192,192,145182,1,0,0:0:0:0:
320,192,145482,1,0,0:0:0:40:snare1.wav
192,192,145632,1,0,0:0:0:40:snare1.wav
64,192,145782,1,0,0:0:0:40:snare1.wav
448,192,145782,128,0,146082:0:0:0:0:
192,192,146082,1,0,0:0:0:40:snare1.wav
320,192,146082,128,0,146382:0:0:0:0:
64,192,146382,128,0,146682:0:0:0:40:snare1.wav
448,192,146382,1,0,0:0:0:0:
192,192,146682,1,0,0:0:0:40:snare1.wav
320,192,146682,1,0,0:0:0:0:
192,192,146982,1,0,0:0:0:40:snare1.wav
448,192,146982,1,0,0:0:0:0:
320,192,147282,1,0,0:0:0:40:snare1.wav
192,192,147357,1,0,0:0:0:40:snare1.wav
64,192,147432,1,0,0:0:0:40:snare1.wav
320,192,147582,1,0,0:0:0:40:snare1.wav
448,192,147582,1,0,0:0:0:0:
64,192,147882,1,0,0:0:0:40:snare1.wav
448,192,147882,1,0,0:0:0:0:
192,192,148182,1,0,0:0:0:40:snare1.wav
320,192,148332,1,0,0:0:0:40:snare1.wav
64,192,148482,1,0,0:0:0:40:snare1.wav
448,192,148482,1,0,0:0:0:0:
64,192,148782,1,0,0:0:0:40:snare1.wav
192,192,148782,1,0,0:0:0:0:
320,192,149082,1,0,0:0:0:40:snare1.wav
448,192,149082,1,0,0:0:0:0:
64,192,149232,1,0,0:0:0:40:snare1.wav
192,192,149307,1,0,0:0:0:40:snare1.wav
320,192,149382,1,0,0:0:0:40:snare1.wav
448,192,149532,1,0,0:0:0:40:snare1.wav
64,192,149682,1,0,0:0:0:40:snare1.wav
320,192,149832,128,0,149982:0:0:0:40:snare1.wav
192,192,149982,1,0,0:0:0:40:snare1.wav
448,192,150132,128,0,150282:0:0:0:0:
64,192,150282,128,0,150582:0:0:0:35:snare2.wav
192,192,150282,1,0,0:0:0:40:snare1.wav
320,192,150582,1,0,0:0:0:35:snare2.wav
448,192,150582,128,0,150882:0:0:0:40:snare1.wav
64,192,150882,1,0,0:0:0:35:snare2.wav
192,192,150882,1,0,0:0:0:40:snare1.wav
320,192,151032,1,0,0:0:0:40:snare1.wav
64,192,151182,1,0,0:0:0:0:
448,192,151482,1,0,0:0:0:0:
192,192,151782,1,0,0:0:0:50:snare3.wav
192,192,151932,1,0,0:0:0:50:snare3.wav
320,192,152082,1,0,0:0:0:35:snare2.wav
448,192,152082,128,0,152382:0:0:0:40:snare1.wav
64,192,152382,128,0,152682:0:0:0:35:snare2.wav
192,192,152382,1,0,0:0:0:40:snare1.wav
320,192,152682,1,0,0:0:0:35:snare2.wav
448,192,152682,1,0,0:0:0:40:snare1.wav
192,192,152832,1,0,0:0:0:40:snare1.wav
448,192,152982,1,0,0:0:0:0:
64,192,153282,1,0,0:0:0:0:
320,192,153582,1,0,0:0:0:0:
192,192,153732,1,0,0:0:0:0:
320,192,153882,1,0,0:0:0:40:snare1.wav
448,192,153882,128,0,154082:0:0:0:0:
192,192,154082,128,0,154282:0:0:0:40:snare1.wav
448,192,154282,128,0,154482:0:0:0:40:snare1.wav
64,192,154482,1,0,0:0:0:40:snare1.wav
192,192,154582,1,0,0:0:0:40:snare1.wav
320,192,154682,1,0,0:0:0:40:snare1.wav
64,192,154782,128,0,154982:0:0:0:40:snare1.wav
320,192,154982,128,0,155182:0:0:0:40:snare1.wav
64,192,155182,128,0,155382:0:0:0:40:snare1.wav
448,192,155382,1,0,0:0:0:40:snare1.wav
320,192,155482,1,0,0:0:0:40:snare1.wav
192,192,155582,1,0,0:0:0:40:snare1.wav
320,192,155682,1,0,0:0:0:40:snare1.wav
448,192,155682,1,0,0:0:0:0:
64,192,155882,1,0,0:0:0:0:
448,192,155982,1,0,0:0:0:40:snare1.wav
192,192,156082,1,0,0:0:0:0:
320,192,156282,1,0,0:0:0:40:snare1.wav
64,192,156382,1,0,0:0:0:0:
448,192,156482,1,0,0:0:0:0:
192,192,156582,128,0,156782:0:0:0:40:snare1.wav
64,192,156782,1,0,0:0:0:0:
448,192,156882,1,0,0:0:0:40:snare1.wav
320,192,156982,128,0,157182:0:0:0:0:
192,192,157182,1,0,0:0:0:40:snare1.wav
320,192,157332,1,0,0:0:0:40:snare1.wav
64,192,157482,128,0,157682:0:0:0:40:snare1.wav
192,192,157482,1,0,0:0:0:0:
320,192,157682,128,0,157882:0:0:0:40:snare1.wav
64,192,157882,128,0,158082:0:0:0:40:snare1.wav
448,192,158082,1,0,0:0:0:40:snare1.wav
320,192,158182,1,0,0:0:0:40:snare1.wav
192,192,158282,1,0,0:0:0:40:snare1.wav
448,192,158382,128,0,158582:0:0:0:40:snare1.wav
192,192,158582,128,0,158782:0:0:0:40:snare1.wav
448,192,158782,128,0,158982:0:0:0:40:snare1.wav
64,192,158982,1,0,0:0:0:40:snare1.wav
192,192,159082,1,0,0:0:0:40:snare1.wav
320,192,159182,1,0,0:0:0:40:snare1.wav
64,192,159282,128,0,159582:0:0:0:40:snare1.wav
192,192,159282,1,0,0:0:0:0:
320,192,159582,1,0,0:0:0:40:snare1.wav
448,192,159582,128,0,159882:0:0:0:0:
64,192,159882,1,0,0:0:0:40:snare1.wav
192,192,159882,1,0,0:0:0:0:
320,192,160032,128,0,160182:0:0:0:0:
64,192,160182,128,0,161082:0:0:0:40:snare1.wav
448,192,160182,1,0,0:0:0:0:
192,192,161082,1,0,0:0:0:50:kick.wav
448,192,161082,1,0,0:0:0:0:
