osu file format v14

[General]
AudioFilename: audio.mp3
AudioLeadIn: 0
PreviewTime: 60674
Countdown: 0
SampleSet: Normal
StackLeniency: 0.7
Mode: 1
LetterboxInBreaks: 0
WidescreenStoryboard: 0

[Editor]
Bookmarks: 9916,19613,29310,41432,51129,60826,80219,89916,102038,111735,121432,131129,142038
DistanceSpacing: 1.7
BeatDivisor: 4
GridSize: 32
TimelineZoom: 1.74

[Metadata]
Title:Ice Festival
TitleUnicode:Ice Festival
Artist:Nota
ArtistUnicode:Nota
Creator:Marm
Version:Oni
Source:BMS
Tags:BOFU2017
BeatmapID:1535800
BeatmapSetID:727434

[Difficulty]
HPDrainRate:5
CircleSize:2
OverallDifficulty:5
ApproachRate:0
SliderMultiplier:1.4
SliderTickRate:1

[Events]
//Background and Video events
0,0,"maxresdefault.jpg",0,80
//Break Periods
2,82844,87510
2,124056,129329
//Storyboard Layer 0 (Background)
//Storyboard Layer 1 (Fail)
//Storyboard Layer 2 (Pass)
//Storyboard Layer 3 (Foreground)
//Storyboard Sound Samples

[TimingPoints]
220,303.030303030303,4,1,0,100,1,0
60826,-100,4,1,0,100,0,1
80219,-100,4,1,0,100,0,0
111735,-100,4,1,0,100,0,1
121432,-100,4,1,0,100,0,0

[HitObjects]
256,192,220,5,12,0:0:0:0:
256,192,674,1,8,0:0:0:0:
256,192,977,1,0,0:0:0:0:
256,192,1129,1,0,0:0:0:0:
256,192,1280,1,8,0:0:0:0:
256,192,1432,1,8,0:0:0:0:
256,192,1886,1,8,0:0:0:0:
256,192,2189,1,8,0:0:0:0:
256,192,2341,1,0,0:0:0:0:
256,192,2492,1,8,0:0:0:0:
256,192,2644,1,0,0:0:0:0:
256,192,2947,1,8,0:0:0:0:
256,192,3250,1,8,0:0:0:0:
256,192,3553,1,0,0:0:0:0:
128,192,3856,1,8,0:0:0:0:
128,192,4007,1,8,0:0:0:0:
128,192,4159,1,0,0:0:0:0:
128,192,4310,1,8,0:0:0:0:
96,128,4462,1,0,0:0:0:0:
96,224,4765,1,8,0:0:0:0:
96,224,4916,1,0,0:0:0:0:
96,224,5068,1,8,0:0:0:0:
128,224,5523,1,8,0:0:0:0:
128,224,5826,1,0,0:0:0:0:
128,224,5977,1,0,0:0:0:0:
128,224,6129,1,8,0:0:0:0:
128,224,6280,1,8,0:0:0:0:
128,224,6735,1,8,0:0:0:0:
128,224,7038,1,0,0:0:0:0:
128,224,7189,1,8,0:0:0:0:
128,224,7341,1,0,0:0:0:0:
128,224,7492,1,8,0:0:0:0:
128,224,7795,1,8,0:0:0:0:
128,224,8098,1,0,0:0:0:0:
128,256,8401,1,0,0:0:0:0:
128,256,8553,1,8,0:0:0:0:
128,256,8856,1,8,0:0:0:0:
128,256,9007,1,0,0:0:0:0:
96,256,9310,1,8,0:0:0:0:
128,256,9613,1,8,0:0:0:0:
128,256,9765,1,0,0:0:0:0:
128,256,9916,1,12,0:0:0:0:
96,224,10371,1,8,0:0:0:0:
96,224,10674,1,0,0:0:0:0:
96,224,10826,1,0,0:0:0:0:
96,224,10977,1,8,0:0:0:0:
96,224,11129,1,12,0:0:0:0:
96,256,11583,1,8,0:0:0:0:
96,256,11886,1,8,0:0:0:0:
96,256,12038,1,0,0:0:0:0:
96,256,12189,1,8,0:0:0:0:
96,256,12341,1,4,0:0:0:0:
96,192,12644,1,8,0:0:0:0:
96,192,12947,1,8,0:0:0:0:
96,192,13250,1,0,0:0:0:0:
96,192,13553,1,12,0:0:0:0:
96,192,13704,1,0,0:0:0:0:
96,192,13856,1,0,0:0:0:0:
96,192,14007,1,8,0:0:0:0:
96,192,14159,1,0,0:0:0:0:
128,224,14310,1,8,0:0:0:0:
128,256,14386,1,8,0:0:0:0:
128,256,14462,1,8,0:0:0:0:
160,256,14613,1,8,0:0:0:0:
160,256,14765,1,0,0:0:0:0:
160,256,15068,1,8,0:0:0:0:
160,256,15220,1,8,0:0:0:0:
160,256,15371,1,0,0:0:0:0:
160,224,15523,1,0,0:0:0:0:
160,224,15674,1,8,0:0:0:0:
160,224,15826,1,8,0:0:0:0:
160,224,15977,1,0,0:0:0:0:
160,224,16129,1,8,0:0:0:0:
160,224,16280,1,0,0:0:0:0:
160,224,16432,1,8,0:0:0:0:
160,224,16583,1,0,0:0:0:0:
160,224,16659,1,0,0:0:0:0:
160,224,16735,1,8,0:0:0:0:
160,256,16810,1,8,0:0:0:0:
160,224,16886,1,0,0:0:0:0:
160,224,16962,1,0,0:0:0:0:
160,224,17038,1,8,0:0:0:0:
160,224,17113,1,8,0:0:0:0:
160,224,17189,1,0,0:0:0:0:
128,256,17644,1,0,0:0:0:0:
128,256,17795,1,8,0:0:0:0:
128,256,18098,1,8,0:0:0:0:
128,256,18250,1,8,0:0:0:0:
128,256,18401,1,4,0:0:0:0:
160,256,19310,1,8,0:0:0:0:
160,256,19613,1,4,0:0:0:0:
96,256,20219,1,8,0:0:0:0:
96,256,20523,1,0,0:0:0:0:
96,256,20674,1,8,0:0:0:0:
96,256,20826,1,0,0:0:0:0:
160,224,21129,1,8,0:0:0:0:
160,224,21432,1,8,0:0:0:0:
160,224,21583,1,8,0:0:0:0:
160,224,21735,1,0,0:0:0:0:
160,224,21886,1,8,0:0:0:0:
160,224,22038,1,0,0:0:0:0:
160,224,22795,1,0,0:0:0:0:
160,224,22947,1,0,0:0:0:0:
160,224,23098,1,8,0:0:0:0:
160,224,23250,1,8,0:0:0:0:
160,224,23553,1,8,0:0:0:0:
160,224,23856,1,8,0:0:0:0:
160,224,23957,1,0,0:0:0:0:
160,224,24058,1,0,0:0:0:0:
160,224,24159,1,8,0:0:0:0:
160,224,24462,1,0,0:0:0:0:
160,224,25068,1,8,0:0:0:0:
160,224,25371,1,0,0:0:0:0:
160,224,25523,1,8,0:0:0:0:
160,224,25674,1,0,0:0:0:0:
160,256,25977,1,8,0:0:0:0:
160,256,26280,1,8,0:0:0:0:
160,256,26432,1,8,0:0:0:0:
160,256,26583,1,0,0:0:0:0:
160,256,26735,1,8,0:0:0:0:
160,256,26886,1,0,0:0:0:0:
160,256,27644,1,0,0:0:0:0:
160,256,27795,1,0,0:0:0:0:
160,256,27947,1,8,0:0:0:0:
160,256,28098,1,8,0:0:0:0:
160,256,28401,1,8,0:0:0:0:
160,256,28704,1,12,0:0:0:0:
160,256,28856,1,0,0:0:0:0:
160,256,29007,1,12,0:0:0:0:
96,224,29310,1,4,0:0:0:0:
160,256,29613,1,8,0:0:0:0:
160,256,29916,1,0,0:0:0:0:
96,192,30068,1,0,0:0:0:0:
96,192,30144,1,0,0:0:0:0:
160,256,30219,1,8,0:0:0:0:
160,256,30371,1,8,0:0:0:0:
160,256,30523,1,0,0:0:0:0:
192,224,30826,1,8,0:0:0:0:
96,192,30977,1,0,0:0:0:0:
192,224,31129,1,8,0:0:0:0:
128,224,31204,1,8,0:0:0:0:
192,224,31280,1,0,0:0:0:0:
192,224,31432,1,8,0:0:0:0:
192,224,31583,1,8,0:0:0:0:
192,224,31735,1,0,0:0:0:0:
96,224,32038,1,8,0:0:0:0:
96,224,32341,1,0,0:0:0:0:
128,256,32492,1,0,0:0:0:0:
96,256,32568,1,0,0:0:0:0:
128,256,32644,1,8,0:0:0:0:
128,256,32795,1,0,0:0:0:0:
128,256,32947,1,8,0:0:0:0:
96,256,33250,1,8,0:0:0:0:
96,224,33553,1,8,0:0:0:0:
128,224,33654,1,0,0:0:0:0:
128,224,33755,1,0,0:0:0:0:
128,224,33856,1,8,0:0:0:0:
128,224,34159,1,0,0:0:0:0:
128,224,34462,1,8,0:0:0:0:
128,224,34613,1,0,0:0:0:0:
128,224,34765,1,12,0:0:0:0:
128,224,35068,1,8,0:0:0:0:
128,224,35219,1,8,0:0:0:0:
128,192,35295,1,8,0:0:0:0:
128,224,35371,1,0,0:0:0:0:
128,224,35674,1,8,0:0:0:0:
128,224,35977,1,8,0:0:0:0:
128,224,36129,1,0,0:0:0:0:
128,224,36204,1,0,0:0:0:0:
128,224,36280,1,8,0:0:0:0:
128,224,36432,1,8,0:0:0:0:
128,224,36583,1,0,0:0:0:0:
128,224,36886,1,8,0:0:0:0:
128,224,37189,1,0,0:0:0:0:
128,224,37341,1,0,0:0:0:0:
96,192,37416,1,0,0:0:0:0:
128,224,37492,1,8,0:0:0:0:
128,224,37644,1,0,0:0:0:0:
96,224,37795,1,8,0:0:0:0:
96,224,37871,1,8,0:0:0:0:
96,224,37947,1,0,0:0:0:0:
96,224,38023,1,0,0:0:0:0:
96,224,38098,1,8,0:0:0:0:
96,192,38401,1,8,0:0:0:0:
128,224,38502,1,0,0:0:0:0:
128,224,38603,1,0,0:0:0:0:
128,224,38704,1,8,0:0:0:0:
64,160,39007,1,4,0:0:0:0:
64,160,39462,1,0,0:0:0:0:
64,160,39613,1,8,0:0:0:0:
64,160,40219,1,4,0:0:0:0:
128,160,41129,1,0,0:0:0:0:
128,160,41204,1,0,0:0:0:0:
128,160,41280,1,8,0:0:0:0:
128,160,41356,1,8,0:0:0:0:
128,160,41432,1,0,0:0:0:0:
128,160,41735,1,8,0:0:0:0:
128,160,42038,1,0,0:0:0:0:
128,160,42341,1,8,0:0:0:0:
128,160,42492,1,8,0:0:0:0:
128,160,42644,1,0,0:0:0:0:
96,160,42795,1,8,0:0:0:0:
128,192,43098,1,0,0:0:0:0:
128,192,43250,1,8,0:0:0:0:
128,192,43401,1,0,0:0:0:0:
128,192,43553,1,8,0:0:0:0:
128,192,43629,1,0,0:0:0:0:
128,192,43704,1,8,0:0:0:0:
128,192,43856,1,0,0:0:0:0:
128,192,44159,1,8,0:0:0:0:
128,192,44462,1,0,0:0:0:0:
128,192,44613,1,0,0:0:0:0:
128,192,44689,1,0,0:0:0:0:
128,192,44765,1,8,0:0:0:0:
128,192,44916,1,0,0:0:0:0:
128,192,45219,1,0,0:0:0:0:
128,192,45371,1,8,0:0:0:0:
128,192,45523,1,8,0:0:0:0:
128,192,45674,1,0,0:0:0:0:
128,192,45977,1,8,0:0:0:0:
96,224,46280,1,0,0:0:0:0:
96,224,46583,1,8,0:0:0:0:
96,224,46886,1,0,0:0:0:0:
128,192,47189,1,8,0:0:0:0:
128,192,47341,1,8,0:0:0:0:
96,224,47492,1,0,0:0:0:0:
128,192,47644,1,8,0:0:0:0:
128,192,47947,1,0,0:0:0:0:
128,192,48099,1,8,0:0:0:0:
128,192,48250,1,0,0:0:0:0:
128,192,48326,1,0,0:0:0:0:
128,192,48402,1,8,0:0:0:0:
128,192,48553,1,8,0:0:0:0:
128,192,48705,1,0,0:0:0:0:
128,192,49008,1,8,0:0:0:0:
128,192,49311,1,0,0:0:0:0:
128,192,49462,1,0,0:0:0:0:
128,192,49538,1,0,0:0:0:0:
128,192,49614,1,8,0:0:0:0:
128,192,49765,1,0,0:0:0:0:
128,192,50068,1,8,0:0:0:0:
128,192,50220,1,0,0:0:0:0:
128,192,50372,1,8,0:0:0:0:
128,192,50523,1,0,0:0:0:0:
128,192,50675,1,0,0:0:0:0:
128,192,50826,1,8,0:0:0:0:
128,192,51129,1,8,0:0:0:0:
128,192,51280,1,0,0:0:0:0:
128,192,51432,1,8,0:0:0:0:
128,192,51583,1,0,0:0:0:0:
160,256,51659,1,0,0:0:0:0:
128,192,51735,1,8,0:0:0:0:
128,192,51886,1,0,0:0:0:0:
128,192,52038,1,8,0:0:0:0:
128,192,52189,1,8,0:0:0:0:
128,192,52341,1,0,0:0:0:0:
128,192,52492,1,8,0:0:0:0:
96,224,52795,1,0,0:0:0:0:
128,256,52947,1,8,0:0:0:0:
160,224,53023,1,8,0:0:0:0:
160,224,53098,1,0,0:0:0:0:
160,224,53250,1,8,0:0:0:0:
160,224,53401,1,8,0:0:0:0:
160,224,53553,1,0,0:0:0:0:
160,224,53856,1,8,0:0:0:0:
160,224,54159,1,0,0:0:0:0:
192,224,54310,1,0,0:0:0:0:
160,224,54462,1,8,0:0:0:0:
128,256,54613,1,8,0:0:0:0:
160,224,54689,1,8,0:0:0:0:
160,224,54765,1,0,0:0:0:0:
160,224,54916,1,0,0:0:0:0:
160,224,55068,1,8,0:0:0:0:
128,256,55219,1,8,0:0:0:0:
160,224,55371,1,0,0:0:0:0:
160,224,55674,1,8,0:0:0:0:
160,224,55750,1,8,0:0:0:0:
160,224,55826,1,8,0:0:0:0:
160,224,55901,1,8,0:0:0:0:
160,224,55977,1,0,0:0:0:0:
160,224,56129,1,0,0:0:0:0:
128,224,56280,1,8,0:0:0:0:
160,224,56356,1,8,0:0:0:0:
160,224,56432,1,0,0:0:0:0:
128,224,56583,1,0,0:0:0:0:
160,224,56735,1,0,0:0:0:0:
128,224,56886,1,8,0:0:0:0:
160,224,56962,1,0,0:0:0:0:
160,224,57038,1,8,0:0:0:0:
128,224,57189,1,0,0:0:0:0:
128,224,57341,1,0,0:0:0:0:
128,224,57492,1,8,0:0:0:0:
160,224,57568,1,8,0:0:0:0:
160,224,57644,1,0,0:0:0:0:
128,224,57795,1,0,0:0:0:0:
128,224,57947,1,0,0:0:0:0:
128,224,58098,1,8,0:0:0:0:
128,224,58174,1,0,0:0:0:0:
128,224,58250,1,8,0:0:0:0:
128,224,58401,1,0,0:0:0:0:
128,224,58704,1,8,0:0:0:0:
128,224,59007,1,0,0:0:0:0:
128,224,59159,1,0,0:0:0:0:
128,224,59235,1,0,0:0:0:0:
128,224,59310,1,8,0:0:0:0:
128,224,59462,1,0,0:0:0:0:
128,224,59613,1,8,0:0:0:0:
128,224,59841,1,8,0:0:0:0:
128,224,60068,1,8,0:0:0:0:
128,224,60219,1,0,0:0:0:0:
128,224,60295,1,0,0:0:0:0:
128,224,60371,1,8,0:0:0:0:
128,224,60523,1,0,0:0:0:0:
128,224,60598,1,0,0:0:0:0:
128,224,60674,1,0,0:0:0:0:
128,224,60750,1,0,0:0:0:0:
128,224,60826,1,8,0:0:0:0:
160,224,60977,1,0,0:0:0:0:
128,224,61129,1,8,0:0:0:0:
128,224,61204,1,0,0:0:0:0:
128,224,61356,1,8,0:0:0:0:
128,224,61583,1,0,0:0:0:0:
128,224,61735,1,8,0:0:0:0:
128,224,61886,1,0,0:0:0:0:
128,224,61962,1,0,0:0:0:0:
128,224,62038,1,8,0:0:0:0:
128,224,62189,1,0,0:0:0:0:
128,224,62341,1,8,0:0:0:0:
128,224,62416,1,0,0:0:0:0:
128,224,62568,1,8,0:0:0:0:
128,224,62795,1,8,0:0:0:0:
128,224,62947,1,0,0:0:0:0:
128,224,63098,1,8,0:0:0:0:
128,224,63250,1,0,0:0:0:0:
128,224,63553,1,8,0:0:0:0:
128,224,63780,1,8,0:0:0:0:
128,224,64007,1,8,0:0:0:0:
128,224,64159,1,8,0:0:0:0:
128,224,64310,1,0,0:0:0:0:
128,256,64462,1,8,0:0:0:0:
128,256,64538,1,0,0:0:0:0:
128,256,64613,1,8,0:0:0:0:
128,256,64689,1,0,0:0:0:0:
128,256,64765,1,8,0:0:0:0:
128,256,64916,1,0,0:0:0:0:
128,256,65068,1,8,0:0:0:0:
128,256,65371,1,8,0:0:0:0:
128,224,65523,1,8,0:0:0:0:
128,224,65674,1,0,0:0:0:0:
128,224,65826,1,0,0:0:0:0:
128,224,65977,1,8,0:0:0:0:
128,224,66052,1,0,0:0:0:0:
128,224,66204,1,8,0:0:0:0:
128,224,66431,1,0,0:0:0:0:
128,224,66583,1,8,0:0:0:0:
128,224,66734,1,0,0:0:0:0:
128,224,66810,1,0,0:0:0:0:
128,224,66886,1,8,0:0:0:0:
128,224,67037,1,0,0:0:0:0:
128,224,67189,1,8,0:0:0:0:
128,224,67264,1,0,0:0:0:0:
128,224,67416,1,8,0:0:0:0:
128,224,67643,1,0,0:0:0:0:
128,224,67795,1,8,0:0:0:0:
128,224,67946,1,0,0:0:0:0:
96,224,68023,1,0,0:0:0:0:
128,224,68098,1,8,0:0:0:0:
128,224,68250,1,8,0:0:0:0:
128,224,68401,1,0,0:0:0:0:
128,224,68553,1,8,0:0:0:0:
128,224,68629,1,0,0:0:0:0:
128,224,68856,1,0,0:0:0:0:
128,224,69007,1,8,0:0:0:0:
128,224,69159,1,0,0:0:0:0:
128,224,69235,1,0,0:0:0:0:
128,224,69310,1,8,0:0:0:0:
128,224,69462,1,8,0:0:0:0:
128,192,69613,1,0,0:0:0:0:
128,224,69765,1,8,0:0:0:0:
128,224,69841,1,0,0:0:0:0:
160,256,70068,1,0,0:0:0:0:
128,224,70220,1,8,0:0:0:0:
128,224,70523,1,4,0:0:0:0:
160,224,70674,1,0,0:0:0:0:
128,224,70826,1,8,0:0:0:0:
128,224,70901,1,0,0:0:0:0:
128,224,71053,1,8,0:0:0:0:
128,224,71280,1,0,0:0:0:0:
128,224,71432,1,8,0:0:0:0:
128,224,71583,1,0,0:0:0:0:
128,224,71659,1,0,0:0:0:0:
128,224,71735,1,8,0:0:0:0:
128,224,71886,1,0,0:0:0:0:
128,224,72038,1,8,0:0:0:0:
128,224,72113,1,0,0:0:0:0:
128,224,72265,1,8,0:0:0:0:
128,224,72492,1,8,0:0:0:0:
128,224,72644,1,0,0:0:0:0:
128,224,72795,1,8,0:0:0:0:
128,224,72947,1,0,0:0:0:0:
128,224,73250,1,12,0:0:0:0:
128,224,73477,1,8,0:0:0:0:
128,224,73704,1,8,0:0:0:0:
128,256,73856,1,8,0:0:0:0:
128,288,74007,1,0,0:0:0:0:
128,256,74159,1,8,0:0:0:0:
128,256,74235,1,0,0:0:0:0:
128,256,74310,1,8,0:0:0:0:
128,256,74386,1,0,0:0:0:0:
128,256,74462,1,8,0:0:0:0:
160,256,74613,1,0,0:0:0:0:
160,256,74689,1,0,0:0:0:0:
160,256,74765,1,8,0:0:0:0:
160,256,74916,1,0,0:0:0:0:
160,256,75068,1,8,0:0:0:0:
160,256,75219,1,8,0:0:0:0:
128,256,75371,1,4,0:0:0:0:
160,256,75674,1,8,0:0:0:0:
160,256,75977,1,0,0:0:0:0:
160,256,76280,1,8,0:0:0:0:
160,256,76583,1,0,0:0:0:0:
160,256,76735,1,0,0:0:0:0:
160,256,76886,1,8,0:0:0:0:
160,256,76962,1,0,0:0:0:0:
160,256,77038,1,8,0:0:0:0:
160,256,77189,1,0,0:0:0:0:
160,256,77341,1,0,0:0:0:0:
160,256,77492,1,8,0:0:0:0:
160,256,77644,1,8,0:0:0:0:
160,256,77795,1,4,0:0:0:0:
160,256,78098,1,8,0:0:0:0:
160,256,78250,1,0,0:0:0:0:
160,256,78401,1,12,0:0:0:0:
160,256,78856,1,12,0:0:0:0:
160,256,79310,1,0,0:0:0:0:
160,256,79462,1,0,0:0:0:0:
160,256,79538,1,0,0:0:0:0:
160,256,79613,1,0,0:0:0:0:
160,256,79765,1,0,0:0:0:0:
160,256,79916,1,12,0:0:0:0:
256,192,80219,12,0,82644,0:0:0:0:
256,192,89310,5,8,0:0:0:0:
256,192,89411,1,8,0:0:0:0:
256,192,89512,1,8,0:0:0:0:
256,192,89613,1,8,0:0:0:0:
256,192,89815,1,8,0:0:0:0:
256,192,89916,1,0,0:0:0:0:
256,192,90219,1,8,0:0:0:0:
256,192,90674,1,0,0:0:0:0:
256,192,90826,1,8,0:0:0:0:
256,192,91129,1,0,0:0:0:0:
128,192,91432,1,8,0:0:0:0:
256,192,91583,1,0,0:0:0:0:
256,192,91886,1,0,0:0:0:0:
96,160,92038,1,8,0:0:0:0:
128,192,92341,1,0,0:0:0:0:
128,192,92644,1,8,0:0:0:0:
128,192,93098,1,0,0:0:0:0:
128,192,93250,1,8,0:0:0:0:
128,192,93401,1,8,0:0:0:0:
128,192,93553,1,0,0:0:0:0:
128,192,93856,1,8,0:0:0:0:
128,192,94007,1,0,0:0:0:0:
128,192,94159,1,8,0:0:0:0:
128,192,94310,1,0,0:0:0:0:
128,192,94386,1,0,0:0:0:0:
128,192,94462,1,0,0:0:0:0:
128,192,94613,1,0,0:0:0:0:
128,192,94689,1,0,0:0:0:0:
128,192,94765,1,8,0:0:0:0:
128,192,95068,1,0,0:0:0:0:
128,192,95371,1,8,0:0:0:0:
128,192,95674,1,0,0:0:0:0:
128,192,95977,1,8,0:0:0:0:
128,192,96129,1,0,0:0:0:0:
128,192,96280,1,8,0:0:0:0:
128,192,96583,1,0,0:0:0:0:
128,192,96886,1,8,0:0:0:0:
128,192,97189,1,4,0:0:0:0:
128,192,97492,1,8,0:0:0:0:
128,192,97795,1,0,0:0:0:0:
128,192,97947,1,0,0:0:0:0:
128,192,98098,1,8,0:0:0:0:
128,192,98250,1,8,0:0:0:0:
128,192,98401,1,4,0:0:0:0:
128,192,98704,1,8,0:0:0:0:
160,192,99007,1,8,0:0:0:0:
160,224,99108,1,0,0:0:0:0:
160,224,99209,1,0,0:0:0:0:
128,192,99310,1,8,0:0:0:0:
128,192,99613,1,4,0:0:0:0:
128,192,100068,1,0,0:0:0:0:
64,160,100219,1,8,0:0:0:0:
32,160,100523,1,0,0:0:0:0:
128,192,100826,1,4,0:0:0:0:
128,192,102038,1,12,0:0:0:0:
128,192,102492,1,8,0:0:0:0:
128,192,102795,1,0,0:0:0:0:
128,224,102947,1,0,0:0:0:0:
128,192,103098,1,8,0:0:0:0:
128,192,103250,1,8,0:0:0:0:
128,192,103704,1,8,0:0:0:0:
128,192,104007,1,8,0:0:0:0:
128,192,104159,1,0,0:0:0:0:
128,192,104310,1,8,0:0:0:0:
128,192,104462,1,0,0:0:0:0:
128,192,104765,1,8,0:0:0:0:
128,192,105068,1,8,0:0:0:0:
128,192,105371,1,0,0:0:0:0:
128,192,105674,1,0,0:0:0:0:
128,192,105826,1,8,0:0:0:0:
128,192,105977,1,8,0:0:0:0:
128,192,106129,1,0,0:0:0:0:
128,192,106280,1,8,0:0:0:0:
128,192,106583,1,0,0:0:0:0:
128,192,106735,1,0,0:0:0:0:
128,192,106886,1,8,0:0:0:0:
128,192,107341,1,8,0:0:0:0:
128,192,107644,1,8,0:0:0:0:
128,192,107795,1,0,0:0:0:0:
128,192,107947,1,0,0:0:0:0:
128,192,108098,1,8,0:0:0:0:
128,192,108553,1,8,0:0:0:0:
128,192,108856,1,8,0:0:0:0:
128,192,109007,1,8,0:0:0:0:
128,192,109159,1,0,0:0:0:0:
128,192,109310,1,8,0:0:0:0:
128,192,109613,1,8,0:0:0:0:
128,192,109916,1,0,0:0:0:0:
128,192,110219,1,0,0:0:0:0:
128,192,110371,1,8,0:0:0:0:
128,192,110523,1,0,0:0:0:0:
128,256,110674,1,0,0:0:0:0:
128,256,110750,1,0,0:0:0:0:
160,256,110826,1,8,0:0:0:0:
160,256,111129,1,8,0:0:0:0:
160,256,111432,1,8,0:0:0:0:
160,256,111735,1,4,0:0:0:0:
160,256,111886,1,8,0:0:0:0:
128,256,112038,1,8,0:0:0:0:
160,256,112113,1,0,0:0:0:0:
160,256,112265,1,8,0:0:0:0:
160,224,112341,1,8,0:0:0:0:
160,224,112416,1,8,0:0:0:0:
160,256,112492,1,0,0:0:0:0:
160,256,112644,1,8,0:0:0:0:
160,256,112795,1,0,0:0:0:0:
160,256,112947,1,8,0:0:0:0:
160,256,113098,1,0,0:0:0:0:
160,256,113250,1,8,0:0:0:0:
160,256,113326,1,0,0:0:0:0:
160,256,113477,1,8,0:0:0:0:
160,256,113553,1,0,0:0:0:0:
160,288,113629,1,0,0:0:0:0:
160,256,113704,1,8,0:0:0:0:
160,256,113856,1,0,0:0:0:0:
160,256,114007,1,8,0:0:0:0:
160,256,114159,1,0,0:0:0:0:
160,256,114235,1,0,0:0:0:0:
160,256,114310,1,0,0:0:0:0:
160,256,114462,1,12,0:0:0:0:
160,256,114765,1,8,0:0:0:0:
160,256,114992,1,8,0:0:0:0:
160,256,115219,1,8,0:0:0:0:
160,256,115371,1,8,0:0:0:0:
160,256,115447,1,0,0:0:0:0:
160,256,115523,1,8,0:0:0:0:
160,256,115598,1,0,0:0:0:0:
160,256,115674,1,8,0:0:0:0:
160,256,115826,1,0,0:0:0:0:
160,256,115977,1,8,0:0:0:0:
160,256,116129,1,0,0:0:0:0:
160,256,116204,1,0,0:0:0:0:
160,256,116280,1,8,0:0:0:0:
160,256,116432,1,8,0:0:0:0:
160,256,116583,1,4,0:0:0:0:
128,256,116886,1,8,0:0:0:0:
128,256,117189,1,0,0:0:0:0:
128,256,117492,1,8,0:0:0:0:
128,256,117795,1,0,0:0:0:0:
128,256,117947,1,8,0:0:0:0:
128,256,118098,1,0,0:0:0:0:
128,256,118174,1,0,0:0:0:0:
128,256,118250,1,8,0:0:0:0:
128,256,118401,1,0,0:0:0:0:
128,256,118477,1,0,0:0:0:0:
128,256,118553,1,8,0:0:0:0:
128,256,118629,1,0,0:0:0:0:
128,256,118704,1,0,0:0:0:0:
128,256,118780,1,0,0:0:0:0:
128,256,118856,1,8,0:0:0:0:
128,256,118932,1,8,0:0:0:0:
128,256,119007,1,0,0:0:0:0:
128,256,119462,1,0,0:0:0:0:
128,256,119613,1,8,0:0:0:0:
128,256,120068,1,4,0:0:0:0:
128,256,120523,1,0,0:0:0:0:
128,256,120674,1,0,0:0:0:0:
128,256,120750,1,0,0:0:0:0:
128,256,120826,1,0,0:0:0:0:
128,288,120977,1,0,0:0:0:0:
128,288,121129,1,12,0:0:0:0:
128,288,121432,1,4,0:0:0:0:
256,192,121583,12,0,123856,0:0:0:0:
128,256,131129,5,0,0:0:0:0:
128,256,131735,1,8,0:0:0:0:
128,256,132038,1,0,0:0:0:0:
128,256,132240,1,8,0:0:0:0:
128,256,132341,1,0,0:0:0:0:
160,256,132644,1,0,0:0:0:0:
160,256,132947,1,8,0:0:0:0:
160,256,133149,1,8,0:0:0:0:
160,256,133250,1,0,0:0:0:0:
160,256,133452,1,8,0:0:0:0:
160,256,133553,1,8,0:0:0:0:
160,256,134361,1,0,0:0:0:0:
160,256,134462,1,0,0:0:0:0:
160,256,134664,1,0,0:0:0:0:
160,256,134765,1,8,0:0:0:0:
160,256,135068,1,8,0:0:0:0:
160,256,135371,1,0,0:0:0:0:
160,256,135674,1,8,0:0:0:0:
160,256,135977,1,0,0:0:0:0:
160,256,136583,1,8,0:0:0:0:
160,256,137189,1,8,0:0:0:0:
160,256,137492,1,8,0:0:0:0:
160,256,137795,1,0,0:0:0:0:
160,256,138098,1,0,0:0:0:0:
96,288,138401,1,8,0:0:0:0:
96,192,139209,1,0,0:0:0:0:
96,192,139310,1,8,0:0:0:0:
96,192,139512,1,8,0:0:0:0:
96,192,139613,1,8,0:0:0:0:
96,192,139916,1,8,0:0:0:0:
96,192,140219,1,8,0:0:0:0:
96,192,140321,1,0,0:0:0:0:
96,192,140422,1,0,0:0:0:0:
96,192,140523,1,8,0:0:0:0:
96,192,140826,1,8,0:0:0:0:
96,192,142038,1,8,0:0:0:0:
