osu file format v14

[General]
AudioFilename: audio.mp3
AudioLeadIn: 0
PreviewTime: 60674
Countdown: 0
SampleSet: Normal
StackLeniency: 0.7
Mode: 1
LetterboxInBreaks: 0
WidescreenStoryboard: 1

[Editor]
Bookmarks: 9916,19613,29310,41432,51129,60826,80219,89916,102038,111735,121432,131129,142038
DistanceSpacing: 1.7
BeatDivisor: 4
GridSize: 32
TimelineZoom: 1.84

[Metadata]
Title:Ice Festival
TitleUnicode:Ice Festival
Artist:Nota
ArtistUnicode:Nota
Creator:Marm
Version:Muzukashii
Source:BMS
Tags:BOFU2017
BeatmapID:1535799
BeatmapSetID:727434

[Difficulty]
HPDrainRate:6
CircleSize:2
OverallDifficulty:4.5
ApproachRate:0
SliderMultiplier:1.4
SliderTickRate:1

[Events]
//Background and Video events
0,0,"maxresdefault.jpg",0,80
//Break Periods
2,82844,87510
2,124056,129329
//Storyboard Layer 0 (Background)
//Storyboard Layer 1 (Fail)
//Storyboard Layer 2 (Pass)
//Storyboard Layer 3 (Foreground)
//Storyboard Sound Samples

[TimingPoints]
220,303.030303030303,4,1,0,100,1,0
60826,-100,4,1,0,100,0,1
80219,-100,4,1,0,100,0,0
111735,-100,4,1,0,100,0,1
121432,-100,4,1,0,100,0,0

[HitObjects]
256,192,220,5,12,0:0:0:0:
256,192,674,1,8,0:0:0:0:
256,192,977,1,0,0:0:0:0:
256,192,1280,1,0,0:0:0:0:
256,192,1432,1,8,0:0:0:0:
256,192,1886,1,8,0:0:0:0:
256,192,2189,1,0,0:0:0:0:
256,192,2492,1,8,0:0:0:0:
256,192,2644,1,0,0:0:0:0:
256,192,2947,1,8,0:0:0:0:
256,192,3250,1,0,0:0:0:0:
256,192,3553,1,8,0:0:0:0:
256,192,3856,1,8,0:0:0:0:
256,192,4007,1,8,0:0:0:0:
256,192,4159,1,0,0:0:0:0:
256,192,4310,1,8,0:0:0:0:
256,192,4462,1,0,0:0:0:0:
256,192,4765,1,0,0:0:0:0:
256,192,5068,1,8,0:0:0:0:
128,160,5523,1,8,0:0:0:0:
128,224,5826,1,0,0:0:0:0:
128,224,6129,1,0,0:0:0:0:
128,224,6280,1,8,0:0:0:0:
128,160,6735,1,8,0:0:0:0:
96,128,7038,1,0,0:0:0:0:
96,128,7189,1,8,0:0:0:0:
96,128,7341,1,0,0:0:0:0:
96,128,7492,1,8,0:0:0:0:
96,128,7795,1,8,0:0:0:0:
96,128,8098,1,0,0:0:0:0:
96,128,8401,1,0,0:0:0:0:
96,128,8553,1,8,0:0:0:0:
96,192,8856,1,8,0:0:0:0:
96,192,9007,1,0,0:0:0:0:
96,192,9310,1,8,0:0:0:0:
96,192,9613,1,8,0:0:0:0:
96,192,9765,1,8,0:0:0:0:
96,160,9916,1,4,0:0:0:0:
96,192,10371,1,0,0:0:0:0:
96,192,10674,1,0,0:0:0:0:
96,192,11129,1,4,0:0:0:0:
96,192,11583,1,8,0:0:0:0:
64,192,11886,1,8,0:0:0:0:
64,192,12038,1,0,0:0:0:0:
96,192,12341,1,4,0:0:0:0:
128,128,12644,1,8,0:0:0:0:
96,160,12947,1,8,0:0:0:0:
96,160,13250,1,0,0:0:0:0:
96,192,13553,1,4,0:0:0:0:
96,192,13856,1,8,0:0:0:0:
96,192,14159,1,0,0:0:0:0:
128,160,14310,1,8,0:0:0:0:
128,160,14386,1,8,0:0:0:0:
128,160,14462,1,8,0:0:0:0:
128,160,14613,1,8,0:0:0:0:
128,160,14765,1,0,0:0:0:0:
96,192,15068,1,0,0:0:0:0:
160,160,15371,1,8,0:0:0:0:
160,160,15674,1,8,0:0:0:0:
160,160,15977,1,0,0:0:0:0:
128,160,16280,1,0,0:0:0:0:
128,160,16432,1,8,0:0:0:0:
160,160,16583,1,0,0:0:0:0:
96,128,16735,1,8,0:0:0:0:
96,128,16810,1,8,0:0:0:0:
160,160,16886,1,8,0:0:0:0:
96,160,17038,1,8,0:0:0:0:
160,160,17189,1,4,0:0:0:0:
96,160,17644,1,0,0:0:0:0:
96,160,17795,1,8,0:0:0:0:
96,160,18401,1,4,0:0:0:0:
96,160,19007,1,8,0:0:0:0:
96,128,19613,1,4,0:0:0:0:
96,128,20219,1,8,0:0:0:0:
128,224,20523,1,8,0:0:0:0:
96,192,20674,1,8,0:0:0:0:
96,128,20826,1,0,0:0:0:0:
224,224,21129,1,8,0:0:0:0:
96,160,21432,1,8,0:0:0:0:
96,160,21735,1,0,0:0:0:0:
96,160,21886,1,8,0:0:0:0:
96,128,22038,1,0,0:0:0:0:
96,128,22795,1,0,0:0:0:0:
96,128,23250,1,8,0:0:0:0:
128,128,23553,1,8,0:0:0:0:
128,160,23856,1,8,0:0:0:0:
128,128,24007,1,0,0:0:0:0:
128,160,24159,1,8,0:0:0:0:
96,128,24462,1,0,0:0:0:0:
96,128,25068,1,8,0:0:0:0:
128,128,25371,1,0,0:0:0:0:
96,192,25523,1,8,0:0:0:0:
128,128,25674,1,0,0:0:0:0:
128,128,25977,1,8,0:0:0:0:
128,128,26280,1,0,0:0:0:0:
128,128,26583,1,8,0:0:0:0:
128,128,26735,1,8,0:0:0:0:
128,128,26886,1,0,0:0:0:0:
128,128,27644,1,0,0:0:0:0:
160,256,27795,1,8,0:0:0:0:
128,128,27947,1,8,0:0:0:0:
128,128,28098,1,0,0:0:0:0:
128,128,28401,1,0,0:0:0:0:
128,96,28704,1,12,0:0:0:0:
128,96,29007,1,12,0:0:0:0:
128,160,29310,1,4,0:0:0:0:
128,160,29613,1,8,0:0:0:0:
128,160,29916,1,0,0:0:0:0:
128,160,30219,1,8,0:0:0:0:
128,160,30371,1,8,0:0:0:0:
128,160,30523,1,0,0:0:0:0:
128,160,30826,1,8,0:0:0:0:
128,160,31129,1,0,0:0:0:0:
128,160,31280,1,8,0:0:0:0:
128,160,31583,1,8,0:0:0:0:
128,160,31735,1,0,0:0:0:0:
128,160,32038,1,8,0:0:0:0:
128,192,32341,1,0,0:0:0:0:
128,160,32492,1,0,0:0:0:0:
128,160,32644,1,8,0:0:0:0:
128,160,32947,1,0,0:0:0:0:
128,160,33250,1,8,0:0:0:0:
128,160,33553,1,8,0:0:0:0:
128,160,33704,1,0,0:0:0:0:
128,160,33856,1,8,0:0:0:0:
128,160,34159,1,0,0:0:0:0:
128,160,34765,1,12,0:0:0:0:
128,160,35068,1,8,0:0:0:0:
128,160,35219,1,8,0:0:0:0:
128,160,35371,1,0,0:0:0:0:
128,160,35674,1,8,0:0:0:0:
128,128,35977,1,8,0:0:0:0:
128,160,36129,1,0,0:0:0:0:
128,160,36280,1,0,0:0:0:0:
128,160,36432,1,8,0:0:0:0:
128,160,36583,1,0,0:0:0:0:
128,160,36886,1,8,0:0:0:0:
128,192,37189,1,0,0:0:0:0:
128,160,37341,1,0,0:0:0:0:
128,160,37492,1,8,0:0:0:0:
128,160,37795,1,8,0:0:0:0:
128,160,38098,1,8,0:0:0:0:
128,160,38401,1,8,0:0:0:0:
128,160,38553,1,0,0:0:0:0:
128,160,38704,1,8,0:0:0:0:
128,160,39007,1,4,0:0:0:0:
128,160,39462,1,0,0:0:0:0:
128,160,39613,1,8,0:0:0:0:
128,160,40219,1,4,0:0:0:0:
160,160,41129,1,0,0:0:0:0:
160,160,41280,1,8,0:0:0:0:
160,160,41356,1,8,0:0:0:0:
160,160,41432,1,8,0:0:0:0:
128,160,41735,1,8,0:0:0:0:
96,192,42038,1,8,0:0:0:0:
128,160,42341,1,0,0:0:0:0:
128,160,42492,1,8,0:0:0:0:
128,160,42795,1,8,0:0:0:0:
128,160,43098,1,8,0:0:0:0:
128,160,43250,1,0,0:0:0:0:
128,160,43553,1,8,0:0:0:0:
128,160,43704,1,0,0:0:0:0:
128,160,43856,1,8,0:0:0:0:
128,160,44159,1,8,0:0:0:0:
128,160,44462,1,0,0:0:0:0:
128,160,44765,1,8,0:0:0:0:
128,160,44916,1,0,0:0:0:0:
128,160,45219,1,0,0:0:0:0:
128,160,45523,1,0,0:0:0:0:
128,160,45674,1,8,0:0:0:0:
128,128,46280,1,8,0:0:0:0:
128,160,46583,1,8,0:0:0:0:
128,160,46886,1,0,0:0:0:0:
128,128,47189,1,0,0:0:0:0:
128,128,47341,1,8,0:0:0:0:
128,128,47644,1,8,0:0:0:0:
128,128,47947,1,8,0:0:0:0:
128,128,48098,1,0,0:0:0:0:
128,128,48401,1,8,0:0:0:0:
128,128,48553,1,0,0:0:0:0:
128,128,48704,1,8,0:0:0:0:
128,160,49007,1,8,0:0:0:0:
128,160,49310,1,0,0:0:0:0:
128,160,49613,1,8,0:0:0:0:
128,160,49765,1,0,0:0:0:0:
128,160,50068,1,0,0:0:0:0:
128,160,50219,1,8,0:0:0:0:
128,160,50523,1,8,0:0:0:0:
128,192,51129,1,8,0:0:0:0:
128,192,51432,1,8,0:0:0:0:
128,192,51583,1,0,0:0:0:0:
128,192,51735,1,8,0:0:0:0:
128,192,52038,1,0,0:0:0:0:
128,192,52189,1,8,0:0:0:0:
128,192,52492,1,8,0:0:0:0:
128,160,52795,1,0,0:0:0:0:
128,192,52947,1,8,0:0:0:0:
128,192,53250,1,8,0:0:0:0:
128,160,53401,1,0,0:0:0:0:
128,192,53553,1,8,0:0:0:0:
128,192,53856,1,8,0:0:0:0:
128,192,54159,1,8,0:0:0:0:
128,160,54310,1,0,0:0:0:0:
128,192,54462,1,8,0:0:0:0:
128,160,54613,1,0,0:0:0:0:
128,192,54916,1,0,0:0:0:0:
128,192,55068,1,8,0:0:0:0:
128,192,55219,1,0,0:0:0:0:
128,192,55371,1,8,0:0:0:0:
128,192,55674,1,8,0:0:0:0:
128,192,55750,1,8,0:0:0:0:
128,192,55826,1,8,0:0:0:0:
128,192,55977,1,8,0:0:0:0:
128,192,56280,1,8,0:0:0:0:
128,192,56432,1,0,0:0:0:0:
128,192,56583,1,8,0:0:0:0:
128,192,56886,1,0,0:0:0:0:
128,192,57038,1,8,0:0:0:0:
128,192,57341,1,8,0:0:0:0:
128,192,57644,1,0,0:0:0:0:
128,192,57795,1,8,0:0:0:0:
128,192,57947,1,0,0:0:0:0:
128,192,58098,1,8,0:0:0:0:
128,192,58250,1,0,0:0:0:0:
128,192,58401,1,8,0:0:0:0:
128,192,59007,1,8,0:0:0:0:
128,192,59310,1,0,0:0:0:0:
160,160,59462,1,8,0:0:0:0:
128,192,59613,1,8,0:0:0:0:
160,160,59765,1,0,0:0:0:0:
128,192,59916,1,8,0:0:0:0:
160,192,60068,1,8,0:0:0:0:
160,160,60219,1,0,0:0:0:0:
160,160,60295,1,0,0:0:0:0:
160,160,60371,1,0,0:0:0:0:
160,160,60523,1,0,0:0:0:0:
160,160,60826,1,4,0:0:0:0:
160,160,61129,1,8,0:0:0:0:
160,192,61356,1,8,0:0:0:0:
160,160,61583,1,0,0:0:0:0:
160,160,61886,1,8,0:0:0:0:
160,160,62038,1,0,0:0:0:0:
160,160,62341,1,8,0:0:0:0:
160,224,62568,1,8,0:0:0:0:
160,224,62795,1,0,0:0:0:0:
160,224,62947,1,8,0:0:0:0:
160,224,63098,1,8,0:0:0:0:
160,224,63250,1,0,0:0:0:0:
160,224,63553,1,8,0:0:0:0:
96,224,63780,1,8,0:0:0:0:
128,224,64007,1,8,0:0:0:0:
192,192,64159,1,0,0:0:0:0:
192,160,64462,1,8,0:0:0:0:
192,160,64613,1,8,0:0:0:0:
192,160,64689,1,8,0:0:0:0:
192,160,64765,1,8,0:0:0:0:
192,160,64916,1,0,0:0:0:0:
192,160,65068,1,0,0:0:0:0:
192,160,65674,1,0,0:0:0:0:
128,192,65977,1,8,0:0:0:0:
160,192,66204,1,8,0:0:0:0:
192,160,66432,1,0,0:0:0:0:
192,160,66735,1,8,0:0:0:0:
192,160,66886,1,0,0:0:0:0:
192,160,67189,1,8,0:0:0:0:
141,233,67416,1,8,0:0:0:0:
192,160,67644,1,0,0:0:0:0:
192,160,67795,1,8,0:0:0:0:
192,160,67947,1,8,0:0:0:0:
192,160,68098,1,0,0:0:0:0:
224,192,68401,1,8,0:0:0:0:
224,224,68553,1,0,0:0:0:0:
192,192,68629,1,0,0:0:0:0:
192,192,68704,1,0,0:0:0:0:
224,192,68856,1,0,0:0:0:0:
192,192,69007,1,8,0:0:0:0:
192,192,69310,1,0,0:0:0:0:
224,192,69613,1,8,0:0:0:0:
192,192,69765,1,0,0:0:0:0:
192,192,69841,1,0,0:0:0:0:
192,192,69916,1,0,0:0:0:0:
192,192,70068,1,0,0:0:0:0:
224,192,70523,1,0,0:0:0:0:
224,192,70826,1,8,0:0:0:0:
160,192,71053,1,8,0:0:0:0:
192,224,71280,1,0,0:0:0:0:
192,224,71583,1,8,0:0:0:0:
192,224,71735,1,0,0:0:0:0:
192,224,72038,1,8,0:0:0:0:
172,232,72265,1,8,0:0:0:0:
192,224,72492,1,0,0:0:0:0:
192,224,72644,1,8,0:0:0:0:
192,224,72795,1,8,0:0:0:0:
192,224,72947,1,0,0:0:0:0:
160,160,73250,1,12,0:0:0:0:
128,256,73477,1,8,0:0:0:0:
224,160,73704,1,8,0:0:0:0:
256,128,73856,1,0,0:0:0:0:
224,224,74159,1,8,0:0:0:0:
224,224,74310,1,8,0:0:0:0:
224,224,74386,1,8,0:0:0:0:
224,224,74462,1,8,0:0:0:0:
160,160,74613,1,0,0:0:0:0:
160,160,74765,1,0,0:0:0:0:
128,192,75371,1,4,0:0:0:0:
102,208,75674,1,8,0:0:0:0:
160,128,75977,1,8,0:0:0:0:
160,128,76280,1,8,0:0:0:0:
160,128,76583,1,0,0:0:0:0:
160,128,76886,1,0,0:0:0:0:
128,160,76962,1,0,0:0:0:0:
160,128,77038,1,0,0:0:0:0:
160,128,77189,1,8,0:0:0:0:
192,192,77341,1,8,0:0:0:0:
192,192,77492,1,0,0:0:0:0:
192,192,77644,1,0,0:0:0:0:
192,192,77795,1,12,0:0:0:0:
192,192,78250,1,0,0:0:0:0:
192,192,78401,1,12,0:0:0:0:
192,192,78856,1,12,0:0:0:0:
192,192,79310,1,0,0:0:0:0:
192,192,79462,1,0,0:0:0:0:
192,192,79538,1,0,0:0:0:0:
192,192,79613,1,0,0:0:0:0:
192,192,79916,1,12,0:0:0:0:
256,192,80219,12,0,82644,0:0:0:0:
256,192,89310,5,8,0:0:0:0:
256,192,89613,1,8,0:0:0:0:
256,192,89815,1,8,0:0:0:0:
256,192,89916,1,0,0:0:0:0:
224,192,90219,1,8,0:0:0:0:
224,192,90674,1,0,0:0:0:0:
224,192,90826,1,8,0:0:0:0:
224,192,91129,1,0,0:0:0:0:
224,192,91583,1,0,0:0:0:0:
224,192,91886,1,0,0:0:0:0:
224,192,92038,1,8,0:0:0:0:
224,192,92341,1,0,0:0:0:0:
192,192,92644,1,8,0:0:0:0:
160,224,93098,1,0,0:0:0:0:
160,224,93250,1,8,0:0:0:0:
160,224,93401,1,8,0:0:0:0:
160,224,93553,1,0,0:0:0:0:
160,224,93856,1,8,0:0:0:0:
256,160,94007,1,0,0:0:0:0:
192,192,94159,1,8,0:0:0:0:
160,256,94310,1,0,0:0:0:0:
160,256,94386,1,0,0:0:0:0:
160,256,94462,1,0,0:0:0:0:
160,256,94613,1,0,0:0:0:0:
160,256,94765,1,8,0:0:0:0:
128,256,95371,1,8,0:0:0:0:
128,256,95674,1,0,0:0:0:0:
96,160,95977,1,8,0:0:0:0:
96,160,96280,1,8,0:0:0:0:
96,160,96583,1,0,0:0:0:0:
96,160,96886,1,8,0:0:0:0:
128,192,97189,1,4,0:0:0:0:
96,160,97795,1,0,0:0:0:0:
96,160,97947,1,0,0:0:0:0:
96,160,98098,1,8,0:0:0:0:
96,160,98250,1,0,0:0:0:0:
96,160,98401,1,12,0:0:0:0:
96,224,98704,1,8,0:0:0:0:
96,224,99007,1,8,0:0:0:0:
96,224,99159,1,0,0:0:0:0:
96,224,99310,1,8,0:0:0:0:
96,224,99613,1,4,0:0:0:0:
96,224,100068,1,0,0:0:0:0:
96,224,100219,1,8,0:0:0:0:
96,224,100826,1,4,0:0:0:0:
96,192,102038,1,12,0:0:0:0:
96,192,102492,1,8,0:0:0:0:
128,256,102947,1,0,0:0:0:0:
128,256,103250,1,8,0:0:0:0:
128,256,103704,1,8,0:0:0:0:
160,192,104007,1,8,0:0:0:0:
160,192,104159,1,0,0:0:0:0:
160,192,104310,1,8,0:0:0:0:
160,192,104462,1,0,0:0:0:0:
128,192,104765,1,8,0:0:0:0:
128,192,105068,1,0,0:0:0:0:
128,192,105371,1,8,0:0:0:0:
96,256,105674,1,0,0:0:0:0:
96,256,105977,1,8,0:0:0:0:
64,128,106129,1,8,0:0:0:0:
96,160,106280,1,0,0:0:0:0:
96,160,106583,1,8,0:0:0:0:
96,160,106735,1,0,0:0:0:0:
96,160,106886,1,8,0:0:0:0:
0,128,107341,1,8,0:0:0:0:
96,192,107795,1,0,0:0:0:0:
96,192,108098,1,8,0:0:0:0:
96,192,108553,1,8,0:0:0:0:
96,192,108856,1,0,0:0:0:0:
96,192,109007,1,8,0:0:0:0:
96,192,109159,1,0,0:0:0:0:
96,192,109310,1,8,0:0:0:0:
96,192,109613,1,8,0:0:0:0:
96,192,109916,1,0,0:0:0:0:
96,192,110219,1,0,0:0:0:0:
96,192,110523,1,8,0:0:0:0:
96,192,110674,1,0,0:0:0:0:
96,192,110750,1,0,0:0:0:0:
96,192,110826,1,0,0:0:0:0:
96,192,111129,1,8,0:0:0:0:
96,192,111432,1,8,0:0:0:0:
160,160,111735,1,4,0:0:0:0:
160,160,112038,1,8,0:0:0:0:
160,192,112265,1,8,0:0:0:0:
160,160,112492,1,0,0:0:0:0:
160,160,112795,1,8,0:0:0:0:
160,160,112947,1,0,0:0:0:0:
160,160,113250,1,8,0:0:0:0:
160,192,113477,1,8,0:0:0:0:
160,224,113704,1,0,0:0:0:0:
160,224,113856,1,8,0:0:0:0:
160,224,114007,1,8,0:0:0:0:
160,224,114159,1,0,0:0:0:0:
128,256,114235,1,0,0:0:0:0:
128,256,114310,1,0,0:0:0:0:
96,224,114462,1,12,0:0:0:0:
96,224,114765,1,8,0:0:0:0:
96,224,114992,1,8,0:0:0:0:
96,224,115219,1,8,0:0:0:0:
96,224,115371,1,0,0:0:0:0:
192,224,115523,1,0,0:0:0:0:
192,224,115674,1,8,0:0:0:0:
128,256,115977,1,0,0:0:0:0:
160,224,116129,1,8,0:0:0:0:
160,224,116204,1,8,0:0:0:0:
160,224,116280,1,8,0:0:0:0:
192,288,116432,1,8,0:0:0:0:
128,256,116583,1,4,0:0:0:0:
160,224,117189,1,0,0:0:0:0:
96,256,117492,1,8,0:0:0:0:
160,224,117795,1,0,0:0:0:0:
128,224,118098,1,0,0:0:0:0:
128,224,118174,1,0,0:0:0:0:
96,160,118250,1,0,0:0:0:0:
96,160,118401,1,8,0:0:0:0:
96,160,118553,1,8,0:0:0:0:
160,192,118704,1,0,0:0:0:0:
160,192,118856,1,0,0:0:0:0:
160,224,119007,1,12,0:0:0:0:
160,224,119462,1,8,0:0:0:0:
160,160,119916,1,8,0:0:0:0:
160,224,120068,1,4,0:0:0:0:
160,224,120523,1,0,0:0:0:0:
160,224,120674,1,0,0:0:0:0:
160,224,120750,1,0,0:0:0:0:
160,224,120826,1,0,0:0:0:0:
160,224,121129,1,12,0:0:0:0:
256,192,121432,12,8,123856,0:0:0:0:
160,192,131129,5,0,0:0:0:0:
160,192,131735,1,8,0:0:0:0:
160,192,132038,1,0,0:0:0:0:
160,192,132240,1,0,0:0:0:0:
160,192,132341,1,0,0:0:0:0:
160,192,132644,1,0,0:0:0:0:
160,192,132947,1,8,0:0:0:0:
160,192,133250,1,8,0:0:0:0:
160,192,133452,1,8,0:0:0:0:
160,192,133553,1,8,0:0:0:0:
160,192,134462,1,8,0:0:0:0:
160,192,134664,1,8,0:0:0:0:
160,192,134765,1,8,0:0:0:0:
160,192,135068,1,8,0:0:0:0:
160,192,135371,1,0,0:0:0:0:
160,192,135674,1,8,0:0:0:0:
160,192,135977,1,0,0:0:0:0:
160,192,136583,1,8,0:0:0:0:
160,192,137189,1,8,0:0:0:0:
160,192,137492,1,8,0:0:0:0:
160,192,137795,1,0,0:0:0:0:
160,192,138098,1,8,0:0:0:0:
160,192,138401,1,8,0:0:0:0:
160,192,139310,1,0,0:0:0:0:
160,192,139512,1,8,0:0:0:0:
160,192,139613,1,8,0:0:0:0:
160,192,139916,1,8,0:0:0:0:
160,192,140219,1,0,0:0:0:0:
160,192,140422,1,8,0:0:0:0:
160,192,140523,1,0,0:0:0:0:
160,192,140826,1,8,0:0:0:0:
192,160,142038,1,8,0:0:0:0:
