osu file format v14

[General]
AudioFilename: audio.mp3
AudioLeadIn: 0
PreviewTime: 60664
Countdown: 0
SampleSet: Normal
StackLeniency: 0.7
Mode: 1
LetterboxInBreaks: 0
WidescreenStoryboard: 0

[Editor]
DistanceSpacing: 1.7
BeatDivisor: 4
GridSize: 32
TimelineZoom: 1.3

[Metadata]
Title:Ice Festival
TitleUnicode:Ice Festival
Artist:Nota
ArtistUnicode:Nota
Creator:Blackener
Version:Kantan
Source:BMS
Tags:bofu2017 armillary sphere happy hardcore
BeatmapID:1851445
BeatmapSetID:885862

[Difficulty]
HPDrainRate:7
CircleSize:3
OverallDifficulty:3
ApproachRate:5
SliderMultiplier:1.4
SliderTickRate:1

[Events]
//Background and Video events
0,0,"153990.jpg",0,0
//Break Periods
//Storyboard Layer 0 (Background)
//Storyboard Layer 1 (Fail)
//Storyboard Layer 2 (Pass)
//Storyboard Layer 3 (Foreground)
//Storyboard Sound Samples

[TimingPoints]
210,303.030303030303,4,1,0,60,1,0
9906,-100,4,1,0,65,0,0
14755,-100,4,1,0,70,0,0
17179,-100,4,1,0,65,0,0
19603,-100,4,1,0,60,0,0
29300,-100,4,1,0,70,0,0
60816,-100,4,1,0,85,0,1
80209,-100,4,1,0,60,0,0
94755,-100,4,1,0,70,0,0
102028,-100,4,1,0,60,0,0
111725,-100,4,1,0,85,0,1
121422,-100,4,1,0,60,0,0

[HitObjects]
256,192,210,5,4,0:0:0:0:
256,192,1422,1,0,0:0:0:0:
256,192,2634,1,0,0:0:0:0:
256,192,3240,1,8,0:0:0:0:
256,192,3846,1,8,0:0:0:0:
256,192,5058,1,0,0:0:0:0:
256,192,6270,1,0,0:0:0:0:
256,192,7482,1,8,0:0:0:0:
256,192,8088,1,0,0:0:0:0:
256,192,8694,1,8,0:0:0:0:
256,192,9906,1,4,0:0:0:0:
256,192,11119,1,4,0:0:0:0:
256,192,12331,1,4,0:0:0:0:
256,192,13543,1,12,0:0:0:0:
256,192,14149,1,0,0:0:0:0:
256,192,14452,1,8,0:0:0:0:
256,192,14755,1,4,0:0:0:0:
256,192,15361,1,8,0:0:0:0:
256,192,15967,1,4,0:0:0:0:
256,192,16573,1,8,0:0:0:0:
256,192,16876,1,8,0:0:0:0:
256,192,17179,1,4,0:0:0:0:
256,192,17785,1,0,0:0:0:0:
256,192,18391,1,12,0:0:0:0:
256,192,19603,1,4,0:0:0:0:
256,192,20816,1,0,0:0:0:0:
256,192,21422,1,8,0:0:0:0:
256,192,22028,1,0,0:0:0:0:
256,192,23240,1,8,0:0:0:0:
256,192,23846,1,8,0:0:0:0:
256,192,24452,1,0,0:0:0:0:
256,192,25664,1,0,0:0:0:0:
256,192,26876,1,8,0:0:0:0:
256,192,28088,1,0,0:0:0:0:
256,192,28694,1,8,0:0:0:0:
256,192,28997,1,8,0:0:0:0:
256,192,29300,1,4,0:0:0:0:
256,192,29906,1,8,0:0:0:0:
256,192,30513,1,0,0:0:0:0:
256,192,31119,1,8,0:0:0:0:
256,192,31422,1,0,0:0:0:0:
256,192,31725,1,8,0:0:0:0:
256,192,32634,1,0,0:0:0:0:
256,192,32937,1,8,0:0:0:0:
256,192,33543,1,8,0:0:0:0:
256,192,33846,1,8,0:0:0:0:
256,192,34149,1,0,0:0:0:0:
256,192,34755,1,8,0:0:0:0:
256,192,35361,1,0,0:0:0:0:
256,192,35967,1,0,0:0:0:0:
256,192,36270,1,0,0:0:0:0:
256,192,36573,1,8,0:0:0:0:
256,192,37482,1,0,0:0:0:0:
256,192,37785,1,8,0:0:0:0:
256,192,38391,1,8,0:0:0:0:
256,192,38694,1,0,0:0:0:0:
256,192,38997,1,12,0:0:0:0:
256,192,40210,1,4,0:0:0:0:
256,192,41422,1,12,0:0:0:0:
256,192,42028,1,8,0:0:0:0:
256,192,42634,1,8,0:0:0:0:
256,192,43240,1,0,0:0:0:0:
256,192,43543,1,0,0:0:0:0:
256,192,43846,1,8,0:0:0:0:
256,192,44452,1,8,0:0:0:0:
256,192,45058,1,0,0:0:0:0:
256,192,46270,1,8,0:0:0:0:
256,192,46876,1,0,0:0:0:0:
256,192,47482,1,8,0:0:0:0:
256,192,48088,1,8,0:0:0:0:
256,192,48391,1,0,0:0:0:0:
288,192,48694,1,8,0:0:0:0:
288,192,49300,1,8,0:0:0:0:
288,192,49906,1,0,0:0:0:0:
288,160,51119,1,12,0:0:0:0:
288,160,51725,1,8,0:0:0:0:
288,160,52331,1,8,0:0:0:0:
288,160,52937,1,0,0:0:0:0:
288,160,53240,1,0,0:0:0:0:
288,160,53543,1,8,0:0:0:0:
288,160,54149,1,8,0:0:0:0:
288,160,54755,1,0,0:0:0:0:
256,192,55664,1,0,0:0:0:0:
256,192,55967,1,12,0:0:0:0:
256,192,56573,1,8,0:0:0:0:
256,192,57179,1,8,0:0:0:0:
256,192,57785,1,8,0:0:0:0:
256,192,58088,1,0,0:0:0:0:
288,192,58391,1,12,0:0:0:0:
288,192,58997,1,0,0:0:0:0:
288,192,59603,1,8,0:0:0:0:
288,192,60816,1,4,0:0:0:0:
288,192,61119,1,8,0:0:0:0:
288,192,61725,1,8,0:0:0:0:
288,192,62028,1,0,0:0:0:0:
288,192,62634,1,8,0:0:0:0:
288,192,63240,1,0,0:0:0:0:
288,192,64452,1,8,0:0:0:0:
288,192,64755,1,0,0:0:0:0:
288,192,65058,5,8,0:0:0:0:
288,192,65664,1,0,0:0:0:0:
256,192,65967,1,8,0:0:0:0:
256,192,66573,1,8,0:0:0:0:
256,192,66876,1,0,0:0:0:0:
256,192,67482,1,8,0:0:0:0:
256,192,68088,1,0,0:0:0:0:
256,224,69300,1,0,0:0:0:0:
256,224,69603,1,0,0:0:0:0:
256,192,69906,1,8,0:0:0:0:
256,192,70513,1,4,0:0:0:0:
256,192,70816,1,8,0:0:0:0:
256,192,71422,1,8,0:0:0:0:
224,192,71725,1,0,0:0:0:0:
224,192,72331,1,8,0:0:0:0:
224,192,72937,1,0,0:0:0:0:
224,192,73240,1,12,0:0:0:0:
224,192,74149,1,8,0:0:0:0:
224,192,74452,1,0,0:0:0:0:
224,192,74755,1,8,0:0:0:0:
224,192,75361,1,4,0:0:0:0:
234,209,75967,1,8,0:0:0:0:
256,192,76573,1,0,0:0:0:0:
256,192,76876,1,0,0:0:0:0:
224,192,77179,1,8,0:0:0:0:
224,192,77785,1,4,0:0:0:0:
224,192,78846,1,12,0:0:0:0:
224,192,79603,1,8,0:0:0:0:
224,192,80210,1,4,0:0:0:0:
256,192,80513,12,0,82634,0:0:0:0:
256,192,83846,5,0,0:0:0:0:
256,192,85058,1,0,0:0:0:0:
256,192,86270,1,8,0:0:0:0:
256,192,87482,1,8,0:0:0:0:
256,192,88694,1,0,0:0:0:0:
256,192,89300,1,8,0:0:0:0:
256,192,89906,1,4,0:0:0:0:
256,192,91119,1,0,0:0:0:0:
256,192,91725,1,8,0:0:0:0:
256,192,92028,1,8,0:0:0:0:
256,192,92331,1,0,0:0:0:0:
256,192,93240,1,8,0:0:0:0:
256,192,93543,1,8,0:0:0:0:
256,192,94149,1,0,0:0:0:0:
256,192,94452,1,8,0:0:0:0:
256,192,94755,1,4,0:0:0:0:
256,192,95361,1,0,0:0:0:0:
256,192,95967,1,8,0:0:0:0:
256,192,96573,1,8,0:0:0:0:
256,192,96876,1,0,0:0:0:0:
256,192,97179,1,12,0:0:0:0:
256,192,98088,1,0,0:0:0:0:
256,192,98391,1,8,0:0:0:0:
256,192,98997,1,8,0:0:0:0:
256,192,99603,1,4,0:0:0:0:
256,192,100816,1,12,0:0:0:0:
256,192,102028,1,4,0:0:0:0:
224,224,103240,1,0,0:0:0:0:
224,224,104452,5,8,0:0:0:0:
224,224,105058,1,8,0:0:0:0:
224,224,105664,1,8,0:0:0:0:
224,224,106876,1,0,0:0:0:0:
224,224,108088,1,0,0:0:0:0:
224,224,109300,1,8,0:0:0:0:
224,224,109906,1,8,0:0:0:0:
224,224,110513,1,0,0:0:0:0:
224,224,110816,1,8,0:0:0:0:
224,224,111119,1,8,0:0:0:0:
224,224,111725,1,4,0:0:0:0:
224,224,112028,1,8,0:0:0:0:
224,224,112634,1,8,0:0:0:0:
224,224,112937,1,0,0:0:0:0:
224,224,113543,1,8,0:0:0:0:
224,224,114149,1,0,0:0:0:0:
224,224,114452,1,12,0:0:0:0:
224,192,115361,1,8,0:0:0:0:
224,192,115664,1,0,0:0:0:0:
224,192,115967,1,8,0:0:0:0:
224,192,116573,1,4,0:0:0:0:
224,192,117179,1,8,0:0:0:0:
224,192,117482,1,8,0:0:0:0:
224,192,117785,1,0,0:0:0:0:
224,192,118088,1,0,0:0:0:0:
224,192,118391,1,8,0:0:0:0:
224,192,118997,1,4,0:0:0:0:
224,192,120058,1,12,0:0:0:0:
224,192,120816,1,8,0:0:0:0:
224,192,121422,1,4,0:0:0:0:
256,192,121725,12,0,123846,0:0:0:0:
256,192,125058,5,0,0:0:0:0:
256,192,126270,1,0,0:0:0:0:
256,192,127482,1,8,0:0:0:0:
256,192,128694,1,0,0:0:0:0:
256,192,129906,1,8,0:0:0:0:
256,192,131119,1,0,0:0:0:0:
256,192,132331,1,0,0:0:0:0:
256,192,132937,1,8,0:0:0:0:
256,192,133543,1,0,0:0:0:0:
224,192,134755,1,8,0:0:0:0:
256,192,135967,1,0,0:0:0:0:
256,192,136573,1,8,0:0:0:0:
256,192,137179,1,8,0:0:0:0:
256,192,138391,1,0,0:0:0:0:
256,192,139603,1,8,0:0:0:0:
256,192,140210,1,8,0:0:0:0:
256,192,140816,1,0,0:0:0:0:
256,192,142028,1,8,0:0:0:0:
