osu file format v14

[General]
AudioFilename: audio.mp3
AudioLeadIn: 0
PreviewTime: 60664
Countdown: 0
SampleSet: Normal
StackLeniency: 0.7
Mode: 1
LetterboxInBreaks: 0
WidescreenStoryboard: 0

[Editor]
Bookmarks: 29310,41432
DistanceSpacing: 1.7
BeatDivisor: 3
GridSize: 32
TimelineZoom: 2.5

[Metadata]
Title:Ice Festival
TitleUnicode:Ice Festival
Artist:Nota
ArtistUnicode:Nota
Creator:Blackener
Version:Inner Oni
Source:BMS
Tags:bofu2017 armillary sphere happy hardcore
BeatmapID:1854589
BeatmapSetID:885862

[Difficulty]
HPDrainRate:6
CircleSize:3
OverallDifficulty:6
ApproachRate:5
SliderMultiplier:1.4
SliderTickRate:1

[Events]
//Background and Video events
0,0,"153990.jpg",0,0
//Break Periods
//Storyboard Layer 0 (Background)
//Storyboard Layer 1 (Fail)
//Storyboard Layer 2 (Pass)
//Storyboard Layer 3 (Foreground)
//Storyboard Sound Samples

[TimingPoints]
210,303.030303030303,4,1,0,60,1,0
210,-133.333333333333,4,1,0,60,0,0
9300,-129.87012987013,4,1,0,60,0,0
9452,-126.582278481013,4,1,0,60,0,0
9603,-123.456790123457,4,1,0,60,0,0
9755,-120.481927710843,4,1,0,60,0,0
9906,-117.647058823529,4,1,0,65,0,0
14300,-114.285714285714,4,1,0,75,0,0
14350,-111.111111111111,4,1,0,75,0,0
14401,-108.108108108108,4,1,0,75,0,0
14451,-105.263157894737,4,1,0,75,0,0
14603,-102.040816326531,4,1,0,75,0,0
14755,-100,4,1,0,75,0,0
17482,-101.694915254237,4,1,0,65,0,0
17633,-103.448275862069,4,1,0,65,0,0
17785,-105.263157894737,4,1,0,65,0,0
17936,-107.142857142857,4,1,0,65,0,0
18088,-109.090909090909,4,1,0,65,0,0
18239,-111.111111111111,4,1,0,65,0,0
18391,-113.207547169811,4,1,0,65,0,0
18542,-115.384615384615,4,1,0,65,0,0
18694,-117.647058823529,4,1,0,65,0,0
18845,-120,4,1,0,65,0,0
18997,-122.448979591837,4,1,0,65,0,0
19148,-125,4,1,0,65,0,0
19300,-127.659574468085,4,1,0,65,0,0
19451,-130.434782608696,4,1,0,65,0,0
19603,-133.333333333333,4,1,0,60,0,0
28694,-129.032258064516,4,1,0,60,0,0
28795,-125,4,1,0,60,0,0
28896,-121.212121212121,4,1,0,60,0,0
28997,-117.647058823529,4,1,0,60,0,0
29300,-100,4,1,0,60,0,0
60513,-98.0392156862745,4,1,0,70,0,0
60588,-96.1538461538461,4,1,0,70,0,0
60664,-94.3396226415094,4,1,0,70,0,0
60740,-92.5925925925926,4,1,0,70,0,0
60816,-90.9090909090909,4,1,0,85,0,1
80209,-90.9090909090909,4,1,0,60,0,0
82634,-133.333333333333,4,1,0,60,0,0
89300,-130.841121495327,4,1,0,60,0,0
89401,-128.440366972477,4,1,0,60,0,0
89502,-126.126126126126,4,1,0,60,0,0
89603,-123.893805309735,4,1,0,60,0,0
89704,-121.739130434783,4,1,0,60,0,0
89805,-119.65811965812,4,1,0,60,0,0
89906,-117.647058823529,4,1,0,60,0,0
94149,-116.279069767442,4,1,0,60,0,0
94225,-114.942528735632,4,1,0,60,0,0
94300,-113.636363636364,4,1,0,60,0,0
94351,-112.359550561798,4,1,0,60,0,0
94401,-111.111111111111,4,1,0,60,0,0
94452,-109.89010989011,4,1,0,60,0,0
94528,-108.695652173913,4,1,0,60,0,0
94603,-107.52688172043,4,1,0,60,0,0
94679,-106.382978723404,4,1,0,60,0,0
94755,-105.263157894737,4,1,0,70,0,0
99906,-106.280193236715,4,1,0,60,0,0
100057,-107.317073170732,4,1,0,60,0,0
100209,-108.374384236453,4,1,0,60,0,0
100360,-109.452736318408,4,1,0,60,0,0
100512,-110.552763819095,4,1,0,60,0,0
100663,-111.675126903553,4,1,0,60,0,0
100815,-112.820512820513,4,1,0,60,0,0
100966,-113.989637305699,4,1,0,60,0,0
101118,-115.183246073298,4,1,0,60,0,0
101269,-116.402116402116,4,1,0,60,0,0
101421,-117.647058823529,4,1,0,60,0,0
102028,-117.647058823529,4,1,0,60,0,0
110361,-114.942528735632,4,1,0,60,0,0
110513,-112.359550561798,4,1,0,60,0,0
110664,-109.89010989011,4,1,0,60,0,0
110715,-107.52688172043,4,1,0,60,0,0
110765,-105.263157894737,4,1,0,60,0,0
110816,-103.092783505155,4,1,0,60,0,0
111119,-99.009900990099,4,1,0,60,0,0
111422,-95.2380952380952,4,1,0,60,0,0
111725,-90.9090909090909,4,1,0,85,0,1
121422,-90.9090909090909,4,1,0,60,0,0
123846,-133.333333333333,4,1,0,60,0,0

[HitObjects]
256,192,210,5,4,0:0:0:0:
256,192,513,1,0,0:0:0:0:
256,192,664,1,8,0:0:0:0:
256,192,967,1,0,0:0:0:0:
256,192,1119,1,8,0:0:0:0:
256,192,1270,1,8,0:0:0:0:
256,192,1422,1,0,0:0:0:0:
256,224,1725,1,0,0:0:0:0:
256,192,1876,1,8,0:0:0:0:
256,192,2179,1,8,0:0:0:0:
256,192,2331,1,0,0:0:0:0:
256,192,2482,1,8,0:0:0:0:
256,192,2634,1,0,0:0:0:0:
256,192,2937,1,8,0:0:0:0:
256,192,3240,1,8,0:0:0:0:
256,192,3543,1,0,0:0:0:0:
256,192,3846,1,8,0:0:0:0:
256,192,3997,1,8,0:0:0:0:
256,192,4149,1,0,0:0:0:0:
256,192,4300,1,0,0:0:0:0:
256,192,4452,1,8,0:0:0:0:
256,224,4603,1,0,0:0:0:0:
256,192,4755,1,8,0:0:0:0:
256,192,4906,1,8,0:0:0:0:
256,192,5058,1,0,0:0:0:0:
256,192,5361,1,0,0:0:0:0:
256,192,5513,1,8,0:0:0:0:
256,192,5816,1,0,0:0:0:0:
256,192,5967,1,8,0:0:0:0:
256,192,6119,1,8,0:0:0:0:
256,192,6270,1,0,0:0:0:0:
256,192,6573,1,0,0:0:0:0:
224,192,6725,1,8,0:0:0:0:
256,192,7028,1,8,0:0:0:0:
256,192,7179,1,0,0:0:0:0:
256,192,7331,1,0,0:0:0:0:
256,192,7482,1,8,0:0:0:0:
256,192,7785,1,8,0:0:0:0:
256,192,8088,1,0,0:0:0:0:
256,192,8391,1,0,0:0:0:0:
256,192,8543,1,8,0:0:0:0:
256,192,8846,1,8,0:0:0:0:
256,192,8997,1,0,0:0:0:0:
256,192,9300,1,8,0:0:0:0:
256,192,9452,1,0,0:0:0:0:
256,192,9603,1,8,0:0:0:0:
256,192,9755,1,8,0:0:0:0:
256,192,9906,1,4,0:0:0:0:
256,192,10210,1,0,0:0:0:0:
256,192,10361,1,8,0:0:0:0:
256,192,10664,1,0,0:0:0:0:
256,192,10816,1,8,0:0:0:0:
256,192,10967,1,8,0:0:0:0:
256,192,11119,1,4,0:0:0:0:
256,192,11422,1,0,0:0:0:0:
256,192,11573,1,8,0:0:0:0:
256,192,11876,1,8,0:0:0:0:
256,192,12028,1,0,0:0:0:0:
256,192,12179,1,8,0:0:0:0:
256,192,12331,1,4,0:0:0:0:
256,192,12634,1,0,0:0:0:0:
256,192,12937,1,8,0:0:0:0:
256,192,13240,1,8,0:0:0:0:
256,192,13543,1,4,0:0:0:0:
256,192,13694,1,8,0:0:0:0:
256,192,13846,1,0,0:0:0:0:
256,192,13997,1,0,0:0:0:0:
256,192,14149,1,8,0:0:0:0:
256,192,14300,1,8,0:0:0:0:
256,192,14351,1,8,0:0:0:0:
256,192,14401,1,8,0:0:0:0:
256,192,14452,1,0,0:0:0:0:
256,192,14603,1,8,0:0:0:0:
256,192,14755,1,4,0:0:0:0:
256,192,14906,1,0,0:0:0:0:
256,192,14982,1,0,0:0:0:0:
256,192,15058,1,8,0:0:0:0:
256,192,15209,1,0,0:0:0:0:
256,192,15361,1,8,0:0:0:0:
224,192,15513,1,0,0:0:0:0:
224,192,15588,1,0,0:0:0:0:
256,192,15664,1,8,0:0:0:0:
256,192,15816,1,8,0:0:0:0:
256,192,15967,1,4,0:0:0:0:
256,192,16119,1,0,0:0:0:0:
256,192,16194,1,8,0:0:0:0:
256,192,16270,1,0,0:0:0:0:
256,192,16422,1,8,0:0:0:0:
256,192,16573,1,0,0:0:0:0:
256,192,16649,1,0,0:0:0:0:
256,192,16725,1,8,0:0:0:0:
256,192,16775,1,8,0:0:0:0:
256,192,16826,1,8,0:0:0:0:
256,192,16876,1,0,0:0:0:0:
256,192,16952,1,0,0:0:0:0:
256,192,17028,1,8,0:0:0:0:
256,192,17103,1,8,0:0:0:0:
256,192,17179,1,4,0:0:0:0:
256,192,17482,1,0,0:0:0:0:
256,192,17634,1,0,0:0:0:0:
256,192,17785,1,8,0:0:0:0:
256,192,18088,5,0,0:0:0:0:
256,192,18240,1,0,0:0:0:0:
256,192,18391,1,12,0:0:0:0:
256,192,18543,1,8,0:0:0:0:
256,192,18694,1,0,0:0:0:0:
256,192,18846,1,0,0:0:0:0:
256,192,18997,1,8,0:0:0:0:
256,192,19300,1,8,0:0:0:0:
256,192,19603,1,4,0:0:0:0:
256,192,20058,1,0,0:0:0:0:
256,192,20210,1,8,0:0:0:0:
256,192,20513,1,0,0:0:0:0:
256,192,20664,1,8,0:0:0:0:
256,192,20816,1,0,0:0:0:0:
256,192,21119,1,0,0:0:0:0:
256,192,21422,1,8,0:0:0:0:
256,192,21573,1,8,0:0:0:0:
256,192,21725,1,0,0:0:0:0:
256,192,21876,1,8,0:0:0:0:
256,192,22028,1,0,0:0:0:0:
256,192,22785,1,8,0:0:0:0:
256,192,22937,1,0,0:0:0:0:
256,192,23088,1,0,0:0:0:0:
256,192,23240,1,8,0:0:0:0:
256,192,23543,1,0,0:0:0:0:
256,192,23846,1,8,0:0:0:0:
256,192,23947,1,0,0:0:0:0:
256,192,24048,1,0,0:0:0:0:
256,192,24149,1,8,0:0:0:0:
256,192,24452,1,0,0:0:0:0:
256,192,25058,1,8,0:0:0:0:
256,192,25361,1,0,0:0:0:0:
256,192,25513,1,8,0:0:0:0:
256,192,25664,1,0,0:0:0:0:
256,192,25967,1,0,0:0:0:0:
256,192,26270,1,8,0:0:0:0:
256,192,26422,1,0,0:0:0:0:
256,192,26573,1,8,0:0:0:0:
256,192,26725,1,8,0:0:0:0:
256,192,26876,1,0,0:0:0:0:
256,192,27634,1,8,0:0:0:0:
256,192,27785,1,0,0:0:0:0:
256,192,27937,1,0,0:0:0:0:
256,192,28088,1,8,0:0:0:0:
256,192,28391,1,0,0:0:0:0:
256,192,28694,1,8,0:0:0:0:
284,237,28795,1,0,0:0:0:0:
256,192,28896,1,0,0:0:0:0:
256,192,28997,1,8,0:0:0:0:
256,192,29300,1,4,0:0:0:0:
240,187,29452,1,8,0:0:0:0:
240,186,29528,1,0,0:0:0:0:
256,192,29603,1,0,0:0:0:0:
256,192,29755,1,8,0:0:0:0:
256,192,29906,1,0,0:0:0:0:
256,192,30058,1,8,0:0:0:0:
256,192,30134,1,0,0:0:0:0:
256,192,30209,1,0,0:0:0:0:
256,192,30361,1,8,0:0:0:0:
256,192,30513,1,0,0:0:0:0:
239,188,30664,1,0,0:0:0:0:
256,192,30740,1,0,0:0:0:0:
256,192,30816,1,8,0:0:0:0:
256,192,30967,1,0,0:0:0:0:
256,192,31119,1,8,0:0:0:0:
243,188,31194,1,0,0:0:0:0:
256,192,31270,1,8,0:0:0:0:
256,192,31346,1,8,0:0:0:0:
256,192,31422,1,0,0:0:0:0:
256,192,31573,1,8,0:0:0:0:
256,192,31725,1,0,0:0:0:0:
266,183,31876,1,8,0:0:0:0:
262,183,31952,1,8,0:0:0:0:
256,192,32028,1,0,0:0:0:0:
251,198,32179,1,8,0:0:0:0:
224,192,32331,1,0,0:0:0:0:
256,224,32482,1,8,0:0:0:0:
248,198,32558,1,8,0:0:0:0:
256,192,32634,1,0,0:0:0:0:
256,192,32785,1,8,0:0:0:0:
256,192,32937,1,0,0:0:0:0:
245,180,33088,1,0,0:0:0:0:
246,180,33164,1,0,0:0:0:0:
256,192,33240,1,8,0:0:0:0:
256,192,33391,1,0,0:0:0:0:
256,192,33543,1,8,0:0:0:0:
256,192,33644,1,0,0:0:0:0:
256,192,33745,1,0,0:0:0:0:
256,192,33846,1,8,0:0:0:0:
256,192,33997,1,8,0:0:0:0:
256,192,34149,1,0,0:0:0:0:
256,192,34300,1,0,0:0:0:0:
229,174,34376,1,0,0:0:0:0:
256,192,34452,1,8,0:0:0:0:
229,174,34603,1,0,0:0:0:0:
256,192,34755,1,8,0:0:0:0:
256,192,34831,1,8,0:0:0:0:
256,160,34906,1,0,0:0:0:0:
256,192,34982,1,0,0:0:0:0:
229,174,35058,1,8,0:0:0:0:
256,192,35210,1,8,0:0:0:0:
256,192,35361,1,0,0:0:0:0:
256,192,35513,1,0,0:0:0:0:
256,192,35588,1,0,0:0:0:0:
224,192,35664,1,8,0:0:0:0:
224,192,35816,1,0,0:0:0:0:
256,192,35967,1,8,0:0:0:0:
224,160,36043,1,0,0:0:0:0:
224,192,36119,1,8,0:0:0:0:
224,192,36194,1,8,0:0:0:0:
224,192,36270,1,0,0:0:0:0:
256,192,36422,1,0,0:0:0:0:
256,192,36573,1,8,0:0:0:0:
256,192,36725,1,0,0:0:0:0:
256,192,36800,1,0,0:0:0:0:
256,192,36876,1,8,0:0:0:0:
256,192,37028,1,8,0:0:0:0:
256,192,37179,1,0,0:0:0:0:
256,192,37331,1,8,0:0:0:0:
256,192,37406,5,8,0:0:0:0:
256,192,37482,1,0,0:0:0:0:
256,192,37634,1,0,0:0:0:0:
256,192,37785,1,8,0:0:0:0:
237,198,37861,1,0,0:0:0:0:
256,192,37937,1,0,0:0:0:0:
256,192,38013,1,0,0:0:0:0:
256,192,38088,1,8,0:0:0:0:
256,192,38240,1,0,0:0:0:0:
256,192,38391,1,8,0:0:0:0:
256,192,38492,1,8,0:0:0:0:
256,192,38593,1,8,0:0:0:0:
256,192,38694,1,0,0:0:0:0:
256,192,38846,1,0,0:0:0:0:
256,192,38997,1,12,0:0:0:0:
288,192,39300,1,0,0:0:0:0:
256,192,39452,1,0,0:0:0:0:
256,192,39603,1,8,0:0:0:0:
256,192,39755,1,0,0:0:0:0:
256,192,39906,1,8,0:0:0:0:
256,192,40058,1,8,0:0:0:0:
256,192,40210,1,4,0:0:0:0:
224,192,40361,1,8,0:0:0:0:
256,224,40513,1,0,0:0:0:0:
288,192,40664,1,0,0:0:0:0:
256,192,40816,1,8,0:0:0:0:
256,192,41119,1,8,0:0:0:0:
256,192,41169,1,8,0:0:0:0:
256,192,41220,1,8,0:0:0:0:
256,192,41270,1,0,0:0:0:0:
256,192,41422,1,12,0:0:0:0:
256,192,41573,1,0,0:0:0:0:
256,192,41649,1,0,0:0:0:0:
256,192,41725,1,8,0:0:0:0:
256,192,41876,1,0,0:0:0:0:
256,192,42028,1,8,0:0:0:0:
256,192,42103,1,0,0:0:0:0:
256,192,42179,1,0,0:0:0:0:
288,192,42255,1,0,0:0:0:0:
256,192,42331,1,8,0:0:0:0:
256,192,42482,1,8,0:0:0:0:
256,192,42634,1,0,0:0:0:0:
256,192,42785,1,8,0:0:0:0:
256,192,43088,1,0,0:0:0:0:
256,192,43240,1,8,0:0:0:0:
256,192,43316,1,0,0:0:0:0:
256,192,43391,1,0,0:0:0:0:
256,192,43467,1,8,0:0:0:0:
256,224,43543,1,0,0:0:0:0:
256,192,43694,1,0,0:0:0:0:
256,192,43846,1,8,0:0:0:0:
256,192,43997,1,0,0:0:0:0:
256,192,44149,1,8,0:0:0:0:
256,192,44225,1,0,0:0:0:0:
256,224,44300,1,8,0:0:0:0:
224,224,44376,1,8,0:0:0:0:
256,224,44452,1,0,0:0:0:0:
256,192,44603,1,0,0:0:0:0:
256,192,44679,1,0,0:0:0:0:
256,192,44755,1,8,0:0:0:0:
256,192,44906,1,8,0:0:0:0:
256,192,45058,1,0,0:0:0:0:
256,192,45209,1,8,0:0:0:0:
256,192,45285,1,8,0:0:0:0:
256,192,45361,1,0,0:0:0:0:
256,224,45513,1,0,0:0:0:0:
256,192,45664,1,8,0:0:0:0:
256,224,45816,1,0,0:0:0:0:
256,224,45891,1,0,0:0:0:0:
256,192,45967,1,8,0:0:0:0:
256,192,46119,1,8,0:0:0:0:
256,192,46270,1,0,0:0:0:0:
256,192,46422,1,0,0:0:0:0:
256,192,46497,1,0,0:0:0:0:
256,192,46573,1,8,0:0:0:0:
256,192,46725,1,0,0:0:0:0:
256,192,46876,1,8,0:0:0:0:
256,192,46952,1,8,0:0:0:0:
256,192,47028,1,0,0:0:0:0:
256,192,47103,1,0,0:0:0:0:
288,192,47179,1,8,0:0:0:0:
256,192,47331,1,8,0:0:0:0:
256,192,47482,1,0,0:0:0:0:
256,192,47634,1,8,0:0:0:0:
256,192,47937,1,0,0:0:0:0:
256,192,48088,1,8,0:0:0:0:
256,224,48164,1,8,0:0:0:0:
256,192,48240,1,0,0:0:0:0:
256,192,48316,1,8,0:0:0:0:
256,192,48391,1,0,0:0:0:0:
256,192,48543,1,0,0:0:0:0:
256,192,48694,1,8,0:0:0:0:
256,192,48846,1,0,0:0:0:0:
256,192,48997,1,8,0:0:0:0:
256,192,49073,1,0,0:0:0:0:
288,192,49149,1,8,0:0:0:0:
256,192,49225,1,8,0:0:0:0:
256,192,49300,1,0,0:0:0:0:
288,192,49452,1,8,0:0:0:0:
256,192,49528,1,0,0:0:0:0:
288,192,49603,1,0,0:0:0:0:
288,192,49755,1,8,0:0:0:0:
288,192,49906,1,0,0:0:0:0:
256,192,50058,1,8,0:0:0:0:
288,192,50134,1,0,0:0:0:0:
288,192,50209,1,8,0:0:0:0:
288,192,50361,1,0,0:0:0:0:
288,192,50513,1,8,0:0:0:0:
288,192,50664,1,0,0:0:0:0:
256,192,50740,1,0,0:0:0:0:
288,192,50816,1,8,0:0:0:0:
256,192,50891,1,8,0:0:0:0:
256,192,50967,1,0,0:0:0:0:
288,160,51119,1,12,0:0:0:0:
256,192,51270,1,0,0:0:0:0:
256,192,51346,1,0,0:0:0:0:
256,192,51422,1,8,0:0:0:0:
256,192,51573,1,0,0:0:0:0:
256,192,51725,1,8,0:0:0:0:
256,192,51800,1,0,0:0:0:0:
288,192,51876,1,0,0:0:0:0:
288,192,51952,1,0,0:0:0:0:
256,192,52028,1,8,0:0:0:0:
256,192,52179,1,8,0:0:0:0:
256,192,52331,1,0,0:0:0:0:
256,192,52482,1,8,0:0:0:0:
256,192,52785,1,0,0:0:0:0:
256,192,52937,1,8,0:0:0:0:
256,192,53013,1,0,0:0:0:0:
256,192,53088,1,0,0:0:0:0:
256,192,53164,1,8,0:0:0:0:
288,192,53240,1,0,0:0:0:0:
256,192,53391,1,0,0:0:0:0:
256,192,53543,1,8,0:0:0:0:
256,192,53694,1,0,0:0:0:0:
256,192,53846,1,8,0:0:0:0:
256,192,53922,1,0,0:0:0:0:
256,192,53997,1,8,0:0:0:0:
256,192,54073,1,8,0:0:0:0:
256,192,54149,1,0,0:0:0:0:
256,192,54300,1,0,0:0:0:0:
288,160,54376,1,0,0:0:0:0:
256,192,54452,1,8,0:0:0:0:
288,160,54603,1,8,0:0:0:0:
256,192,54755,1,0,0:0:0:0:
288,160,54906,1,8,0:0:0:0:
288,192,54982,1,0,0:0:0:0:
288,160,55058,1,0,0:0:0:0:
288,160,55209,1,0,0:0:0:0:
288,160,55361,1,8,0:0:0:0:
256,192,55513,1,0,0:0:0:0:
256,192,55588,1,0,0:0:0:0:
256,192,55664,1,8,0:0:0:0:
256,160,55715,1,8,0:0:0:0:
256,192,55765,1,8,0:0:0:0:
256,160,55816,1,0,0:0:0:0:
256,192,55891,1,0,0:0:0:0:
256,192,55967,1,12,0:0:0:0:
256,192,56119,1,0,0:0:0:0:
256,192,56194,1,0,0:0:0:0:
224,192,56270,1,8,0:0:0:0:
256,192,56422,1,0,0:0:0:0:
256,192,56573,1,8,0:0:0:0:
288,192,56649,1,8,0:0:0:0:
256,192,56725,1,0,0:0:0:0:
256,192,56800,1,0,0:0:0:0:
256,192,56876,1,8,0:0:0:0:
256,192,57028,1,8,0:0:0:0:
256,192,57179,1,0,0:0:0:0:
256,192,57331,1,8,0:0:0:0:
256,192,57634,1,0,0:0:0:0:
256,192,57785,1,8,0:0:0:0:
256,192,57861,1,8,0:0:0:0:
256,192,57937,1,0,0:0:0:0:
256,192,58013,1,8,0:0:0:0:
288,192,58088,1,0,0:0:0:0:
256,192,58240,1,0,0:0:0:0:
256,192,58391,1,12,0:0:0:0:
256,192,58543,1,0,0:0:0:0:
256,192,58694,1,8,0:0:0:0:
288,192,58770,1,0,0:0:0:0:
288,192,58846,1,8,0:0:0:0:
288,192,58922,1,8,0:0:0:0:
288,192,58997,1,0,0:0:0:0:
256,192,59073,1,0,0:0:0:0:
288,192,59149,1,8,0:0:0:0:
256,192,59199,1,8,0:0:0:0:
256,192,59250,1,8,0:0:0:0:
256,192,59300,1,0,0:0:0:0:
256,192,59376,1,0,0:0:0:0:
256,192,59452,1,8,0:0:0:0:
256,192,59528,1,8,0:0:0:0:
256,192,59603,1,0,0:0:0:0:
256,192,59831,1,8,0:0:0:0:
256,192,60058,1,8,0:0:0:0:
256,192,60209,1,0,0:0:0:0:
288,192,60285,1,0,0:0:0:0:
256,192,60361,1,0,0:0:0:0:
256,192,60513,1,8,0:0:0:0:
256,192,60588,1,0,0:0:0:0:
256,192,60664,1,8,0:0:0:0:
256,192,60740,1,8,0:0:0:0:
288,192,60816,1,4,0:0:0:0:
256,192,60967,1,0,0:0:0:0:
256,192,61119,1,8,0:0:0:0:
256,192,61194,1,8,0:0:0:0:
256,224,61270,1,0,0:0:0:0:
256,192,61346,1,8,0:0:0:0:
256,224,61497,1,0,0:0:0:0:
256,192,61573,1,0,0:0:0:0:
256,192,61725,1,8,0:0:0:0:
256,192,61876,1,0,0:0:0:0:
256,192,61952,1,0,0:0:0:0:
256,192,62028,1,8,0:0:0:0:
256,192,62179,1,0,0:0:0:0:
256,192,62331,1,8,0:0:0:0:
256,192,62406,1,0,0:0:0:0:
256,224,62482,1,0,0:0:0:0:
256,192,62558,1,8,0:0:0:0:
256,224,62709,1,8,0:0:0:0:
256,224,62785,1,0,0:0:0:0:
256,224,62937,1,8,0:0:0:0:
256,192,63088,1,8,0:0:0:0:
256,192,63240,1,0,0:0:0:0:
256,192,63391,1,0,0:0:0:0:
256,192,63467,1,0,0:0:0:0:
256,192,63543,1,8,0:0:0:0:
256,192,63694,1,0,0:0:0:0:
256,192,63770,1,8,0:0:0:0:
256,192,63922,1,8,0:0:0:0:
256,192,63997,1,0,0:0:0:0:
288,192,64149,1,8,0:0:0:0:
256,192,64225,1,8,0:0:0:0:
256,224,64300,1,0,0:0:0:0:
288,192,64452,1,8,0:0:0:0:
256,192,64528,1,0,0:0:0:0:
256,192,64603,1,8,0:0:0:0:
288,192,64679,1,8,0:0:0:0:
256,192,64755,1,0,0:0:0:0:
256,192,64906,1,0,0:0:0:0:
256,192,65058,1,8,0:0:0:0:
288,192,65209,1,0,0:0:0:0:
256,192,65285,1,0,0:0:0:0:
288,192,65361,1,8,0:0:0:0:
256,192,65437,1,0,0:0:0:0:
256,192,65513,1,8,0:0:0:0:
256,192,65588,1,8,0:0:0:0:
288,192,65664,1,0,0:0:0:0:
256,192,65816,1,0,0:0:0:0:
256,192,65967,1,8,0:0:0:0:
256,192,66043,1,0,0:0:0:0:
256,192,66119,1,0,0:0:0:0:
256,192,66194,1,8,0:0:0:0:
256,224,66346,1,0,0:0:0:0:
256,192,66422,1,0,0:0:0:0:
256,192,66573,1,8,0:0:0:0:
256,192,66725,1,0,0:0:0:0:
256,192,66800,1,0,0:0:0:0:
256,192,66876,1,8,0:0:0:0:
256,192,67028,1,0,0:0:0:0:
256,192,67179,1,8,0:0:0:0:
256,192,67255,1,8,0:0:0:0:
256,192,67331,1,0,0:0:0:0:
256,192,67406,1,8,0:0:0:0:
256,192,67558,1,8,0:0:0:0:
256,192,67634,1,0,0:0:0:0:
256,192,67785,1,8,0:0:0:0:
256,192,67937,1,0,0:0:0:0:
256,192,68013,1,0,0:0:0:0:
256,192,68088,1,8,0:0:0:0:
256,192,68240,1,8,0:0:0:0:
256,192,68391,1,0,0:0:0:0:
256,224,68543,1,8,0:0:0:0:
256,192,68619,1,0,0:0:0:0:
256,192,68770,1,0,0:0:0:0:
256,192,68846,1,8,0:0:0:0:
256,192,68997,1,8,0:0:0:0:
256,192,69149,1,0,0:0:0:0:
256,192,69225,1,0,0:0:0:0:
256,192,69300,1,8,0:0:0:0:
256,192,69452,1,8,0:0:0:0:
256,192,69603,1,0,0:0:0:0:
256,192,69755,1,8,0:0:0:0:
256,192,69831,1,0,0:0:0:0:
256,192,69982,1,0,0:0:0:0:
256,192,70058,1,8,0:0:0:0:
256,192,70134,1,0,0:0:0:0:
256,192,70210,1,8,0:0:0:0:
256,192,70285,1,0,0:0:0:0:
256,192,70361,1,8,0:0:0:0:
256,192,70437,1,8,0:0:0:0:
256,192,70513,1,4,0:0:0:0:
256,192,70664,1,0,0:0:0:0:
256,192,70816,1,8,0:0:0:0:
256,192,70891,1,8,0:0:0:0:
256,192,70967,1,0,0:0:0:0:
256,192,71043,1,8,0:0:0:0:
256,192,71194,1,0,0:0:0:0:
256,192,71270,1,0,0:0:0:0:
256,192,71422,1,8,0:0:0:0:
256,192,71573,1,0,0:0:0:0:
256,192,71649,1,0,0:0:0:0:
256,192,71725,1,8,0:0:0:0:
256,192,71876,1,0,0:0:0:0:
256,192,72028,1,8,0:0:0:0:
256,192,72103,1,0,0:0:0:0:
288,192,72179,1,0,0:0:0:0:
256,192,72255,1,8,0:0:0:0:
256,192,72406,1,8,0:0:0:0:
256,192,72482,1,0,0:0:0:0:
256,192,72634,1,8,0:0:0:0:
256,192,72785,1,8,0:0:0:0:
256,224,72861,1,8,0:0:0:0:
256,192,72937,1,0,0:0:0:0:
256,224,73088,1,0,0:0:0:0:
256,192,73240,1,12,0:0:0:0:
256,192,73391,1,0,0:0:0:0:
256,192,73467,1,8,0:0:0:0:
256,192,73619,1,8,0:0:0:0:
256,192,73694,1,0,0:0:0:0:
256,192,73846,1,8,0:0:0:0:
256,192,73922,1,0,0:0:0:0:
256,192,73997,1,8,0:0:0:0:
256,192,74149,1,0,0:0:0:0:
256,192,74225,1,8,0:0:0:0:
256,192,74300,1,0,0:0:0:0:
256,224,74376,1,0,0:0:0:0:
256,192,74452,1,8,0:0:0:0:
256,192,74603,1,8,0:0:0:0:
256,192,74654,1,8,0:0:0:0:
256,192,74704,1,8,0:0:0:0:
256,192,74755,1,0,0:0:0:0:
256,192,74906,1,0,0:0:0:0:
256,192,74982,1,8,0:0:0:0:
256,192,75058,1,0,0:0:0:0:
224,192,75210,1,8,0:0:0:0:
224,192,75361,1,4,0:0:0:0:
224,192,75513,1,0,0:0:0:0:
224,192,75588,1,0,0:0:0:0:
224,192,75664,1,8,0:0:0:0:
224,192,75816,1,0,0:0:0:0:
224,192,75967,1,8,0:0:0:0:
224,192,76119,1,0,0:0:0:0:
256,192,76194,1,0,0:0:0:0:
224,192,76270,1,8,0:0:0:0:
224,192,76422,1,8,0:0:0:0:
224,192,76573,1,0,0:0:0:0:
256,192,76725,1,0,0:0:0:0:
256,192,76876,1,8,0:0:0:0:
256,192,76952,1,0,0:0:0:0:
256,192,77028,1,8,0:0:0:0:
256,192,77179,1,0,0:0:0:0:
255,188,77255,1,0,0:0:0:0:
256,192,77331,1,8,0:0:0:0:
256,192,77381,1,8,0:0:0:0:
254,188,77432,1,8,0:0:0:0:
250,191,77482,1,0,0:0:0:0:
224,224,77558,1,0,0:0:0:0:
256,192,77634,1,8,0:0:0:0:
256,192,77785,1,4,0:0:0:0:
256,192,77937,1,8,0:0:0:0:
256,192,78088,1,0,0:0:0:0:
256,192,78240,1,0,0:0:0:0:
256,192,78316,1,0,0:0:0:0:
256,192,78391,1,8,0:0:0:0:
256,192,78543,1,0,0:0:0:0:
256,192,78694,1,0,0:0:0:0:
256,192,78846,1,12,0:0:0:0:
256,192,78997,1,0,0:0:0:0:
256,192,79149,1,8,0:0:0:0:
256,192,79300,1,0,0:0:0:0:
256,192,79452,1,0,0:0:0:0:
256,192,79502,1,0,0:0:0:0:
256,192,79553,1,0,0:0:0:0:
256,192,79603,1,8,0:0:0:0:
256,192,79755,1,0,0:0:0:0:
256,192,79906,1,12,0:0:0:0:
256,192,80210,1,4,0:0:0:0:
256,192,80361,12,0,82028,0:0:0:0:
256,192,82634,5,0,0:0:0:0:
256,192,82937,1,0,0:0:0:0:
256,192,83038,1,8,0:0:0:0:
256,192,83139,1,8,0:0:0:0:
256,192,83240,5,0,0:0:0:0:
256,192,83543,1,0,0:0:0:0:
256,192,83644,1,8,0:0:0:0:
256,192,83745,1,8,0:0:0:0:
256,192,83846,5,0,0:0:0:0:
256,192,84149,1,0,0:0:0:0:
256,192,84250,1,0,0:0:0:0:
256,192,84351,1,8,0:0:0:0:
256,192,84452,1,0,0:0:0:0:
256,192,84755,1,8,0:0:0:0:
256,192,85058,1,0,0:0:0:0:
256,192,85361,1,0,0:0:0:0:
256,192,85462,1,0,0:0:0:0:
256,192,85563,1,8,0:0:0:0:
256,192,85664,1,0,0:0:0:0:
256,192,85967,1,0,0:0:0:0:
256,192,86068,1,0,0:0:0:0:
256,192,86169,1,8,0:0:0:0:
256,192,86270,1,0,0:0:0:0:
256,192,86573,1,0,0:0:0:0:
256,192,86674,1,0,0:0:0:0:
256,192,86775,1,8,0:0:0:0:
256,192,86876,1,8,0:0:0:0:
224,192,87179,1,8,0:0:0:0:
256,192,87482,1,0,0:0:0:0:
256,192,87785,1,0,0:0:0:0:
256,192,87886,1,8,0:0:0:0:
256,192,87987,1,8,0:0:0:0:
256,192,88088,1,0,0:0:0:0:
256,192,88391,1,0,0:0:0:0:
256,192,88492,1,0,0:0:0:0:
256,192,88593,1,8,0:0:0:0:
256,192,88694,1,0,0:0:0:0:
256,192,88997,1,0,0:0:0:0:
256,192,89300,1,8,0:0:0:0:
256,192,89401,5,8,0:0:0:0:
256,192,89502,1,8,0:0:0:0:
256,192,89603,1,8,0:0:0:0:
256,192,89704,1,8,0:0:0:0:
256,192,89805,1,8,0:0:0:0:
256,192,89906,1,4,0:0:0:0:
256,192,90058,1,0,0:0:0:0:
256,192,90209,1,8,0:0:0:0:
256,192,90361,1,0,0:0:0:0:
256,192,90664,1,0,0:0:0:0:
256,192,90816,1,8,0:0:0:0:
256,192,90967,1,8,0:0:0:0:
256,224,91119,1,0,0:0:0:0:
256,192,91422,1,0,0:0:0:0:
256,192,91573,1,0,0:0:0:0:
256,192,91725,1,8,0:0:0:0:
256,192,91800,1,0,0:0:0:0:
256,192,91876,1,8,0:0:0:0:
256,192,91952,1,8,0:0:0:0:
256,192,92028,1,0,0:0:0:0:
256,192,92179,1,8,0:0:0:0:
256,192,92331,1,0,0:0:0:0:
256,192,92482,1,0,0:0:0:0:
256,192,92558,1,0,0:0:0:0:
256,192,92634,1,8,0:0:0:0:
256,192,92785,1,0,0:0:0:0:
256,192,93088,1,0,0:0:0:0:
256,192,93240,1,8,0:0:0:0:
256,192,93391,1,0,0:0:0:0:
256,192,93467,1,0,0:0:0:0:
256,192,93543,1,8,0:0:0:0:
256,192,93694,1,0,0:0:0:0:
256,192,93846,1,8,0:0:0:0:
288,192,93922,1,8,0:0:0:0:
256,192,93997,1,0,0:0:0:0:
256,192,94149,1,0,0:0:0:0:
256,192,94225,1,0,0:0:0:0:
256,192,94300,1,8,0:0:0:0:
256,192,94351,1,8,0:0:0:0:
256,192,94401,1,8,0:0:0:0:
256,192,94452,1,0,0:0:0:0:
256,192,94528,1,0,0:0:0:0:
256,192,94603,1,8,0:0:0:0:
256,192,94755,1,4,0:0:0:0:
256,192,94906,1,8,0:0:0:0:
256,192,94982,1,8,0:0:0:0:
256,192,95058,1,0,0:0:0:0:
256,192,95209,1,8,0:0:0:0:
256,192,95361,1,0,0:0:0:0:
256,192,95513,1,8,0:0:0:0:
256,192,95588,1,8,0:0:0:0:
256,192,95664,1,0,0:0:0:0:
256,192,95816,1,8,0:0:0:0:
256,192,95967,1,0,0:0:0:0:
256,192,96119,1,0,0:0:0:0:
224,192,96194,1,0,0:0:0:0:
256,192,96270,1,8,0:0:0:0:
256,192,96422,1,8,0:0:0:0:
256,192,96573,1,0,0:0:0:0:
224,192,96725,1,0,0:0:0:0:
256,192,96800,1,0,0:0:0:0:
256,192,96876,1,8,0:0:0:0:
256,192,96952,1,8,0:0:0:0:
256,192,97028,1,0,0:0:0:0:
256,192,97179,1,12,0:0:0:0:
256,192,97482,1,0,0:0:0:0:
256,192,97634,1,8,0:0:0:0:
256,192,97785,1,0,0:0:0:0:
256,192,97937,1,8,0:0:0:0:
256,192,98013,1,8,0:0:0:0:
256,192,98088,1,0,0:0:0:0:
288,192,98240,1,0,0:0:0:0:
256,192,98391,1,12,0:0:0:0:
256,192,98543,1,0,0:0:0:0:
256,192,98619,1,0,0:0:0:0:
256,192,98694,1,8,0:0:0:0:
256,192,98846,1,0,0:0:0:0:
256,192,98997,1,8,0:0:0:0:
288,192,99098,1,0,0:0:0:0:
256,192,99199,1,0,0:0:0:0:
256,192,99300,1,8,0:0:0:0:
256,192,99452,1,8,0:0:0:0:
256,192,99603,1,4,0:0:0:0:
256,192,99906,1,0,0:0:0:0:
256,192,100058,1,0,0:0:0:0:
256,192,100209,1,8,0:0:0:0:
224,192,100361,1,8,0:0:0:0:
256,192,100513,1,0,0:0:0:0:
256,192,100664,1,0,0:0:0:0:
256,192,100816,1,12,0:0:0:0:
256,192,100967,1,0,0:0:0:0:
256,192,101119,1,8,0:0:0:0:
256,192,101270,1,8,0:0:0:0:
256,192,101422,1,0,0:0:0:0:
256,192,102028,5,4,0:0:0:0:
256,192,102331,1,0,0:0:0:0:
256,192,102482,1,8,0:0:0:0:
256,192,102785,1,0,0:0:0:0:
256,192,102937,1,8,0:0:0:0:
256,192,103088,1,8,0:0:0:0:
256,192,103240,1,0,0:0:0:0:
256,224,103543,1,0,0:0:0:0:
256,192,103694,1,8,0:0:0:0:
256,192,103997,1,8,0:0:0:0:
256,192,104149,1,0,0:0:0:0:
256,192,104300,1,8,0:0:0:0:
256,192,104452,1,0,0:0:0:0:
256,192,104755,1,8,0:0:0:0:
256,192,105058,1,8,0:0:0:0:
256,192,105361,1,0,0:0:0:0:
256,224,105664,1,8,0:0:0:0:
256,192,105816,1,8,0:0:0:0:
256,192,105967,1,0,0:0:0:0:
256,192,106119,1,0,0:0:0:0:
256,192,106270,1,8,0:0:0:0:
256,224,106422,1,0,0:0:0:0:
256,192,106573,1,8,0:0:0:0:
256,192,106725,1,8,0:0:0:0:
256,192,106876,1,0,0:0:0:0:
256,192,107179,1,0,0:0:0:0:
256,192,107331,1,8,0:0:0:0:
256,192,107634,1,0,0:0:0:0:
256,192,107785,1,8,0:0:0:0:
256,192,107937,1,8,0:0:0:0:
256,192,108088,1,0,0:0:0:0:
256,192,108391,1,0,0:0:0:0:
224,192,108543,1,8,0:0:0:0:
256,192,108846,1,8,0:0:0:0:
256,192,108997,1,0,0:0:0:0:
256,192,109149,1,0,0:0:0:0:
256,192,109300,1,8,0:0:0:0:
256,192,109603,5,8,0:0:0:0:
256,192,109906,1,0,0:0:0:0:
256,192,110209,5,0,0:0:0:0:
256,192,110361,1,8,0:0:0:0:
256,192,110513,1,0,0:0:0:0:
256,192,110664,1,0,0:0:0:0:
256,192,110715,1,0,0:0:0:0:
256,192,110765,1,0,0:0:0:0:
256,192,110816,1,8,0:0:0:0:
256,192,111119,1,8,0:0:0:0:
256,192,111422,1,8,0:0:0:0:
256,192,111725,1,4,0:0:0:0:
256,192,111876,1,0,0:0:0:0:
256,192,112028,1,8,0:0:0:0:
256,192,112103,1,0,0:0:0:0:
256,192,112179,1,0,0:0:0:0:
256,192,112255,1,8,0:0:0:0:
256,192,112406,1,0,0:0:0:0:
256,192,112482,1,0,0:0:0:0:
256,192,112634,1,8,0:0:0:0:
256,192,112785,1,0,0:0:0:0:
256,192,112861,1,0,0:0:0:0:
256,192,112937,1,8,0:0:0:0:
256,192,113088,1,0,0:0:0:0:
256,192,113240,1,8,0:0:0:0:
256,192,113316,1,8,0:0:0:0:
288,192,113391,1,0,0:0:0:0:
256,192,113467,1,8,0:0:0:0:
256,192,113619,1,8,0:0:0:0:
256,192,113694,1,0,0:0:0:0:
256,192,113846,1,8,0:0:0:0:
256,192,113997,1,0,0:0:0:0:
256,192,114073,1,0,0:0:0:0:
256,224,114149,1,8,0:0:0:0:
256,192,114199,1,8,0:0:0:0:
256,192,114250,1,8,0:0:0:0:
256,224,114300,1,0,0:0:0:0:
256,192,114452,1,12,0:0:0:0:
256,192,114755,1,8,0:0:0:0:
256,192,114831,1,0,0:0:0:0:
256,192,114906,1,0,0:0:0:0:
256,192,114982,1,8,0:0:0:0:
256,192,115058,1,0,0:0:0:0:
256,192,115134,1,0,0:0:0:0:
256,192,115209,1,8,0:0:0:0:
256,192,115361,1,0,0:0:0:0:
256,192,115437,1,8,0:0:0:0:
256,192,115513,1,0,0:0:0:0:
256,224,115588,1,8,0:0:0:0:
256,192,115664,1,8,0:0:0:0:
256,192,115816,1,0,0:0:0:0:
256,192,115967,1,8,0:0:0:0:
256,192,116119,1,0,0:0:0:0:
256,192,116169,1,8,0:0:0:0:
256,192,116220,1,8,0:0:0:0:
256,192,116270,1,0,0:0:0:0:
224,192,116422,1,8,0:0:0:0:
224,192,116573,1,4,0:0:0:0:
224,192,116725,1,0,0:0:0:0:
224,192,116800,1,0,0:0:0:0:
224,192,116876,1,8,0:0:0:0:
256,192,116952,1,8,0:0:0:0:
224,192,117028,1,0,0:0:0:0:
224,192,117179,1,8,0:0:0:0:
224,192,117331,1,0,0:0:0:0:
224,192,117482,1,8,0:0:0:0:
256,192,117558,1,0,0:0:0:0:
224,192,117634,1,8,0:0:0:0:
224,192,117709,1,8,0:0:0:0:
224,192,117785,1,0,0:0:0:0:
256,192,117937,1,0,0:0:0:0:
256,192,118088,1,8,0:0:0:0:
256,192,118164,1,0,0:0:0:0:
256,192,118240,1,8,0:0:0:0:
256,192,118391,1,0,0:0:0:0:
256,192,118467,1,0,0:0:0:0:
256,192,118543,5,8,0:0:0:0:
255,182,118593,1,8,0:0:0:0:
255,182,118644,1,8,0:0:0:0:
252,182,118694,1,0,0:0:0:0:
256,192,118770,1,0,0:0:0:0:
256,192,118846,1,8,0:0:0:0:
256,192,118997,1,4,0:0:0:0:
256,192,119149,1,8,0:0:0:0:
256,192,119300,1,0,0:0:0:0:
256,192,119452,1,0,0:0:0:0:
256,192,119528,1,0,0:0:0:0:
256,192,119603,1,8,0:0:0:0:
256,192,119755,1,0,0:0:0:0:
256,192,119906,1,0,0:0:0:0:
256,192,120058,1,12,0:0:0:0:
256,192,120209,1,0,0:0:0:0:
256,192,120361,1,8,0:0:0:0:
256,192,120513,1,0,0:0:0:0:
256,192,120664,1,0,0:0:0:0:
256,192,120715,1,0,0:0:0:0:
256,192,120765,1,0,0:0:0:0:
256,192,120816,1,8,0:0:0:0:
256,192,120967,1,0,0:0:0:0:
256,192,121119,1,12,0:0:0:0:
256,192,121422,1,4,0:0:0:0:
256,192,121573,12,0,123240,0:0:0:0:
256,192,123846,5,0,0:0:0:0:
256,192,124149,1,0,0:0:0:0:
256,192,124250,1,8,0:0:0:0:
256,192,124351,1,8,0:0:0:0:
256,192,124452,5,0,0:0:0:0:
256,192,124755,1,0,0:0:0:0:
256,192,124856,1,8,0:0:0:0:
256,192,124957,1,8,0:0:0:0:
256,192,125058,5,0,0:0:0:0:
256,192,125361,1,0,0:0:0:0:
256,192,125462,1,8,0:0:0:0:
256,192,125563,1,8,0:0:0:0:
256,192,125664,1,0,0:0:0:0:
256,192,125967,1,8,0:0:0:0:
256,192,126270,1,0,0:0:0:0:
256,192,126573,1,0,0:0:0:0:
256,192,126674,1,0,0:0:0:0:
256,192,126775,1,8,0:0:0:0:
256,192,126876,1,0,0:0:0:0:
256,192,127179,1,0,0:0:0:0:
256,192,127280,1,0,0:0:0:0:
256,192,127381,1,8,0:0:0:0:
256,192,127482,1,0,0:0:0:0:
256,192,127785,1,0,0:0:0:0:
256,192,127886,1,0,0:0:0:0:
256,192,127987,1,8,0:0:0:0:
256,192,128088,1,8,0:0:0:0:
224,192,128391,1,8,0:0:0:0:
256,192,128694,1,0,0:0:0:0:
256,192,128997,1,0,0:0:0:0:
256,192,129098,1,8,0:0:0:0:
256,192,129199,1,8,0:0:0:0:
256,192,129300,1,0,0:0:0:0:
256,192,129603,1,0,0:0:0:0:
256,192,129704,1,0,0:0:0:0:
256,192,129805,1,8,0:0:0:0:
256,192,129906,1,0,0:0:0:0:
256,192,130209,1,0,0:0:0:0:
256,192,130311,1,0,0:0:0:0:
256,192,130412,1,8,0:0:0:0:
256,192,130513,1,8,0:0:0:0:
256,192,130816,1,8,0:0:0:0:
256,192,131119,5,0,0:0:0:0:
256,192,131725,1,8,0:0:0:0:
256,160,132028,1,0,0:0:0:0:
256,192,132230,1,0,0:0:0:0:
256,192,132331,1,0,0:0:0:0:
256,192,132634,1,0,0:0:0:0:
256,192,132937,1,8,0:0:0:0:
256,192,133139,1,0,0:0:0:0:
256,192,133240,1,8,0:0:0:0:
256,192,133442,1,8,0:0:0:0:
256,192,133543,1,0,0:0:0:0:
256,192,134351,1,0,0:0:0:0:
256,192,134452,1,0,0:0:0:0:
256,192,134654,1,0,0:0:0:0:
256,192,134755,1,8,0:0:0:0:
256,192,135058,1,0,0:0:0:0:
256,192,135361,1,8,0:0:0:0:
256,192,135664,1,8,0:0:0:0:
256,192,135967,1,0,0:0:0:0:
256,192,136573,1,0,0:0:0:0:
256,192,137179,1,8,0:0:0:0:
256,192,137482,1,8,0:0:0:0:
256,192,137785,1,0,0:0:0:0:
256,192,138088,1,0,0:0:0:0:
256,192,138391,1,8,0:0:0:0:
256,192,139199,1,8,0:0:0:0:
256,192,139300,1,0,0:0:0:0:
256,192,139502,1,0,0:0:0:0:
256,192,139603,1,8,0:0:0:0:
256,192,139906,1,0,0:0:0:0:
256,192,140209,1,8,0:0:0:0:
256,192,140311,1,0,0:0:0:0:
256,192,140412,1,0,0:0:0:0:
256,192,140513,1,8,0:0:0:0:
256,192,140816,1,0,0:0:0:0:
256,192,142028,1,8,0:0:0:0:
