osu file format v14

[General]
AudioFilename: audio.mp3
AudioLeadIn: 0
PreviewTime: 68895
Countdown: 1
SampleSet: Normal
StackLeniency: 0.7
Mode: 0
LetterboxInBreaks: 0
WidescreenStoryboard: 0

[Editor]
Bookmarks: 24083,72083,73583,75083,76583,78083,79583,81083,82583,84083,85583,87083,88583,90083,91583,186833
DistanceSpacing: 3
BeatDivisor: 4
GridSize: 16
TimelineZoom: 1

[Metadata]
Title:Indestructible feat. MAX
TitleUnicode:Indestructible feat. MAX
Artist:Not Your Dope
ArtistUnicode:Not Your Dope
Creator:- Apollo -
Version:Indestructible
Source:
Tags:
BeatmapID:1407759
BeatmapSetID:665148

[Difficulty]
HPDrainRate:8
CircleSize:3
OverallDifficulty:7.5
ApproachRate:9
SliderMultiplier:2.2
SliderTickRate:2

[Events]
//Background and Video events
0,0,"modern-background_1_1280x720.jpg",0,0
//Break Periods
2,96283,104858
//Storyboard Layer 0 (Background)
//Storyboard Layer 1 (Fail)
//Storyboard Layer 2 (Pass)
//Storyboard Layer 3 (Foreground)
//Storyboard Sound Samples

[TimingPoints]
83,750,4,1,0,100,1,0
31208,-100,4,1,0,100,0,0
48833,-66.6666666666667,4,1,0,100,0,0
49583,-133.333333333333,4,1,0,100,0,0
53708,-66.6666666666667,4,1,0,100,0,0
54083,-133.333333333333,4,1,0,100,0,0
72083,-50,4,1,0,100,0,0
78083,-100,4,1,0,100,0,0
79583,-50,4,1,0,100,0,0
88583,-100,4,1,0,100,0,0
90833,-50,4,1,0,100,0,0
93083,-133.333333333333,4,1,0,100,0,0
96083,-50,4,1,0,100,0,0
108083,-200,4,1,0,100,0,0
121020,-100,4,1,0,100,0,0
132458,-66.6666666666667,4,1,0,100,0,0
144083,-133.333333333333,4,1,0,100,0,0
149708,-66.6666666666667,4,1,0,100,0,0
150083,-133.333333333333,4,1,0,100,0,0
154583,-66.6666666666667,4,1,0,100,0,0
192083,-50,4,1,0,100,0,0

[HitObjects]
32,208,24083,5,0,0:0:0:0:
104,136,24270,1,0,0:0:0:0:
205,136,24458,1,0,0:0:0:0:
277,208,24645,1,0,0:0:0:0:
277,309,24833,1,0,0:0:0:0:
160,160,25208,6,0,L|216:200,1,55
352,160,25583,2,0,L|304:200,1,55
256,326,25958,1,0,0:0:0:0:
160,160,26333,1,0,0:0:0:0:
352,160,26708,1,0,0:0:0:0:
480,40,27083,5,0,0:0:0:0:
456,168,27270,1,0,0:0:0:0:
326,177,27458,1,0,0:0:0:0:
302,305,27645,1,0,0:0:0:0:
172,314,27833,1,0,0:0:0:0:
40,128,28208,6,0,L|72:72,1,55
64,248,28583,2,0,L|32:304,1,55
156,168,28958,2,0,P|220:128|276:168,1,110
256,72,30083,5,0,0:0:0:0:
370,154,30270,1,0,0:0:0:0:
326,289,30458,1,0,0:0:0:0:
185,289,30645,1,0,0:0:0:0:
141,154,30833,1,0,0:0:0:0:
256,192,31208,6,0,L|256:136,1,55
208,64,31583,1,0,0:0:0:0:
167,139,31770,2,0,L|157:198,1,55
256,304,32332,1,0,0:0:0:0:
341,163,32708,1,0,0:0:0:0:
49,72,33083,5,0,0:0:0:0:
92,166,33270,1,0,0:0:0:0:
176,225,33458,1,0,0:0:0:0:
272,260,33645,1,0,0:0:0:0:
373,243,33833,1,0,0:0:0:0:
256,192,34208,12,0,36083,0:0:0:0:
160,200,36270,5,0,0:0:0:0:
80,128,36458,1,0,0:0:0:0:
182,94,36646,1,0,0:0:0:0:
260,132,36833,6,2,L|232:244,1,110
136,196,37395,1,0,0:0:0:0:
212,128,37583,1,0,0:0:0:0:
288,60,37770,1,0,0:0:0:0:
384,91,37958,1,0,0:0:0:0:
80,128,38333,5,0,0:0:0:0:
152,256,38708,1,0,0:0:0:0:
224,128,39083,1,0,0:0:0:0:
296,256,39458,1,0,0:0:0:0:
368,128,39833,1,0,0:0:0:0:
104,296,40208,5,0,0:0:0:0:
80,220,40395,1,0,0:0:0:0:
97,142,40583,1,0,0:0:0:0:
352,100,40770,1,0,0:0:0:0:
260,341,40958,1,0,0:0:0:0:
256,192,41333,5,0,0:0:0:0:
156,192,41708,1,0,0:0:0:0:
206,105,42083,1,0,0:0:0:0:
256,192,42458,1,0,0:0:0:0:
306,278,42833,1,0,0:0:0:0:
355,191,43208,5,0,0:0:0:0:
256,192,43395,1,0,0:0:0:0:
306,278,43583,1,0,0:0:0:0:
355,191,43770,1,0,0:0:0:0:
256,192,43958,1,0,0:0:0:0:
156,192,44333,5,0,0:0:0:0:
206,278,44708,1,0,0:0:0:0:
256,192,45083,5,0,0:0:0:0:
306,106,45270,1,0,0:0:0:0:
355,192,45458,1,0,0:0:0:0:
256,192,45645,1,0,0:0:0:0:
306,106,45833,1,0,0:0:0:0:
168,108,46208,5,0,0:0:0:0:
96,248,46395,1,0,0:0:0:0:
253,70,46583,1,0,0:0:0:0:
103,118,46770,1,0,0:0:0:0:
340,103,46958,1,0,0:0:0:0:
480,192,47333,5,0,0:0:0:0:
344,32,47708,1,0,0:0:0:0:
343,240,48083,6,0,B|330:153|330:153|209:160,1,165
32,136,48833,6,0,L|32:224,1,82.5000031471254
480,248,49208,2,0,L|480:160,1,82.5000031471254
240,224,49583,6,0,P|256:336|272:224,1,288.750011014939
272,160,51083,2,2,P|256:48|240:160,1,288.750011014939
328,252,52583,2,2,P|397:193|317:142,1,206.250007867813
276,196,53708,6,0,L|200:252,1,82.5000031471254
222,203,54083,6,2,P|154:293|244:225,1,288.750011014939
406,279,55583,2,0,B|382:223|382:223|414:215|446:191|446:191|382:151|406:151|406:151|446:127|478:95,1,288.750011014939
106,279,57083,2,0,B|130:223|130:223|98:215|66:191|66:191|130:151|106:151|106:151|66:127|34:95,1,288.750011014939
216,168,58583,2,0,P|256:56|288:168,1,288.750011014939
296,216,60083,2,0,P|256:328|224:216,1,288.750011014939
186,147,61770,5,0,0:0:0:0:
224,121,61864,1,0,0:0:0:0:
235,161,61958,1,0,0:0:0:0:
244,232,62333,1,0,0:0:0:0:
342,267,62708,1,0,0:0:0:0:
280,184,63083,5,0,0:0:0:0:
76,136,63645,1,0,0:0:0:0:
243,222,64208,1,0,0:0:0:0:
114,104,64770,5,0,0:0:0:0:
133,58,64864,1,0,0:0:0:0:
162,98,64958,1,0,0:0:0:0:
280,168,65333,1,0,0:0:0:0:
143,292,65708,1,0,0:0:0:0:
51,106,66083,5,0,0:0:0:0:
100,288,66458,1,0,0:0:0:0:
149,106,66833,1,0,0:0:0:0:
199,289,67208,1,0,0:0:0:0:
247,106,67583,1,0,0:0:0:0:
297,288,67958,1,0,0:0:0:0:
345,106,68333,1,0,0:0:0:0:
395,288,68708,1,0,0:0:0:0:
364,156,69083,5,0,0:0:0:0:
336,236,69270,1,0,0:0:0:0:
300,159,69458,1,0,0:0:0:0:
272,238,69645,1,0,0:0:0:0:
236,161,69833,1,0,0:0:0:0:
208,240,70020,1,0,0:0:0:0:
172,163,70208,1,0,0:0:0:0:
144,242,70395,1,0,0:0:0:0:
85,59,72083,6,0,P|55:98|72:157,1,110
427,325,72458,2,0,P|457:286|440:227,1,110
277,233,72833,1,0,0:0:0:0:
115,200,73020,1,0,0:0:0:0:
135,119,73114,1,0,0:0:0:0:
189,56,73208,1,0,0:0:0:0:
352,75,73395,1,0,0:0:0:0:
192,264,73583,6,0,P|133:271|107:203,1,110
320,120,73958,6,0,P|379:113|405:181,1,110
469,334,74333,1,0,0:0:0:0:
294,315,74520,1,0,0:0:0:0:
206,307,74614,1,0,0:0:0:0:
152,236,74708,1,0,0:0:0:0:
127,62,74895,5,0,0:0:0:0:
56,204,75083,2,0,P|100:236|148:204,1,110
456,204,75458,2,0,P|412:236|364:204,1,110
234,343,75833,1,0,0:0:0:0:
133,185,76020,1,0,0:0:0:0:
169,98,76114,1,0,0:0:0:0:
261,85,76208,1,0,0:0:0:0:
380,227,76395,5,0,0:0:0:0:
189,256,76583,2,0,P|182:311|247:358,1,110
323,128,76958,2,0,P|330:73|265:26,1,110
103,79,77333,1,0,0:0:0:0:
84,275,77520,1,0,0:0:0:0:
176,310,77614,1,0,0:0:0:0:
269,277,77708,1,0,0:0:0:0:
464,246,77895,1,0,0:0:0:0:
416,164,78083,6,0,B|424:160|424:160|416:156|416:156|424:152|424:152|416:148|416:148|424:144|424:144|416:140|416:140|424:136|424:136|416:132|416:132|424:128|424:128|416:124|416:124|424:120|424:120|416:116|416:116,1,55
96,220,78458,6,0,B|88:224|88:224|96:228|96:228|88:232|88:232|96:236|96:236|88:240|88:240|96:244|96:244|88:248|88:248|96:252|96:252|88:256|88:256|96:260|96:260|88:264|88:264|96:268|96:268,1,55
416,240,78833,2,0,L|356:240,1,55
96,144,79208,2,0,L|156:143,1,55
360,264,79583,6,0,P|400:264|400:192,1,110
152,264,79958,2,0,P|112:264|112:192,1,110
225,38,80333,1,0,0:0:0:0:
433,44,80520,1,0,0:0:0:0:
478,138,80614,1,0,0:0:0:0:
443,236,80708,1,0,0:0:0:0:
237,201,80895,5,0,0:0:0:0:
372,288,81083,2,0,P|344:328|264:320,1,110
140,96,81458,2,0,P|168:56|248:64,1,110
445,38,81833,1,0,0:0:0:0:
477,255,82020,1,0,0:0:0:0:
412,344,82114,1,0,0:0:0:0:
301,346,82208,1,0,0:0:0:0:
156,180,82395,5,0,0:0:0:0:
348,144,82583,2,0,P|310:91|232:96,1,110
164,240,82958,2,0,P|202:293|280:288,1,110
476,186,83333,1,0,0:0:0:0:
299,37,83520,1,0,0:0:0:0:
183,33,83614,1,0,0:0:0:0:
93,106,83708,1,0,0:0:0:0:
229,291,83895,5,0,0:0:0:0:
69,252,84083,2,0,P|53:304|89:296,1,110
443,132,84458,2,0,P|459:80|423:88,1,110
475,321,84833,1,0,0:0:0:0:
235,347,85020,1,0,0:0:0:0:
113,346,85114,1,0,0:0:0:0:
31,255,85208,1,0,0:0:0:0:
98,23,85395,5,0,0:0:0:0:
136,120,85583,2,0,P|175:70|244:72,1,110
376,264,85958,2,0,P|337:314|268:312,1,110
30,242,86333,1,0,0:0:0:0:
177,37,86520,1,0,0:0:0:0:
303,37,86614,1,0,0:0:0:0:
422,78,86708,1,0,0:0:0:0:
479,323,86895,5,0,0:0:0:0:
416,144,87083,2,0,B|376:188|453:234,1,110
96,144,87458,2,0,B|136:188|59:234,1,110
299,39,87833,1,0,0:0:0:0:
479,230,88020,1,0,0:0:0:0:
411,343,88114,1,0,0:0:0:0:
347,227,88208,1,0,0:0:0:0:
146,56,88395,5,0,0:0:0:0:
120,204,88583,2,0,B|132:168|176:168,1,55
392,204,88958,2,0,B|380:168|336:168,1,55
255,35,89333,5,0,0:0:0:0:
255,135,89520,5,0,0:0:0:0:
255,235,89708,5,0,0:0:0:0:
255,335,89895,5,0,0:0:0:0:
120,216,90083,6,0,B|76:217|81:172,1,55
392,216,90458,2,0,B|436:217|431:172,1,55
176,96,90833,6,0,B|184:80|184:80|192:96|192:96|200:80|200:80|208:96|208:96|216:80|216:80|224:96|224:96|232:80,1,110
336,288,91208,2,0,B|328:304|328:304|320:288|320:288|312:304|312:304|304:288|304:288|296:304|296:304|288:288|288:288|280:304,1,110
32,112,91583,6,0,P|101:93|120:20,1,110
480,272,91958,2,0,P|411:291|392:364,1,110
281,104,92333,1,0,0:0:0:0:
165,352,92520,1,0,0:0:0:0:
37,298,92614,1,0,0:0:0:0:
29,160,92708,1,0,0:0:0:0:
298,210,92895,1,0,0:0:0:0:
256,352,93083,2,0,B|288:288|288:288|256:288|224:280|224:280|216:232|256:232|312:232|312:232|280:192,1,288.750011014939
256,192,94583,12,0,96083,0:0:0:0:
256,192,105458,12,0,107895,0:0:0:0:
59,279,108083,6,0,B|59:182|91:103|91:103|167:125|249:168|322:173,1,412.5
155,305,111083,6,0,B|196:243|196:243|131:150|116:29|116:29|169:44|218:79,1,412.5
317,204,114083,6,0,B|374:174|374:174|355:77|445:81|445:81|516:134|436:202|436:202|473:270,1,412.5
195,204,117083,6,0,B|138:174|138:174|157:77|67:81|67:81|-4:134|76:202|76:202|39:270,1,412.5
65,338,120083,1,0,0:0:0:0:
84,127,120645,5,0,0:0:0:0:
185,79,120833,1,0,0:0:0:0:
178,246,121208,6,0,P|251:252|307:168,1,165
324,69,121958,1,0,0:0:0:0:
162,86,122333,5,0,0:0:0:0:
168,144,123458,5,0,0:0:0:0:
312,119,123833,1,0,0:0:0:0:
261,256,124208,1,0,0:0:0:0:
120,139,124958,5,0,0:0:0:0:
136,229,125333,1,0,0:0:0:0:
138,345,125895,5,0,0:0:0:0:
217,272,126083,1,0,0:0:0:0:
297,199,126270,1,0,0:0:0:0:
369,128,126458,2,0,B|431:127|431:127|480:152,1,110
107,98,127958,5,0,0:0:0:0:
116,206,128145,1,0,0:0:0:0:
185,289,128333,1,0,0:0:0:0:
237,92,128708,5,0,0:0:0:0:
331,106,128895,2,0,L|335:242,1,110
256,192,129833,12,0,132083,0:0:0:0:
32,80,132458,6,0,P|112:80|192:112,1,165.000006294251
112,192,133208,6,0,P|112:272|80:352,1,165.000006294251
208,224,133958,6,0,P|288:224|368:192,1,165.000006294251
480,256,134708,6,0,P|480:176|448:96,1,165.000006294251
494,104,135458,6,0,L|448:32,1,82.5000031471254
319,28,135833,1,0,0:0:0:0:
165,141,136208,1,0,0:0:0:0:
185,330,136583,1,0,0:0:0:0:
307,338,136770,6,0,L|352:288,2,41.2500015735627
456,168,137333,1,0,0:0:0:0:
343,14,137708,1,0,0:0:0:0:
154,34,138083,1,0,0:0:0:0:
36,248,138458,6,0,P|110:257|192:224,1,165.000006294251
64,176,139208,2,0,P|73:102|16:16,1,165.000006294251
256,192,139958,2,0,P|247:118|286:34,1,165.000006294251
319,120,140708,6,0,P|393:111|480:144,1,165.000006294251
480,72,141270,1,0,0:0:0:0:
280,35,141458,1,0,0:0:0:0:
435,167,141645,1,0,0:0:0:0:
435,167,141833,1,0,0:0:0:0:
235,130,142021,1,0,0:0:0:0:
390,262,142208,1,0,0:0:0:0:
256,192,142583,12,0,143895,0:0:0:0:
115,177,144083,6,0,P|131:289|284:81,1,618.75002360344
40,304,147083,6,0,B|38:82|38:82|195:117|195:117|176:202|169:246|204:277|226:286,1,536.250020456315
115,172,149708,2,0,L|114:284,1,82.5000031471254
327,313,150083,2,0,B|266:262|241:225|246:154|283:116|327:54,1,288.750011014939
218,68,151583,2,0,B|202:100|186:148|186:148|122:100|26:132,1,247.500009441376
26,61,152895,5,0,0:0:0:0:
90,173,153083,1,0,0:0:0:0:
173,27,153458,1,0,0:0:0:0:
301,119,153833,1,0,0:0:0:0:
429,237,154208,1,0,0:0:0:0:
335,320,154583,2,0,L|80:256,2,247.500009441376
63,146,156083,5,0,0:0:0:0:
120,269,156645,1,0,0:0:0:0:
199,159,157208,1,0,0:0:0:0:
342,270,157770,1,0,0:0:0:0:
287,202,157864,1,0,0:0:0:0:
256,284,157958,1,0,0:0:0:0:
199,159,158333,5,0,0:0:0:0:
335,172,158708,1,0,0:0:0:0:
449,146,159083,5,0,0:0:0:0:
392,269,159645,1,0,0:0:0:0:
313,159,160208,1,0,0:0:0:0:
255,282,160770,1,0,0:0:0:0:
200,214,160864,1,0,0:0:0:0:
169,296,160958,1,0,0:0:0:0:
28,297,161333,5,0,0:0:0:0:
79,87,161708,1,0,0:0:0:0:
130,297,162083,1,0,0:0:0:0:
181,87,162458,1,0,0:0:0:0:
232,297,162833,1,0,0:0:0:0:
283,87,163208,1,0,0:0:0:0:
334,297,163583,1,0,0:0:0:0:
385,87,163958,1,0,0:0:0:0:
436,297,164333,1,0,0:0:0:0:
487,87,164708,1,0,0:0:0:0:
411,228,165083,5,0,0:0:0:0:
370,143,165270,1,0,0:0:0:0:
329,228,165458,1,0,0:0:0:0:
288,143,165645,1,0,0:0:0:0:
247,228,165833,1,0,0:0:0:0:
206,143,166020,1,0,0:0:0:0:
165,228,166208,1,0,0:0:0:0:
124,143,166395,1,0,0:0:0:0:
32,32,168083,6,0,P|86:55|96:112,1,82.5000031471254
480,352,168458,2,0,P|426:329|416:272,1,82.5000031471254
471,43,168833,1,0,0:0:0:0:
224,40,169020,1,0,0:0:0:0:
119,106,169114,1,0,0:0:0:0:
109,229,169208,1,0,0:0:0:0:
323,350,169395,5,0,0:0:0:0:
224,256,169583,2,0,P|180:264|144:304,1,82.5000031471254
288,128,169958,2,0,P|332:120|368:80,1,82.5000031471254
477,293,170333,1,0,0:0:0:0:
236,348,170520,1,0,0:0:0:0:
120,301,170614,1,0,0:0:0:0:
219,225,170708,1,0,0:0:0:0:
59,36,170895,5,0,0:0:0:0:
32,112,171083,2,0,P|80:113|112:80,1,82.5000031471254
480,272,171458,2,0,P|432:271|400:304,1,82.5000031471254
456,60,171833,1,0,0:0:0:0:
209,40,172020,1,0,0:0:0:0:
96,93,172114,1,0,0:0:0:0:
34,200,172208,1,0,0:0:0:0:
263,291,172395,5,0,0:0:0:0:
96,256,172583,2,0,B|67:237|67:237|96:192,1,82.5000031471254
384,176,172958,6,0,B|355:157|355:157|374:108,1,82.5000031471254
254,102,173333,5,0,0:0:0:0:
255,170,173520,5,0,0:0:0:0:
256,238,173708,5,0,0:0:0:0:
256,305,173895,5,0,0:0:0:0:
112,112,174083,6,0,L|32:176,1,82.5000031471254
168,220,174458,1,0,0:0:0:0:
288,192,174645,2,0,L|368:256,1,82.5000031471254
442,268,175020,2,0,L|464:224,2,41.2500015735627
204,246,175395,5,0,0:0:0:0:
64,208,175583,2,0,P|51:158|80:112,1,82.5000031471254
448,208,175958,2,0,P|461:158|432:112,1,82.5000031471254
217,45,176333,1,0,0:0:0:0:
32,208,176520,1,0,0:0:0:0:
146,160,176614,1,0,0:0:0:0:
261,204,176708,1,0,0:0:0:0:
459,350,176895,5,0,0:0:0:0:
295,332,177083,2,0,P|261:298|211:311,1,82.5000031471254
295,52,177458,2,0,P|261:86|211:73,1,82.5000031471254
31,234,177833,1,0,0:0:0:0:
250,346,178020,1,0,0:0:0:0:
373,330,178114,1,0,0:0:0:0:
477,262,178208,1,0,0:0:0:0:
295,95,178395,5,0,0:0:0:0:
112,256,178583,2,0,P|110:205|64:176,1,82.5000031471254
256,91,178958,2,0,P|307:89|336:43,1,82.5000031471254
256,91,179333,5,0,0:0:0:0:
255,162,179520,5,0,0:0:0:0:
254,233,179708,5,0,0:0:0:0:
255,307,179895,5,0,0:0:0:0:
80,96,180083,2,0,P|112:59|160:48,1,82.5000031471254
432,288,180458,2,0,P|400:325|352:336,1,82.5000031471254
121,347,180833,1,0,0:0:0:0:
30,117,181020,1,0,0:0:0:0:
126,38,181114,1,0,0:0:0:0:
245,72,181208,1,0,0:0:0:0:
306,311,181395,5,0,0:0:0:0:
432,208,181583,2,0,P|408:162|432:112,1,82.5000031471254
80,208,181958,2,0,P|104:162|80:112,1,82.5000031471254
327,40,182333,1,0,0:0:0:0:
475,237,182520,1,0,0:0:0:0:
416,346,182614,1,0,0:0:0:0:
299,303,182708,1,0,0:0:0:0:
58,246,182895,5,0,0:0:0:0:
53,73,183083,2,0,P|84:37|144:32,1,82.5000031471254
459,311,183458,2,0,P|428:347|368:352,1,82.5000031471254
147,350,183833,1,0,0:0:0:0:
37,128,184020,1,0,0:0:0:0:
118,34,184114,1,0,0:0:0:0:
238,64,184208,1,0,0:0:0:0:
117,279,184395,5,0,0:0:0:0:
80,112,184583,2,0,L|192:112,1,82.5000031471254
416,240,184958,2,0,L|320:240,1,82.5000031471254
258,60,185333,5,0,0:0:0:0:
257,135,185520,5,0,0:0:0:0:
256,210,185708,5,0,0:0:0:0:
257,286,185895,5,0,0:0:0:0:
213,336,186083,6,0,P|83:322|70:185,1,247.500009441376
129,255,186833,2,0,P|157:287|342:188,1,247.500009441376
266,221,187583,2,0,P|167:217|122:87,1,247.500009441376
65,131,189083,5,0,0:0:0:0:
105,255,189458,1,0,0:0:0:0:
145,131,189833,1,0,0:0:0:0:
185,255,190208,1,0,0:0:0:0:
192,290,190583,5,0,0:0:0:0:
379,206,190770,1,0,0:0:0:0:
176,186,190958,1,0,0:0:0:0:
379,206,191145,1,0,0:0:0:0:
214,88,191333,1,0,0:0:0:0:
379,206,191520,1,0,0:0:0:0:
278,166,191708,1,0,0:0:0:0:
28,88,192083,5,0,0:0:0:0:
379,112,192270,2,0,L|502:86,1,110
153,72,192645,5,0,0:0:0:0:
335,315,192833,2,0,L|471:380,1,110
104,188,193208,5,0,0:0:0:0:
370,42,193395,2,0,L|511:24,2,110
35,209,193958,5,0,0:0:0:0:
396,171,194145,2,0,L|502:112,2,110
220,297,194708,2,0,L|97:385,1,110
42,144,195083,5,0,0:0:0:0:
339,309,195270,2,0,L|458:368,1,110
30,152,195645,5,0,0:0:0:0:
273,121,195833,2,0,L|417:83,1,110
484,33,196208,5,0,0:0:0:0:
80,262,196395,2,0,L|15:371,2,110
216,317,196958,5,0,0:0:0:0:
62,130,197145,2,0,L|9:15,2,110
298,288,197708,5,0,0:0:0:0:
234,199,197895,1,0,0:0:0:0:
342,187,198083,1,0,0:0:0:0:
458,174,198270,2,0,L|458:306,1,110
195,361,198645,5,0,0:0:0:0:
449,182,198833,2,0,L|335:130,1,110
44,43,199208,5,0,0:0:0:0:
271,298,199395,2,0,L|396:271,2,110
20,234,199958,5,0,0:0:0:0:
247,68,200145,2,0,L|361:19,1,110
493,244,200520,2,0,L|476:373,2,110
18,183,201083,5,0,0:0:0:0:
264,33,201270,2,0,L|404:23,1,110
295,313,201645,5,0,0:0:0:0:
18,42,201833,2,0,L|93:142,1,110
61,266,202208,5,0,0:0:0:0:
379,95,202395,2,0,L|476:15,2,110
280,311,202958,5,0,0:0:0:0:
104,153,203145,2,0,L|27:59,2,110
234,211,203708,5,0,0:0:0:0:
337,63,203895,5,0,0:0:0:0:
295,267,204083,5,0,0:0:0:0:
256,192,204645,12,0,216083,0:0:0:0:
