osu file format v14

[General]
AudioFilename: audio.mp3
AudioLeadIn: 0
PreviewTime: 68895
Countdown: 1
SampleSet: Normal
StackLeniency: 0.7
Mode: 0
LetterboxInBreaks: 0
WidescreenStoryboard: 1

[Editor]
Bookmarks: 24083,57083,72083,73583,75083,76583,78083,79208,79583,81083,82583,84083,85583,87083,88583,90083,91583,186833
DistanceSpacing: 0.5
BeatDivisor: 8
GridSize: 32
TimelineZoom: 1

[Metadata]
Title:Indestructible feat. MAX
TitleUnicode:Indestructible feat. MAX
Artist:Not Your Dope
ArtistUnicode:Not Your Dope
Creator:- Apollo -
Version:Hard
Source:
Tags:
BeatmapID:2027192
BeatmapSetID:665148

[Difficulty]
HPDrainRate:8
CircleSize:3
OverallDifficulty:7.5
ApproachRate:9
SliderMultiplier:2.2
SliderTickRate:2

[Events]
//Background and Video events
0,0,"modern-background_1_1280x720.jpg",0,0
//Break Periods
2,96283,104858
//Storyboard Layer 0 (Background)
//Storyboard Layer 1 (Fail)
//Storyboard Layer 2 (Pass)
//Storyboard Layer 3 (Foreground)
//Storyboard Sound Samples

[TimingPoints]
83,750,4,1,0,100,1,0
31208,-100,4,1,0,100,0,0
48833,-66.6666666666667,4,1,0,100,0,0
49583,-133.333333333333,4,1,0,100,0,0
53708,-66.6666666666667,4,1,0,100,0,0
54083,-133.333333333333,4,1,0,100,0,0
72083,-50,4,1,0,100,0,0
78083,-100,4,1,0,100,0,0
79583,-50,4,1,0,100,0,0
90833,-50,4,1,0,100,0,0
93083,-133.333333333333,4,1,0,100,0,0
96083,-50,4,1,0,100,0,0
108083,-200,4,1,0,100,0,0
121020,-100,4,1,0,100,0,0
132458,-66.6666666666667,4,1,0,100,0,0
144083,-133.333333333333,4,1,0,100,0,0
149708,-66.6666666666667,4,1,0,100,0,0
150083,-133.333333333333,4,1,0,100,0,0
154583,-66.6666666666667,4,1,0,100,0,0
192083,-66.6666666666667,4,1,0,100,0,0

[HitObjects]
32,208,24083,5,0,0:0:0:0:
113,144,24270,1,0,0:0:0:0:
32,208,24458,1,0,0:0:0:0:
134,220,24645,1,0,0:0:0:0:
215,156,24833,1,0,0:0:0:0:
176,230,25208,6,0,L|232:270,1,55
290,160,25583,2,0,L|242:200,1,55
294,294,25958,1,0,0:0:0:0:
187,160,26333,1,0,0:0:0:0:
356,134,26708,1,0,0:0:0:0:
294,294,27083,5,0,0:0:0:0:
308,217,27270,1,0,0:0:0:0:
386,211,27458,1,0,0:0:0:0:
400,135,27645,1,0,0:0:0:0:
478,129,27833,1,0,0:0:0:0:
470,108,28208,6,0,L|438:164,1,55
418,301,28583,2,0,L|386:245,1,55
331,159,28958,2,0,P|267:119|211:159,1,110
256,120,30083,5,0,0:0:0:0:
324,169,30270,1,0,0:0:0:0:
298,250,30458,1,0,0:0:0:0:
213,250,30645,1,0,0:0:0:0:
187,169,30833,1,0,0:0:0:0:
256,192,31208,6,0,L|256:136,1,55
208,64,31583,1,0,0:0:0:0:
169,142,31770,2,0,P|153:174|173:210,1,55
235,261,32333,1,0,0:0:0:0:
134,293,32708,1,0,0:0:0:0:
156,191,33083,5,0,0:0:0:0:
186,126,33270,1,0,0:0:0:0:
281,153,33458,1,0,0:0:0:0:
324,65,33645,1,0,0:0:0:0:
394,77,33833,1,0,0:0:0:0:
256,192,34208,12,0,36083,0:0:0:0:
160,200,36270,5,0,0:0:0:0:
80,128,36458,1,0,0:0:0:0:
182,94,36646,1,0,0:0:0:0:
284,60,36833,2,0,L|275:180,1,110
390,138,37395,1,0,0:0:0:0:
314,206,37583,1,0,0:0:0:0:
238,274,37770,1,0,0:0:0:0:
142,243,37958,1,0,0:0:0:0:
26,170,38333,5,0,0:0:0:0:
98,42,38708,1,0,0:0:0:0:
170,170,39083,1,0,0:0:0:0:
242,298,39458,1,0,0:0:0:0:
314,170,39833,1,0,0:0:0:0:
468,302,40208,5,0,0:0:0:0:
492,226,40395,1,0,0:0:0:0:
475,148,40583,1,0,0:0:0:0:
357,104,40770,1,0,0:0:0:0:
377,229,40958,1,0,0:0:0:0:
256,192,41333,5,0,0:0:0:0:
156,192,41708,1,0,0:0:0:0:
206,105,42083,1,0,0:0:0:0:
256,192,42458,1,0,0:0:0:0:
306,278,42833,1,0,0:0:0:0:
355,191,43208,5,0,0:0:0:0:
256,192,43395,1,0,0:0:0:0:
306,278,43583,1,0,0:0:0:0:
355,191,43770,1,0,0:0:0:0:
256,192,43958,1,0,0:0:0:0:
156,192,44333,5,0,0:0:0:0:
206,278,44708,1,0,0:0:0:0:
256,192,45083,5,0,0:0:0:0:
306,106,45270,1,0,0:0:0:0:
355,192,45458,1,0,0:0:0:0:
256,192,45645,1,0,0:0:0:0:
306,106,45833,1,0,0:0:0:0:
448,114,46208,5,0,0:0:0:0:
478,232,46395,1,0,0:0:0:0:
350,94,46583,1,0,0:0:0:0:
427,188,46770,1,0,0:0:0:0:
255,134,46958,1,0,0:0:0:0:
32,176,47333,5,0,0:0:0:0:
108,146,47708,1,0,0:0:0:0:
153,69,48083,6,0,B|166:156|166:156|287:149,1,165
176,220,48833,6,0,L|176:308,1,82.5000031471254
336,164,49208,6,0,L|336:76,1,82.5000031471254
240,224,49583,6,0,P|256:336|272:224,1,288.750011014939
272,160,51083,2,2,P|256:48|240:160,1,288.750011014939
231,218,52583,2,2,P|300:277|220:328,1,206.250007867813
154,316,53708,6,0,L|230:260,1,82.5000031471254
222,203,54083,6,2,P|154:293|244:225,1,288.750011014939
318,253,55583,2,0,B|294:197|294:197|326:189|358:165|358:165|294:125|318:125|318:125|358:101|390:69,1,288.750011014939
194,253,57083,2,0,B|218:197|218:197|186:189|154:165|154:165|218:125|194:125|194:125|154:101|122:69,1,288.750011014939
216,168,58583,2,0,P|256:56|288:168,1,288.750011014939
296,216,60083,2,0,P|256:328|224:216,1,288.750011014939
176,152,61770,5,0,0:0:0:0:
176,152,61864,1,0,0:0:0:0:
176,152,61958,1,0,0:0:0:0:
244,232,62333,1,0,0:0:0:0:
342,267,62708,1,0,0:0:0:0:
280,184,63083,5,0,0:0:0:0:
274,65,63645,1,0,0:0:0:0:
173,129,64208,1,0,0:0:0:0:
104,112,64770,5,0,0:0:0:0:
104,112,64864,1,0,0:0:0:0:
104,112,64958,1,0,0:0:0:0:
280,168,65333,1,0,0:0:0:0:
143,292,65708,1,0,0:0:0:0:
51,106,66083,5,0,0:0:0:0:
100,288,66458,1,0,0:0:0:0:
149,106,66833,1,0,0:0:0:0:
199,289,67208,1,0,0:0:0:0:
247,106,67583,1,0,0:0:0:0:
297,288,67958,1,0,0:0:0:0:
345,106,68333,1,0,0:0:0:0:
395,288,68708,1,0,0:0:0:0:
364,156,69083,5,0,0:0:0:0:
336,236,69270,1,0,0:0:0:0:
300,159,69458,1,0,0:0:0:0:
272,238,69645,1,0,0:0:0:0:
236,161,69833,1,0,0:0:0:0:
208,240,70020,1,0,0:0:0:0:
172,163,70208,1,0,0:0:0:0:
144,242,70395,1,0,0:0:0:0:
182,123,72083,6,0,P|152:162|169:221,1,110
330,261,72458,2,0,P|360:222|343:163,1,110
266,80,72833,1,0,0:0:0:0:
231,192,73020,1,0,0:0:0:0:
231,192,73114,1,0,0:0:0:0:
231,192,73208,1,0,0:0:0:0:
282,274,73395,5,0,0:0:0:0:
185,277,73583,2,0,P|138:245|126:189,1,110
327,107,73958,2,0,P|374:139|386:195,1,110
332,277,74333,1,0,0:0:0:0:
256,177,74520,1,0,0:0:0:0:
256,177,74614,1,0,0:0:0:0:
256,177,74708,1,0,0:0:0:0:
208,293,74895,5,0,0:0:0:0:
142,245,75083,2,0,P|103:195|123:139,1,110
370,139,75458,2,0,P|409:188|389:245,1,110
327,291,75833,1,0,0:0:0:0:
254,218,76020,1,0,0:0:0:0:
254,218,76114,1,0,0:0:0:0:
254,218,76208,1,0,0:0:0:0:
228,318,76395,5,0,0:0:0:0:
203,238,76583,2,0,B|141:192|141:192|196:143,1,110
309,238,76958,2,0,B|371:192|371:192|316:143,1,110
255,111,77333,1,0,0:0:0:0:
255,160,77520,1,0,0:0:0:0:
255,209,77708,1,0,0:0:0:0:
255,258,77895,1,0,0:0:0:0:
158,216,78083,6,0,B|151:167|151:167|139:168,1,55
354,216,78458,2,0,B|361:167|361:167|373:168,1,55
380,113,78833,2,0,L|314:72,1,55
132,113,79208,2,0,L|198:72,1,55
198,163,79583,6,0,P|185:222|216:278,1,110
314,163,79958,6,0,P|327:222|296:278,1,110
256,336,80333,1,0,0:0:0:0:
255,218,80520,1,0,0:0:0:0:
255,218,80614,1,0,0:0:0:0:
255,218,80708,1,0,0:0:0:0:
251,109,80895,5,0,0:0:0:0:
91,208,81083,2,0,P|138:166|191:164,1,110
421,176,81458,2,0,P|374:218|321:220,1,110
307,65,81833,1,0,0:0:0:0:
183,161,82020,1,0,0:0:0:0:
183,161,82114,1,0,0:0:0:0:
183,161,82208,1,0,0:0:0:0:
328,219,82395,5,0,0:0:0:0:
122,265,82583,2,0,P|177:275|222:335,1,110
390,119,82958,2,0,P|335:109|290:49,1,110
257,127,83333,1,0,0:0:0:0:
256,171,83520,1,0,0:0:0:0:
256,218,83708,1,0,0:0:0:0:
256,261,83895,1,0,0:0:0:0:
92,243,84083,6,0,P|119:193|106:129,1,110
420,243,84458,6,0,P|393:193|406:129,1,110
304,198,84833,1,0,0:0:0:0:
209,109,85020,1,0,0:0:0:0:
209,109,85114,1,0,0:0:0:0:
209,109,85208,1,0,0:0:0:0:
333,71,85395,5,0,0:0:0:0:
363,143,85583,2,0,P|391:207|386:270,1,110
202,204,85958,2,0,P|174:268|179:331,1,110
307,323,86333,1,0,0:0:0:0:
253,199,86520,1,0,0:0:0:0:
253,199,86614,1,0,0:0:0:0:
253,199,86708,1,0,0:0:0:0:
199,75,86895,5,0,0:0:0:0:
139,132,87083,2,0,P|100:173|114:229,1,110
372,195,87458,2,0,P|411:236|397:292,1,110
315,346,87833,1,0,0:0:0:0:
213,222,88020,1,0,0:0:0:0:
213,222,88114,1,0,0:0:0:0:
214,227,88208,1,0,0:0:0:0:
372,195,88395,5,0,0:0:0:0:
305,147,88583,2,0,P|348:114|424:136,1,110
207,147,88958,2,0,P|164:114|88:136,1,110
256,94,89333,1,0,0:0:0:0:
256,144,89520,1,0,0:0:0:0:
256,182,89708,1,0,0:0:0:0:
256,232,89895,1,0,0:0:0:0:
183,317,90083,6,0,P|121:316|83:278,1,110
329,317,90458,2,0,P|391:316|429:278,1,110
146,235,90833,2,0,P|204:206|200:166,1,110
366,235,91208,2,0,P|308:206|312:166,1,110
129,159,91583,6,0,P|163:101|231:96,1,110
383,159,91958,2,0,P|349:101|281:96,1,110
254,146,92333,1,0,0:0:0:0:
261,231,92520,1,0,0:0:0:0:
261,231,92614,1,0,0:0:0:0:
261,231,92708,1,0,0:0:0:0:
256,301,92895,1,0,0:0:0:0:
256,352,93083,6,0,B|288:288|288:288|256:288|224:280|224:280|216:232|256:232|312:232|312:232|280:192,1,288.750011014939
256,192,94583,12,0,96083,0:0:0:0:
256,192,105458,12,0,107895,0:0:0:0:
174,229,108083,6,0,B|158:155|158:155|211:142|244:126|271:76|271:76|331:100|343:167|343:167|403:117,1,412.5
348,52,111083,6,0,B|307:114|307:114|351:178|387:328|387:328|302:245,1,412.5
323,168,114083,6,0,B|380:138|380:138|361:41|451:45|451:45|522:98|442:166|442:166|479:234,1,412.5
384,223,117083,6,0,B|327:253|327:253|346:350|256:346|256:346|185:293|265:225|265:225|228:157,1,412.5
172,119,120083,1,0,0:0:0:0:
84,127,120645,5,0,0:0:0:0:
185,79,120833,1,0,0:0:0:0:
178,246,121208,6,0,P|251:252|307:168,1,165
324,69,121958,1,0,0:0:0:0:
162,86,122333,5,0,0:0:0:0:
168,144,123458,5,0,0:0:0:0:
312,119,123833,1,0,0:0:0:0:
261,256,124208,1,0,0:0:0:0:
120,139,124958,5,0,0:0:0:0:
136,229,125333,1,0,0:0:0:0:
198,284,125895,5,0,0:0:0:0:
255,232,126083,1,0,0:0:0:0:
312,180,126270,1,0,0:0:0:0:
369,128,126458,2,0,B|431:127|431:127|480:152,1,110
107,98,127958,5,0,0:0:0:0:
116,206,128145,1,0,0:0:0:0:
185,289,128333,1,0,0:0:0:0:
225,195,128708,5,0,0:0:0:0:
306,181,128895,2,0,L|310:45,1,110
256,192,129833,12,0,132083,0:0:0:0:
32,80,132458,6,0,P|112:80|192:112,1,165.000006294251
112,192,133208,6,0,P|112:272|80:352,1,165.000006294251
208,224,133958,6,0,P|288:224|368:192,1,165.000006294251
480,256,134708,6,0,P|480:176|448:96,1,165.000006294251
494,104,135458,6,0,L|448:32,1,82.5000031471254
319,28,135833,1,0,0:0:0:0:
165,141,136208,1,0,0:0:0:0:
185,330,136583,1,0,0:0:0:0:
307,338,136770,6,0,L|352:288,2,41.2500015735627
456,168,137333,1,0,0:0:0:0:
343,14,137708,1,0,0:0:0:0:
154,34,138083,1,0,0:0:0:0:
36,248,138458,6,0,P|110:257|192:224,1,165.000006294251
64,176,139208,2,0,P|73:102|16:16,1,165.000006294251
256,192,139958,2,0,P|247:118|286:34,1,165.000006294251
319,120,140708,6,0,P|393:111|480:144,1,165.000006294251
413,194,141270,1,0,0:0:0:0:
293,171,141458,1,0,0:0:0:0:
386,251,141645,1,0,0:0:0:0:
386,251,141833,1,0,0:0:0:0:
266,228,142021,1,0,0:0:0:0:
359,308,142208,1,0,0:0:0:0:
256,192,142583,12,0,143895,0:0:0:0:
95,176,144083,6,0,P|111:288|264:80,1,618.75002360344
212,116,147083,2,0,B|73:137|70:257|70:257|147:272|147:272|189:235|189:235|265:258|374:232,1,536.250020456315
291,191,149708,2,0,L|283:304,1,82.5000031471254
232,318,150083,2,0,B|199:199|75:157|75:157|123:110,1,288.750011014939
196,109,151583,2,0,B|212:141|228:189|228:189|292:141|388:173,1,247.500009441376
459,122,152895,5,0,0:0:0:0:
395,234,153083,1,0,0:0:0:0:
331,122,153458,1,0,0:0:0:0:
219,122,153833,1,0,0:0:0:0:
275,224,154208,1,0,0:0:0:0:
335,320,154583,2,0,L|80:256,2,247.500009441376
63,146,156083,5,0,0:0:0:0:
120,269,156645,1,0,0:0:0:0:
199,159,157208,1,0,0:0:0:0:
256,282,157770,1,0,0:0:0:0:
256,282,157864,1,0,0:0:0:0:
256,282,157958,1,0,0:0:0:0:
199,159,158333,5,0,0:0:0:0:
335,172,158708,1,0,0:0:0:0:
449,146,159083,5,0,0:0:0:0:
392,269,159645,1,0,0:0:0:0:
313,159,160208,1,0,0:0:0:0:
256,282,160770,1,0,0:0:0:0:
256,282,160864,1,0,0:0:0:0:
256,282,160958,1,0,0:0:0:0:
26,256,161333,5,0,0:0:0:0:
77,129,161708,1,0,0:0:0:0:
128,256,162083,1,0,0:0:0:0:
179,129,162458,1,0,0:0:0:0:
230,256,162833,1,0,0:0:0:0:
281,129,163208,1,0,0:0:0:0:
332,256,163583,1,0,0:0:0:0:
383,129,163958,1,0,0:0:0:0:
434,256,164333,1,0,0:0:0:0:
485,129,164708,1,0,0:0:0:0:
411,228,165083,5,0,0:0:0:0:
370,143,165270,1,0,0:0:0:0:
329,228,165458,1,0,0:0:0:0:
288,143,165645,1,0,0:0:0:0:
247,228,165833,1,0,0:0:0:0:
206,143,166020,1,0,0:0:0:0:
165,228,166208,1,0,0:0:0:0:
124,143,166395,1,0,0:0:0:0:
127,113,168083,6,0,P|181:136|191:193,1,82.5000031471254
373,275,168458,6,0,P|319:252|309:195,1,82.5000031471254
379,187,168833,1,0,0:0:0:0:
291,118,169020,1,0,0:0:0:0:
291,118,169114,1,0,0:0:0:0:
291,118,169208,1,0,0:0:0:0:
194,157,169395,5,0,0:0:0:0:
224,256,169583,2,0,P|180:264|144:304,1,82.5000031471254
288,128,169958,2,0,P|332:120|368:80,1,82.5000031471254
417,158,170333,1,0,0:0:0:0:
306,236,170520,1,0,0:0:0:0:
306,236,170614,1,0,0:0:0:0:
306,236,170708,1,0,0:0:0:0:
195,161,170895,5,0,0:0:0:0:
53,86,171083,2,0,P|101:85|133:118,1,82.5000031471254
308,301,171458,2,0,P|356:300|388:333,1,82.5000031471254
402,219,171833,1,0,0:0:0:0:
349,130,172020,1,0,0:0:0:0:
349,130,172114,1,0,0:0:0:0:
349,130,172208,1,0,0:0:0:0:
291,217,172395,5,0,0:0:0:0:
194,239,172583,2,0,B|165:220|165:220|194:175,1,82.5000031471254
384,176,172958,6,0,B|355:157|355:157|374:108,1,82.5000031471254
254,102,173333,5,0,0:0:0:0:
255,170,173520,5,0,0:0:0:0:
256,238,173708,5,0,0:0:0:0:
256,305,173895,5,0,0:0:0:0:
112,112,174083,6,0,L|32:176,1,82.5000031471254
168,220,174458,1,0,0:0:0:0:
288,192,174645,2,0,L|368:256,1,82.5000031471254
442,268,175020,2,0,L|464:224,2,41.2500015735627
204,246,175395,5,0,0:0:0:0:
135,202,175583,2,0,P|122:152|151:106,1,82.5000031471254
377,202,175958,2,0,P|390:152|361:106,1,82.5000031471254
277,151,176333,1,0,0:0:0:0:
215,218,176520,1,0,0:0:0:0:
215,218,176614,1,0,0:0:0:0:
215,218,176708,1,0,0:0:0:0:
187,130,176895,5,0,0:0:0:0:
300,279,177083,2,0,P|266:245|216:258,1,82.5000031471254
296,111,177458,2,0,P|262:145|212:132,1,82.5000031471254
205,262,177833,1,0,0:0:0:0:
326,253,178020,1,0,0:0:0:0:
326,253,178114,1,0,0:0:0:0:
326,253,178208,1,0,0:0:0:0:
257,153,178395,5,0,0:0:0:0:
112,256,178583,2,0,P|110:205|64:176,1,82.5000031471254
256,91,178958,2,0,P|307:89|336:43,1,82.5000031471254
256,91,179333,5,0,0:0:0:0:
255,162,179520,5,0,0:0:0:0:
254,233,179708,5,0,0:0:0:0:
255,307,179895,5,0,0:0:0:0:
142,146,180083,2,0,P|174:109|222:98,1,82.5000031471254
370,238,180458,2,0,P|338:275|290:286,1,82.5000031471254
188,338,180833,1,0,0:0:0:0:
135,227,181020,1,0,0:0:0:0:
135,227,181114,1,0,0:0:0:0:
135,227,181208,1,0,0:0:0:0:
223,129,181395,5,0,0:0:0:0:
351,210,181583,2,0,P|327:164|351:114,1,82.5000031471254
161,210,181958,2,0,P|185:164|161:114,1,82.5000031471254
265,64,182333,1,0,0:0:0:0:
264,173,182520,1,0,0:0:0:0:
264,173,182614,1,0,0:0:0:0:
264,173,182708,1,0,0:0:0:0:
160,227,182895,5,0,0:0:0:0:
142,144,183083,2,0,P|173:108|233:103,1,82.5000031471254
370,240,183458,2,0,P|339:276|279:281,1,82.5000031471254
207,317,183833,1,0,0:0:0:0:
152,205,184020,1,0,0:0:0:0:
152,205,184114,1,0,0:0:0:0:
152,205,184208,1,0,0:0:0:0:
35,220,184395,1,0,0:0:0:0:
80,112,184583,2,0,L|192:112,1,82.5000031471254
416,240,184958,2,0,L|320:240,1,82.5000031471254
258,60,185333,5,0,0:0:0:0:
257,135,185520,5,0,0:0:0:0:
256,210,185708,5,0,0:0:0:0:
257,286,185895,5,0,0:0:0:0:
213,336,186083,6,0,P|83:322|70:185,1,247.500009441376
129,255,186833,2,0,P|157:287|342:188,1,247.500009441376
266,221,187583,2,0,P|167:217|122:87,1,247.500009441376
65,131,189083,5,0,0:0:0:0:
105,255,189458,1,0,0:0:0:0:
145,131,189833,1,0,0:0:0:0:
185,255,190208,1,0,0:0:0:0:
232,187,190583,5,0,0:0:0:0:
260,216,190770,1,0,0:0:0:0:
288,246,190958,1,0,0:0:0:0:
318,218,191145,1,0,0:0:0:0:
345,186,191333,1,0,0:0:0:0:
318,154,191520,1,0,0:0:0:0:
210,169,191708,1,0,0:0:0:0:
44,125,192083,5,0,0:0:0:0:
151,102,192270,2,0,L|257:75,1,82.5000031471254
165,212,192645,5,0,0:0:0:0:
261,271,192833,2,0,L|346:325,1,82.5000031471254
304,166,193208,5,0,0:0:0:0:
388,115,193395,2,0,L|469:67,2,82.5000031471254
269,97,193958,5,0,0:0:0:0:
154,127,194145,2,0,L|103:44,2,82.5000031471254
105,235,194708,2,0,L|211:235,1,82.5000031471254
247,166,195083,5,0,0:0:0:0:
319,215,195270,2,0,L|419:263,1,82.5000031471254
448,155,195645,5,0,0:0:0:0:
352,108,195833,2,0,L|339:15,1,82.5000031471254
453,51,196208,5,0,0:0:0:0:
360,193,196395,2,0,L|302:293,2,82.5000031471254
338,85,196958,5,0,0:0:0:0:
243,116,197145,2,0,L|137:127,2,82.5000031471254
312,173,197708,5,0,0:0:0:0:
248,262,197895,1,0,0:0:0:0:
356,274,198083,1,0,0:0:0:0:
461,235,198270,2,0,L|462:352,1,82.5000031471254
358,233,198645,5,0,0:0:0:0:
383,127,198833,2,0,L|280:84,1,82.5000031471254
197,83,199208,5,0,0:0:0:0:
182,192,199395,2,0,L|294:218,2,82.5000031471254
70,167,199958,5,0,0:0:0:0:
140,102,200145,2,0,L|240:73,1,82.5000031471254
309,134,200520,2,0,L|296:254,2,82.5000031471254
259,49,201083,5,0,0:0:0:0:
163,37,201270,2,0,L|81:61,1,82.5000031471254
109,147,201645,5,0,0:0:0:0:
159,238,201833,2,0,L|236:318,1,82.5000031471254
315,266,202208,5,0,0:0:0:0:
387,192,202395,2,0,L|472:116,2,82.5000031471254
388,291,202958,5,0,0:0:0:0:
301,196,203145,2,0,L|226:104,2,82.5000031471254
351,127,203708,5,0,0:0:0:0:
454,38,203895,5,0,0:0:0:0:
412,160,204083,5,0,0:0:0:0:
256,192,204645,12,0,216083,0:0:0:0:
