osu file format v14

[General]
AudioFilename: audio.ogg
AudioLeadIn: 0
PreviewTime: 154528
Countdown: 0
SampleSet: Soft
StackLeniency: 0.7
Mode: 3
LetterboxInBreaks: 0
SpecialStyle: 0
WidescreenStoryboard: 0

[Editor]
DistanceSpacing: 1.4
BeatDivisor: 4
GridSize: 8
TimelineZoom: 1.3

[Metadata]
Title:Happy Birthday
TitleUnicode:Happy Birthday
Artist:Not Nearly
ArtistUnicode:Not Nearly
Creator:Crisper
Version:Ambivalence
Source:
Tags:NN math rock post-hardcore progressive metal breakdown emo coba johnny tanner ben cory spotts odd time signatures polyrhythms english male vocals ln long notes technical releases future damage gold season marathon
BeatmapID:3679235
BeatmapSetID:1795028

[Difficulty]
HPDrainRate:8
CircleSize:4
OverallDifficulty:8
ApproachRate:5
SliderMultiplier:1.4
SliderTickRate:1

[Events]
//Background and Video events
0,0,"bg.jpg",0,0
//Break Periods
//Storyboard Layer 0 (Background)
//Storyboard Layer 1 (Fail)
//Storyboard Layer 2 (Pass)
//Storyboard Layer 3 (Foreground)
//Storyboard Layer 4 (Overlay)
//Storyboard Sound Samples

[TimingPoints]
1330,375,5,2,1,31,1,0
21955,375,3,2,1,31,1,0
42205,-100,3,2,1,31,0,1
69205,375,5,2,1,31,1,0
97330,375,6,2,1,31,1,0
99580,375,7,2,1,31,1,0
102205,375,4,2,1,31,1,0
103705,375,6,2,1,31,1,0
106705,272.727272727273,4,2,1,31,1,0
106705,-138.888888888889,4,2,1,31,0,0
109976,272.727272727273,5,2,1,31,1,0
109976,-136.986301369863,5,2,1,31,0,0
111339,272.727272727273,4,2,1,31,1,0
111339,-138.888888888889,4,2,1,31,0,0
116520,272.727272727273,4,2,1,31,1,0
116520,-138.888888888889,4,2,1,31,0,0
119792,272.727272727273,5,2,1,31,1,0
119792,-138.888888888889,5,2,1,31,0,0
121155,272.727272727273,4,2,1,31,1,0
121155,-138.888888888889,4,2,1,31,0,0
126336,272.727272727273,7,2,1,31,1,0
126336,-138.888888888889,7,2,1,31,0,0
132063,272.727272727273,8,2,1,31,1,0
132063,-138.888888888889,8,2,1,31,0,0
134244,272.727272727273,3,2,1,31,1,0
134244,-138.888888888889,3,2,1,31,0,0
139153,375,3,2,1,31,1,0
139153,-100,3,2,1,31,0,0
148153,375,7,2,1,31,1,0
155278,375,5,2,1,31,1,1
168403,375,3,2,1,31,1,1
170653,-100,3,2,1,31,0,0

[HitObjects]
448,192,1330,5,0,0:0:0:0:
192,192,1330,128,0,1517:0:0:0:0:
64,192,1330,128,0,1611:0:0:0:0:
448,192,1517,5,0,0:0:0:0:
320,192,1517,1,0,0:0:0:0:
192,192,1611,1,0,0:0:0:0:
320,192,1705,128,0,1892:0:0:0:0:
448,192,1705,128,0,2080:0:0:0:0:
192,192,1892,128,0,2080:0:0:0:0:
64,192,1892,1,0,0:0:0:0:
64,192,2080,1,0,0:0:0:0:
320,192,2080,1,0,0:0:0:0:
320,192,2267,1,0,0:0:0:0:
448,192,2267,1,0,0:0:0:0:
192,192,2361,1,0,0:0:0:0:
64,192,2455,1,0,0:0:0:0:
320,192,2455,128,0,2830:0:0:0:0:
448,192,2455,128,0,2642:0:0:0:0:
448,192,2830,1,0,0:0:0:0:
192,192,2830,128,0,3205:0:0:0:0:
64,192,2830,128,0,3017:0:0:0:0:
64,192,3205,1,0,0:0:0:0:
448,192,3205,128,0,3486:0:0:0:0:
320,192,3205,128,0,3392:0:0:0:0:
64,192,3392,1,0,0:0:0:0:
192,192,3392,1,0,0:0:0:0:
320,192,3486,1,0,0:0:0:0:
192,192,3580,128,0,3767:0:0:0:0:
64,192,3580,128,0,3955:0:0:0:0:
320,192,3767,128,0,3955:0:0:0:0:
448,192,3767,1,0,0:0:0:0:
448,192,3955,1,0,0:0:0:0:
192,192,3955,1,0,0:0:0:0:
192,192,4142,1,0,0:0:0:0:
64,192,4142,1,0,0:0:0:0:
320,192,4236,1,0,0:0:0:0:
64,192,4330,1,0,0:0:0:0:
192,192,4330,1,0,0:0:0:0:
448,192,4330,1,0,0:0:0:0:
64,192,4517,1,0,0:0:0:0:
320,192,4517,1,0,0:0:0:0:
448,192,4517,1,0,0:0:0:0:
320,192,4705,128,0,5080:0:0:0:0:
192,192,4705,128,0,4892:0:0:0:0:
448,192,4705,1,0,0:0:0:0:
64,192,4892,1,0,0:0:0:0:
64,192,5080,128,0,5267:0:0:0:0:
192,192,5080,128,0,5361:0:0:0:0:
448,192,5080,1,0,0:0:0:0:
320,192,5267,1,0,0:0:0:0:
448,192,5267,1,0,0:0:0:0:
64,192,5361,1,0,0:0:0:0:
320,192,5455,128,0,5830:0:0:0:0:
448,192,5455,128,0,5642:0:0:0:0:
64,192,5642,1,0,0:0:0:0:
192,192,5642,128,0,5830:0:0:0:0:
64,192,5830,1,0,0:0:0:0:
448,192,5830,1,0,0:0:0:0:
448,192,6017,1,0,0:0:0:0:
320,192,6017,1,0,0:0:0:0:
192,192,6111,1,0,0:0:0:0:
448,192,6205,128,0,6392:0:0:0:0:
320,192,6205,128,0,6580:0:0:0:0:
64,192,6205,1,0,0:0:0:0:
192,192,6580,128,0,6955:0:0:0:0:
64,192,6580,128,0,6767:0:0:0:0:
448,192,6580,1,0,0:0:0:0:
448,192,6955,128,0,7142:0:0:0:0:
320,192,6955,128,0,7236:0:0:0:0:
64,192,6955,1,0,0:0:0:0:
192,192,7142,1,0,0:0:0:0:
64,192,7142,1,0,0:0:0:0:
448,192,7236,1,0,0:0:0:0:
192,192,7330,128,0,7705:0:0:0:0:
64,192,7330,128,0,7517:0:0:0:0:
448,192,7517,1,0,0:0:0:0:
320,192,7517,128,0,7705:0:0:0:0:
448,192,7705,1,0,0:0:0:0:
64,192,7705,1,0,0:0:0:0:
64,192,7892,1,0,0:0:0:0:
192,192,7892,1,0,0:0:0:0:
320,192,7986,1,0,0:0:0:0:
64,192,8080,128,0,8173:0:0:0:0:
448,192,8080,128,0,8173:0:0:0:0:
192,192,8080,128,0,8173:0:0:0:0:
320,192,8267,1,0,0:0:0:0:
192,192,8267,1,0,0:0:0:0:
64,192,8455,128,0,8548:0:0:0:0:
192,192,8455,128,0,8548:0:0:0:0:
448,192,8455,128,0,8548:0:0:0:0:
64,192,8642,1,0,0:0:0:0:
320,192,8642,1,0,0:0:0:0:
320,192,8830,128,0,9017:0:0:0:0:
448,192,8830,128,0,9111:0:0:0:0:
192,192,8830,128,0,8923:0:0:0:0:
192,192,9017,1,0,0:0:0:0:
64,192,9017,1,0,0:0:0:0:
320,192,9111,1,0,0:0:0:0:
192,192,9205,128,0,9392:0:0:0:0:
64,192,9205,1,0,0:0:0:0:
320,192,9392,128,0,9580:0:0:0:0:
448,192,9392,128,0,9580:0:0:0:0:
192,192,9580,1,0,0:0:0:0:
64,192,9580,1,0,0:0:0:0:
64,192,9767,128,0,10142:0:0:0:0:
320,192,9767,128,0,9861:0:0:0:0:
448,192,9767,128,0,9861:0:0:0:0:
192,192,9861,1,0,0:0:0:0:
320,192,9955,1,0,0:0:0:0:
448,192,9955,1,0,0:0:0:0:
192,192,10142,1,0,0:0:0:0:
448,192,10142,1,0,0:0:0:0:
192,192,10330,128,0,10517:0:0:0:0:
64,192,10330,128,0,10517:0:0:0:0:
320,192,10517,1,0,0:0:0:0:
448,192,10517,1,0,0:0:0:0:
64,192,10705,128,0,10892:0:0:0:0:
192,192,10705,128,0,10892:0:0:0:0:
448,192,10705,1,0,0:0:0:0:
320,192,10892,1,0,0:0:0:0:
448,192,10892,1,0,0:0:0:0:
64,192,10986,1,0,0:0:0:0:
320,192,11080,128,0,11455:0:0:0:0:
192,192,11080,128,0,11267:0:0:0:0:
448,192,11267,128,0,11455:0:0:0:0:
64,192,11267,1,0,0:0:0:0:
192,192,11455,1,0,0:0:0:0:
64,192,11455,1,0,0:0:0:0:
320,192,11642,128,0,11736:0:0:0:0:
448,192,11642,1,0,0:0:0:0:
192,192,11736,1,0,0:0:0:0:
320,192,11830,128,0,12017:0:0:0:0:
448,192,11830,128,0,12017:0:0:0:0:
192,192,12017,128,0,12205:0:0:0:0:
64,192,12017,128,0,12392:0:0:0:0:
448,192,12205,1,0,0:0:0:0:
320,192,12205,1,0,0:0:0:0:
448,192,12392,1,0,0:0:0:0:
192,192,12392,1,0,0:0:0:0:
64,192,12580,128,0,12861:0:0:0:0:
192,192,12580,128,0,12767:0:0:0:0:
320,192,12580,128,0,12673:0:0:0:0:
448,192,12767,1,0,0:0:0:0:
320,192,12767,1,0,0:0:0:0:
192,192,12861,1,0,0:0:0:0:
64,192,12955,128,0,13048:0:0:0:0:
448,192,12955,1,0,0:0:0:0:
320,192,13142,1,0,0:0:0:0:
64,192,13142,128,0,13236:0:0:0:0:
448,192,13330,128,0,13423:0:0:0:0:
192,192,13330,1,0,0:0:0:0:
448,192,13517,128,0,13611:0:0:0:0:
64,192,13517,1,0,0:0:0:0:
320,192,13611,1,0,0:0:0:0:
192,192,13705,128,0,13892:0:0:0:0:
448,192,13705,1,0,0:0:0:0:
64,192,13705,128,0,14080:0:0:0:0:
320,192,13892,1,0,0:0:0:0:
448,192,13892,1,0,0:0:0:0:
320,192,14080,128,0,14267:0:0:0:0:
192,192,14080,1,0,0:0:0:0:
192,192,14267,128,0,14455:0:0:0:0:
64,192,14455,1,0,0:0:0:0:
448,192,14455,128,0,14642:0:0:0:0:
320,192,14455,128,0,14642:0:0:0:0:
192,192,14642,1,0,0:0:0:0:
64,192,14642,1,0,0:0:0:0:
320,192,14736,1,0,0:0:0:0:
448,192,14830,1,0,0:0:0:0:
192,192,14830,128,0,15205:0:0:0:0:
320,192,15017,1,0,0:0:0:0:
64,192,15017,128,0,15205:0:0:0:0:
320,192,15205,1,0,0:0:0:0:
448,192,15205,1,0,0:0:0:0:
448,192,15392,1,0,0:0:0:0:
64,192,15392,128,0,15580:0:0:0:0:
192,192,15486,128,0,15580:0:0:0:0:
320,192,15580,128,0,15673:0:0:0:0:
448,192,15580,128,0,15673:0:0:0:0:
64,192,15673,1,0,0:0:0:0:
192,192,15673,1,0,0:0:0:0:
320,192,15767,1,0,0:0:0:0:
448,192,15861,1,0,0:0:0:0:
64,192,15955,1,0,0:0:0:0:
192,192,15955,1,0,0:0:0:0:
320,192,16048,1,0,0:0:0:0:
448,192,16048,1,0,0:0:0:0:
64,192,16142,1,0,0:0:0:0:
192,192,16142,1,0,0:0:0:0:
320,192,16236,1,0,0:0:0:0:
448,192,16330,1,0,0:0:0:0:
64,192,16330,128,0,16517:0:0:0:0:
192,192,16330,128,0,16517:0:0:0:0:
320,192,16517,1,0,0:0:0:0:
448,192,16517,1,0,0:0:0:0:
192,192,16611,1,0,0:0:0:0:
320,192,16705,128,0,17080:0:0:0:0:
64,192,16705,128,0,16892:0:0:0:0:
192,192,16892,128,0,17080:0:0:0:0:
448,192,16892,1,0,0:0:0:0:
64,192,17080,1,0,0:0:0:0:
192,192,17267,1,0,0:0:0:0:
448,192,17267,128,0,17455:0:0:0:0:
320,192,17361,128,0,17455:0:0:0:0:
64,192,17455,128,0,17642:0:0:0:0:
192,192,17455,128,0,17642:0:0:0:0:
320,192,17642,1,0,0:0:0:0:
448,192,17642,1,0,0:0:0:0:
64,192,17736,1,0,0:0:0:0:
192,192,17736,1,0,0:0:0:0:
448,192,17830,128,0,17923:0:0:0:0:
64,192,17923,1,0,0:0:0:0:
192,192,17923,1,0,0:0:0:0:
320,192,18017,1,0,0:0:0:0:
448,192,18017,1,0,0:0:0:0:
448,192,18205,128,0,18392:0:0:0:0:
320,192,18205,128,0,18392:0:0:0:0:
64,192,18205,1,0,0:0:0:0:
64,192,18392,1,0,0:0:0:0:
192,192,18392,1,0,0:0:0:0:
320,192,18486,1,0,0:0:0:0:
192,192,18580,128,0,18955:0:0:0:0:
448,192,18580,128,0,18767:0:0:0:0:
320,192,18767,128,0,18955:0:0:0:0:
64,192,18767,1,0,0:0:0:0:
448,192,18955,1,0,0:0:0:0:
320,192,19142,1,0,0:0:0:0:
64,192,19142,128,0,19330:0:0:0:0:
192,192,19236,128,0,19330:0:0:0:0:
320,192,19330,128,0,19517:0:0:0:0:
448,192,19330,128,0,19423:0:0:0:0:
64,192,19423,1,0,0:0:0:0:
192,192,19423,1,0,0:0:0:0:
448,192,19517,1,0,0:0:0:0:
320,192,19611,1,0,0:0:0:0:
64,192,19611,1,0,0:0:0:0:
448,192,19705,1,0,0:0:0:0:
192,192,19705,128,0,19892:0:0:0:0:
64,192,19798,128,0,19892:0:0:0:0:
320,192,19892,1,0,0:0:0:0:
448,192,19892,1,0,0:0:0:0:
64,192,19986,1,0,0:0:0:0:
192,192,20080,1,0,0:0:0:0:
448,192,20080,128,0,20267:0:0:0:0:
320,192,20080,128,0,20267:0:0:0:0:
64,192,20267,1,0,0:0:0:0:
192,192,20267,1,0,0:0:0:0:
320,192,20361,1,0,0:0:0:0:
64,192,20455,128,0,20830:0:0:0:0:
448,192,20455,128,0,20642:0:0:0:0:
192,192,20642,128,0,20830:0:0:0:0:
320,192,20642,1,0,0:0:0:0:
448,192,20830,1,0,0:0:0:0:
64,192,21017,1,0,0:0:0:0:
320,192,21017,1,0,0:0:0:0:
192,192,21111,1,0,0:0:0:0:
320,192,21205,128,0,21392:0:0:0:0:
448,192,21205,128,0,21392:0:0:0:0:
192,192,21392,1,0,0:0:0:0:
64,192,21392,1,0,0:0:0:0:
448,192,21580,128,0,21767:0:0:0:0:
64,192,21580,128,0,21955:0:0:0:0:
320,192,21767,1,0,0:0:0:0:
192,192,21767,1,0,0:0:0:0:
320,192,21955,128,0,22142:0:0:0:0:
192,192,21955,128,0,22048:0:0:0:0:
448,192,21955,128,0,22142:0:0:0:0:
64,192,22142,128,0,22330:0:0:0:0:
192,192,22236,128,0,22330:0:0:0:0:
320,192,22330,128,0,22517:0:0:0:0:
448,192,22330,128,0,22423:0:0:0:0:
192,192,22517,128,0,22705:0:0:0:0:
64,192,22517,128,0,22986:0:0:0:0:
448,192,22705,128,0,22798:0:0:0:0:
320,192,22705,128,0,22986:0:0:0:0:
192,192,22798,128,0,22986:0:0:0:0:
448,192,22892,128,0,22986:0:0:0:0:
64,192,23080,128,0,23267:0:0:0:0:
192,192,23080,128,0,23267:0:0:0:0:
448,192,23267,128,0,23361:0:0:0:0:
320,192,23267,128,0,23455:0:0:0:0:
64,192,23455,128,0,24111:0:0:0:0:
192,192,23455,128,0,24111:0:0:0:0:
448,192,23642,128,0,24111:0:0:0:0:
320,192,23830,128,0,24111:0:0:0:0:
64,192,24205,1,0,0:0:0:0:
192,192,24205,1,0,0:0:0:0:
448,192,24205,1,0,0:0:0:0:
64,192,24486,1,0,0:0:0:0:
448,192,24580,1,0,0:0:0:0:
64,192,24767,1,0,0:0:0:0:
320,192,24955,1,0,0:0:0:0:
64,192,25142,1,0,0:0:0:0:
192,192,25142,1,0,0:0:0:0:
64,192,25330,1,0,0:0:0:0:
320,192,25330,1,0,0:0:0:0:
448,192,25330,1,0,0:0:0:0:
64,192,25611,1,0,0:0:0:0:
192,192,25611,1,0,0:0:0:0:
320,192,25705,1,0,0:0:0:0:
320,192,25892,1,0,0:0:0:0:
64,192,26080,1,0,0:0:0:0:
448,192,26080,1,0,0:0:0:0:
320,192,26267,1,0,0:0:0:0:
64,192,26455,1,0,0:0:0:0:
448,192,26455,1,0,0:0:0:0:
192,192,26455,1,0,0:0:0:0:
192,192,26736,1,0,0:0:0:0:
448,192,26830,1,0,0:0:0:0:
192,192,27017,1,0,0:0:0:0:
320,192,27205,1,0,0:0:0:0:
64,192,27392,1,0,0:0:0:0:
192,192,27392,1,0,0:0:0:0:
64,192,27580,1,0,0:0:0:0:
448,192,27580,1,0,0:0:0:0:
320,192,27580,1,0,0:0:0:0:
64,192,27861,1,0,0:0:0:0:
192,192,27861,1,0,0:0:0:0:
320,192,27955,1,0,0:0:0:0:
320,192,28142,1,0,0:0:0:0:
448,192,28330,1,0,0:0:0:0:
64,192,28330,1,0,0:0:0:0:
192,192,28517,1,0,0:0:0:0:
320,192,28705,1,0,0:0:0:0:
448,192,28705,1,0,0:0:0:0:
64,192,28705,1,0,0:0:0:0:
320,192,28986,1,0,0:0:0:0:
192,192,29080,1,0,0:0:0:0:
320,192,29267,1,0,0:0:0:0:
64,192,29455,1,0,0:0:0:0:
448,192,29642,1,0,0:0:0:0:
320,192,29642,1,0,0:0:0:0:
64,192,29830,1,0,0:0:0:0:
192,192,29830,1,0,0:0:0:0:
448,192,29830,1,0,0:0:0:0:
320,192,30111,1,0,0:0:0:0:
448,192,30111,1,0,0:0:0:0:
192,192,30205,1,0,0:0:0:0:
192,192,30392,1,0,0:0:0:0:
64,192,30580,1,0,0:0:0:0:
448,192,30580,1,0,0:0:0:0:
320,192,30767,1,0,0:0:0:0:
64,192,30955,1,0,0:0:0:0:
192,192,30955,1,0,0:0:0:0:
448,192,30955,1,0,0:0:0:0:
448,192,31236,1,0,0:0:0:0:
192,192,31330,1,0,0:0:0:0:
448,192,31517,1,0,0:0:0:0:
64,192,31705,1,0,0:0:0:0:
320,192,31892,1,0,0:0:0:0:
448,192,31892,1,0,0:0:0:0:
64,192,32080,1,0,0:0:0:0:
192,192,32080,1,0,0:0:0:0:
448,192,32080,1,0,0:0:0:0:
320,192,32361,1,0,0:0:0:0:
448,192,32361,1,0,0:0:0:0:
192,192,32455,1,0,0:0:0:0:
64,192,32642,1,0,0:0:0:0:
320,192,32736,1,0,0:0:0:0:
192,192,32830,128,0,33205:0:0:0:0:
64,192,32830,128,0,33205:0:0:0:0:
320,192,33205,1,0,0:0:0:0:
448,192,33205,1,0,0:0:0:0:
192,192,33298,1,0,0:0:0:0:
64,192,33298,1,0,0:0:0:0:
320,192,33392,1,0,0:0:0:0:
448,192,33392,1,0,0:0:0:0:
64,192,33580,128,0,34236:0:0:0:0:
192,192,33580,128,0,33861:0:0:0:0:
192,192,33955,128,0,34236:0:0:0:0:
320,192,33955,128,0,34236:0:0:0:0:
192,192,34330,128,0,34423:0:0:0:0:
64,192,34330,128,0,34423:0:0:0:0:
448,192,34330,128,0,34611:0:0:0:0:
64,192,34517,128,0,34611:0:0:0:0:
192,192,34517,128,0,34611:0:0:0:0:
320,192,34705,1,0,0:0:0:0:
192,192,34705,128,0,34892:0:0:0:0:
320,192,34892,128,0,34986:0:0:0:0:
448,192,34892,128,0,34986:0:0:0:0:
64,192,34892,128,0,35173:0:0:0:0:
320,192,35080,128,0,35173:0:0:0:0:
448,192,35080,128,0,35173:0:0:0:0:
320,192,35267,128,0,35455:0:0:0:0:
192,192,35267,1,0,0:0:0:0:
448,192,35455,1,0,0:0:0:0:
64,192,35455,128,0,35830:0:0:0:0:
192,192,35455,128,0,35642:0:0:0:0:
448,192,35642,128,0,35830:0:0:0:0:
320,192,35642,1,0,0:0:0:0:
320,192,35830,128,0,36017:0:0:0:0:
192,192,35830,1,0,0:0:0:0:
64,192,36017,1,0,0:0:0:0:
192,192,36017,1,0,0:0:0:0:
64,192,36205,1,0,0:0:0:0:
320,192,36205,128,0,36580:0:0:0:0:
448,192,36205,128,0,36580:0:0:0:0:
64,192,36580,1,0,0:0:0:0:
192,192,36580,128,0,36955:0:0:0:0:
64,192,36767,128,0,36955:0:0:0:0:
448,192,36767,1,0,0:0:0:0:
320,192,36955,1,0,0:0:0:0:
448,192,36955,128,0,37330:0:0:0:0:
192,192,37142,1,0,0:0:0:0:
320,192,37142,128,0,37330:0:0:0:0:
192,192,37330,128,0,37517:0:0:0:0:
64,192,37330,128,0,37517:0:0:0:0:
320,192,37517,128,0,37705:0:0:0:0:
64,192,37705,1,0,0:0:0:0:
192,192,37705,1,0,0:0:0:0:
448,192,37705,1,0,0:0:0:0:
64,192,37892,1,0,0:0:0:0:
320,192,37892,1,0,0:0:0:0:
192,192,37986,1,0,0:0:0:0:
320,192,38080,1,0,0:0:0:0:
448,192,38080,1,0,0:0:0:0:
64,192,38173,1,0,0:0:0:0:
448,192,38267,1,0,0:0:0:0:
320,192,38267,1,0,0:0:0:0:
192,192,38267,1,0,0:0:0:0:
64,192,38455,1,0,0:0:0:0:
320,192,38548,1,0,0:0:0:0:
448,192,38548,1,0,0:0:0:0:
64,192,38642,1,0,0:0:0:0:
448,192,38736,1,0,0:0:0:0:
64,192,38830,1,0,0:0:0:0:
192,192,38830,1,0,0:0:0:0:
320,192,38830,1,0,0:0:0:0:
448,192,38923,1,0,0:0:0:0:
192,192,39017,1,0,0:0:0:0:
64,192,39111,1,0,0:0:0:0:
320,192,39111,1,0,0:0:0:0:
448,192,39205,1,0,0:0:0:0:
64,192,39298,1,0,0:0:0:0:
192,192,39392,1,0,0:0:0:0:
448,192,39392,1,0,0:0:0:0:
320,192,39392,1,0,0:0:0:0:
64,192,39486,1,0,0:0:0:0:
320,192,39580,1,0,0:0:0:0:
192,192,39673,1,0,0:0:0:0:
448,192,39673,1,0,0:0:0:0:
64,192,39767,1,0,0:0:0:0:
320,192,39861,1,0,0:0:0:0:
192,192,39955,128,0,40236:0:0:0:0:
64,192,39955,128,0,40236:0:0:0:0:
448,192,39955,1,0,0:0:0:0:
320,192,40236,128,0,40517:0:0:0:0:
448,192,40236,128,0,40517:0:0:0:0:
64,192,40330,1,0,0:0:0:0:
192,192,40517,128,0,40705:0:0:0:0:
64,192,40517,128,0,40798:0:0:0:0:
448,192,40705,1,0,0:0:0:0:
192,192,40798,128,0,41080:0:0:0:0:
320,192,40798,128,0,40986:0:0:0:0:
320,192,41080,128,0,41361:0:0:0:0:
448,192,41080,128,0,41361:0:0:0:0:
64,192,41080,1,0,0:0:0:0:
64,192,41361,128,0,41642:0:0:0:0:
192,192,41361,128,0,41642:0:0:0:0:
448,192,41455,1,0,0:0:0:0:
320,192,41642,1,0,0:0:0:0:
448,192,41642,1,0,0:0:0:0:
64,192,41736,1,0,0:0:0:0:
192,192,41736,1,0,0:0:0:0:
320,192,41830,1,0,0:0:0:0:
448,192,41830,1,0,0:0:0:0:
64,192,41923,1,0,0:0:0:0:
192,192,41923,1,0,0:0:0:0:
320,192,42017,1,0,0:0:0:0:
192,192,42111,1,0,0:0:0:0:
448,192,42205,128,0,42392:0:0:0:0:
320,192,42205,128,0,42392:0:0:0:0:
64,192,42205,128,0,42767:0:0:0:0:
192,192,42392,128,0,42580:0:0:0:0:
320,192,42580,128,0,42767:0:0:0:0:
448,192,42580,128,0,42955:0:0:0:0:
192,192,42767,128,0,43142:0:0:0:0:
320,192,42955,128,0,43142:0:0:0:0:
64,192,42955,128,0,43142:0:0:0:0:
448,192,43142,128,0,43330:0:0:0:0:
192,192,43330,128,0,43705:0:0:0:0:
64,192,43330,128,0,43517:0:0:0:0:
320,192,43330,128,0,43517:0:0:0:0:
448,192,43517,128,0,43892:0:0:0:0:
64,192,43705,128,0,44080:0:0:0:0:
320,192,43705,128,0,43892:0:0:0:0:
192,192,43892,128,0,44267:0:0:0:0:
320,192,44080,128,0,44267:0:0:0:0:
448,192,44080,128,0,44455:0:0:0:0:
64,192,44267,128,0,44642:0:0:0:0:
320,192,44455,128,0,44642:0:0:0:0:
192,192,44455,128,0,44830:0:0:0:0:
448,192,44642,128,0,45017:0:0:0:0:
64,192,44830,128,0,45017:0:0:0:0:
320,192,44830,128,0,45205:0:0:0:0:
192,192,45017,128,0,45392:0:0:0:0:
64,192,45205,128,0,45392:0:0:0:0:
448,192,45205,128,0,45392:0:0:0:0:
320,192,45392,128,0,45580:0:0:0:0:
64,192,45580,128,0,45767:0:0:0:0:
192,192,45580,128,0,45767:0:0:0:0:
448,192,45580,1,0,0:0:0:0:
448,192,45767,1,0,0:0:0:0:
320,192,45861,1,0,0:0:0:0:
64,192,45861,1,0,0:0:0:0:
192,192,45955,1,0,0:0:0:0:
64,192,46142,1,0,0:0:0:0:
320,192,46142,128,0,46330:0:0:0:0:
448,192,46142,128,0,46330:0:0:0:0:
64,192,46330,1,0,0:0:0:0:
192,192,46423,1,0,0:0:0:0:
448,192,46423,1,0,0:0:0:0:
320,192,46517,1,0,0:0:0:0:
64,192,46705,128,0,47080:0:0:0:0:
320,192,46705,1,0,0:0:0:0:
448,192,46705,1,0,0:0:0:0:
192,192,46892,1,0,0:0:0:0:
448,192,46892,128,0,47080:0:0:0:0:
320,192,47080,128,0,47455:0:0:0:0:
192,192,47080,128,0,47267:0:0:0:0:
448,192,47267,128,0,47455:0:0:0:0:
64,192,47267,1,0,0:0:0:0:
64,192,47455,128,0,47642:0:0:0:0:
192,192,47455,128,0,47830:0:0:0:0:
448,192,47642,1,0,0:0:0:0:
320,192,47642,128,0,47830:0:0:0:0:
448,192,47830,128,0,48205:0:0:0:0:
64,192,47830,1,0,0:0:0:0:
320,192,48205,128,0,48392:0:0:0:0:
64,192,48205,128,0,48580:0:0:0:0:
192,192,48392,1,0,0:0:0:0:
448,192,48392,1,0,0:0:0:0:
192,192,48580,128,0,48767:0:0:0:0:
320,192,48580,128,0,48861:0:0:0:0:
64,192,48767,1,0,0:0:0:0:
448,192,48861,1,0,0:0:0:0:
64,192,48955,128,0,49330:0:0:0:0:
192,192,48955,1,0,0:0:0:0:
320,192,49142,1,0,0:0:0:0:
448,192,49142,128,0,49330:0:0:0:0:
192,192,49330,128,0,49517:0:0:0:0:
320,192,49330,128,0,49705:0:0:0:0:
64,192,49517,1,0,0:0:0:0:
448,192,49517,128,0,49705:0:0:0:0:
64,192,49705,128,0,50080:0:0:0:0:
192,192,49705,128,0,49892:0:0:0:0:
448,192,49892,1,0,0:0:0:0:
320,192,49892,128,0,50080:0:0:0:0:
192,192,50080,128,0,50267:0:0:0:0:
448,192,50080,128,0,50267:0:0:0:0:
64,192,50267,1,0,0:0:0:0:
320,192,50361,1,0,0:0:0:0:
448,192,50361,1,0,0:0:0:0:
192,192,50455,128,0,50830:0:0:0:0:
64,192,50455,128,0,50642:0:0:0:0:
320,192,50642,1,0,0:0:0:0:
448,192,50642,1,0,0:0:0:0:
320,192,50830,128,0,50923:0:0:0:0:
448,192,50830,128,0,50923:0:0:0:0:
64,192,50923,1,0,0:0:0:0:
448,192,51017,128,0,51111:0:0:0:0:
320,192,51017,128,0,51205:0:0:0:0:
64,192,51205,128,0,51392:0:0:0:0:
192,192,51205,128,0,51392:0:0:0:0:
448,192,51205,128,0,51767:0:0:0:0:
320,192,51392,128,0,51580:0:0:0:0:
192,192,51580,128,0,51767:0:0:0:0:
64,192,51580,128,0,51955:0:0:0:0:
320,192,51767,128,0,52142:0:0:0:0:
192,192,51955,128,0,52142:0:0:0:0:
448,192,51955,128,0,52142:0:0:0:0:
64,192,52142,128,0,52330:0:0:0:0:
320,192,52330,128,0,52705:0:0:0:0:
448,192,52330,128,0,52517:0:0:0:0:
192,192,52330,128,0,52517:0:0:0:0:
64,192,52517,128,0,52892:0:0:0:0:
448,192,52705,128,0,53080:0:0:0:0:
192,192,52705,128,0,52892:0:0:0:0:
320,192,52892,128,0,53267:0:0:0:0:
192,192,53080,128,0,53267:0:0:0:0:
64,192,53080,128,0,53455:0:0:0:0:
448,192,53267,128,0,53642:0:0:0:0:
192,192,53455,128,0,53642:0:0:0:0:
320,192,53455,128,0,53830:0:0:0:0:
64,192,53642,128,0,54017:0:0:0:0:
448,192,53830,128,0,54017:0:0:0:0:
192,192,53830,128,0,54205:0:0:0:0:
320,192,54017,128,0,54392:0:0:0:0:
448,192,54205,128,0,54392:0:0:0:0:
64,192,54205,128,0,54392:0:0:0:0:
192,192,54392,128,0,54580:0:0:0:0:
448,192,54580,128,0,54767:0:0:0:0:
320,192,54580,128,0,54767:0:0:0:0:
64,192,54580,1,0,0:0:0:0:
64,192,54767,1,0,0:0:0:0:
448,192,54861,1,0,0:0:0:0:
192,192,54861,1,0,0:0:0:0:
320,192,54955,1,0,0:0:0:0:
192,192,55142,128,0,55330:0:0:0:0:
64,192,55142,128,0,55330:0:0:0:0:
448,192,55142,1,0,0:0:0:0:
448,192,55330,1,0,0:0:0:0:
320,192,55423,1,0,0:0:0:0:
64,192,55423,1,0,0:0:0:0:
192,192,55517,1,0,0:0:0:0:
192,192,55705,1,0,0:0:0:0:
64,192,55705,1,0,0:0:0:0:
448,192,55705,128,0,56080:0:0:0:0:
64,192,55892,128,0,56080:0:0:0:0:
320,192,55892,1,0,0:0:0:0:
320,192,56080,128,0,56455:0:0:0:0:
192,192,56080,128,0,56267:0:0:0:0:
448,192,56267,128,0,56455:0:0:0:0:
64,192,56267,1,0,0:0:0:0:
64,192,56455,128,0,56830:0:0:0:0:
192,192,56455,128,0,56642:0:0:0:0:
320,192,56642,1,0,0:0:0:0:
448,192,56642,128,0,56830:0:0:0:0:
320,192,56830,128,0,57205:0:0:0:0:
192,192,56830,1,0,0:0:0:0:
64,192,57205,128,0,57392:0:0:0:0:
448,192,57205,128,0,57580:0:0:0:0:
320,192,57392,1,0,0:0:0:0:
192,192,57392,1,0,0:0:0:0:
64,192,57580,128,0,57861:0:0:0:0:
320,192,57580,128,0,57767:0:0:0:0:
448,192,57767,1,0,0:0:0:0:
192,192,57861,1,0,0:0:0:0:
448,192,57955,128,0,58330:0:0:0:0:
320,192,57955,1,0,0:0:0:0:
192,192,58142,1,0,0:0:0:0:
64,192,58142,128,0,58330:0:0:0:0:
320,192,58330,128,0,58517:0:0:0:0:
192,192,58330,128,0,58705:0:0:0:0:
448,192,58517,1,0,0:0:0:0:
64,192,58517,128,0,58705:0:0:0:0:
448,192,58705,128,0,59080:0:0:0:0:
320,192,58705,128,0,58892:0:0:0:0:
64,192,58892,1,0,0:0:0:0:
192,192,58892,128,0,59080:0:0:0:0:
320,192,59080,128,0,59267:0:0:0:0:
64,192,59080,128,0,59267:0:0:0:0:
448,192,59267,1,0,0:0:0:0:
192,192,59361,1,0,0:0:0:0:
64,192,59361,1,0,0:0:0:0:
320,192,59455,128,0,59830:0:0:0:0:
448,192,59455,128,0,59642:0:0:0:0:
192,192,59642,1,0,0:0:0:0:
64,192,59642,1,0,0:0:0:0:
192,192,59830,128,0,59923:0:0:0:0:
64,192,59830,128,0,59923:0:0:0:0:
448,192,59923,1,0,0:0:0:0:
192,192,60017,128,0,60205:0:0:0:0:
64,192,60017,128,0,60111:0:0:0:0:
64,192,60205,1,0,0:0:0:0:
320,192,60205,128,0,60580:0:0:0:0:
448,192,60205,128,0,60392:0:0:0:0:
192,192,60392,128,0,60580:0:0:0:0:
448,192,60580,128,0,60767:0:0:0:0:
64,192,60580,128,0,60767:0:0:0:0:
192,192,60767,1,0,0:0:0:0:
320,192,60767,1,0,0:0:0:0:
64,192,60955,128,0,61142:0:0:0:0:
448,192,60955,128,0,61142:0:0:0:0:
320,192,60955,128,0,61142:0:0:0:0:
192,192,61142,1,0,0:0:0:0:
64,192,61330,128,0,61517:0:0:0:0:
192,192,61330,128,0,61517:0:0:0:0:
320,192,61330,128,0,61423:0:0:0:0:
448,192,61330,128,0,61423:0:0:0:0:
320,192,61517,1,0,0:0:0:0:
448,192,61517,1,0,0:0:0:0:
64,192,61705,128,0,62267:0:0:0:0:
192,192,61705,128,0,61892:0:0:0:0:
320,192,61892,128,0,62267:0:0:0:0:
448,192,61892,128,0,62267:0:0:0:0:
192,192,62080,128,0,62267:0:0:0:0:
192,192,62455,1,0,0:0:0:0:
64,192,62455,128,0,62830:0:0:0:0:
320,192,62455,128,0,62642:0:0:0:0:
448,192,62642,1,0,0:0:0:0:
192,192,62642,128,0,62830:0:0:0:0:
320,192,62830,128,0,63017:0:0:0:0:
448,192,62830,128,0,63392:0:0:0:0:
192,192,63017,128,0,63392:0:0:0:0:
64,192,63017,128,0,63392:0:0:0:0:
320,192,63205,128,0,63392:0:0:0:0:
448,192,63580,128,0,63861:0:0:0:0:
320,192,63580,128,0,63767:0:0:0:0:
192,192,63580,128,0,63673:0:0:0:0:
64,192,63861,128,0,64142:0:0:0:0:
192,192,63861,128,0,64048:0:0:0:0:
320,192,63861,128,0,63955:0:0:0:0:
192,192,64142,128,0,64423:0:0:0:0:
320,192,64142,128,0,64330:0:0:0:0:
448,192,64142,128,0,64236:0:0:0:0:
320,192,64423,128,0,64611:0:0:0:0:
448,192,64423,128,0,64705:0:0:0:0:
64,192,64423,128,0,64517:0:0:0:0:
64,192,64705,128,0,65080:0:0:0:0:
192,192,64705,1,0,0:0:0:0:
192,192,64892,128,0,65080:0:0:0:0:
448,192,64892,1,0,0:0:0:0:
448,192,65080,128,0,65267:0:0:0:0:
320,192,65080,128,0,65267:0:0:0:0:
64,192,65267,1,0,0:0:0:0:
192,192,65267,1,0,0:0:0:0:
448,192,65455,128,0,65830:0:0:0:0:
320,192,65455,128,0,65642:0:0:0:0:
64,192,65642,1,0,0:0:0:0:
192,192,65642,1,0,0:0:0:0:
64,192,65830,128,0,66017:0:0:0:0:
320,192,65830,128,0,66205:0:0:0:0:
448,192,66017,128,0,66205:0:0:0:0:
64,192,66205,128,0,66392:0:0:0:0:
192,192,66205,128,0,66392:0:0:0:0:
448,192,66392,1,0,0:0:0:0:
320,192,66392,1,0,0:0:0:0:
192,192,66580,128,0,66767:0:0:0:0:
64,192,66580,128,0,66767:0:0:0:0:
320,192,66767,1,0,0:0:0:0:
448,192,66767,1,0,0:0:0:0:
192,192,66861,1,0,0:0:0:0:
448,192,66955,128,0,67330:0:0:0:0:
64,192,66955,1,0,0:0:0:0:
320,192,66955,1,0,0:0:0:0:
64,192,67142,128,0,67330:0:0:0:0:
192,192,67142,128,0,67236:0:0:0:0:
320,192,67330,128,0,67517:0:0:0:0:
192,192,67330,128,0,67705:0:0:0:0:
448,192,67517,1,0,0:0:0:0:
64,192,67517,128,0,67705:0:0:0:0:
448,192,67705,128,0,68080:0:0:0:0:
320,192,67705,128,0,67892:0:0:0:0:
64,192,67892,1,0,0:0:0:0:
192,192,67892,128,0,68080:0:0:0:0:
320,192,68080,128,0,68267:0:0:0:0:
64,192,68080,128,0,68267:0:0:0:0:
448,192,68267,1,0,0:0:0:0:
192,192,68361,1,0,0:0:0:0:
64,192,68361,1,0,0:0:0:0:
448,192,68455,128,0,68830:0:0:0:0:
320,192,68455,128,0,68830:0:0:0:0:
192,192,68642,1,0,0:0:0:0:
64,192,68642,1,0,0:0:0:0:
192,192,68830,128,0,68923:0:0:0:0:
64,192,68830,128,0,68923:0:0:0:0:
448,192,68923,1,0,0:0:0:0:
192,192,69017,128,0,69205:0:0:0:0:
64,192,69017,128,0,69111:0:0:0:0:
64,192,69205,1,0,0:0:0:0:
320,192,69205,1,0,0:0:0:0:
448,192,69205,1,0,0:0:0:0:
192,192,69392,128,0,69580:0:0:0:0:
320,192,69580,1,0,0:0:0:0:
448,192,69580,1,0,0:0:0:0:
64,192,69767,128,0,70142:0:0:0:0:
448,192,69767,1,0,0:0:0:0:
192,192,69955,128,0,70142:0:0:0:0:
320,192,69955,1,0,0:0:0:0:
320,192,70142,1,0,0:0:0:0:
448,192,70142,1,0,0:0:0:0:
64,192,70330,128,0,70705:0:0:0:0:
448,192,70330,1,0,0:0:0:0:
192,192,70517,128,0,70705:0:0:0:0:
320,192,70705,1,0,0:0:0:0:
448,192,70705,1,0,0:0:0:0:
192,192,70892,128,0,71080:0:0:0:0:
64,192,71080,1,0,0:0:0:0:
448,192,71080,1,0,0:0:0:0:
192,192,71267,128,0,71455:0:0:0:0:
64,192,71267,1,0,0:0:0:0:
320,192,71455,1,0,0:0:0:0:
448,192,71455,1,0,0:0:0:0:
64,192,71642,1,0,0:0:0:0:
448,192,71642,128,0,72017:0:0:0:0:
320,192,71830,128,0,72017:0:0:0:0:
192,192,71830,1,0,0:0:0:0:
64,192,72017,1,0,0:0:0:0:
192,192,72017,1,0,0:0:0:0:
448,192,72205,128,0,72580:0:0:0:0:
64,192,72205,1,0,0:0:0:0:
320,192,72392,128,0,72580:0:0:0:0:
64,192,72580,128,0,72767:0:0:0:0:
192,192,72580,1,0,0:0:0:0:
448,192,72767,128,0,72955:0:0:0:0:
320,192,72767,1,0,0:0:0:0:
64,192,72955,128,0,73330:0:0:0:0:
192,192,72955,128,0,73142:0:0:0:0:
320,192,72955,128,0,73048:0:0:0:0:
448,192,73142,128,0,73330:0:0:0:0:
192,192,73330,1,0,0:0:0:0:
320,192,73330,1,0,0:0:0:0:
320,192,73517,128,0,73892:0:0:0:0:
448,192,73517,128,0,73705:0:0:0:0:
64,192,73705,1,0,0:0:0:0:
192,192,73892,1,0,0:0:0:0:
448,192,73892,1,0,0:0:0:0:
64,192,74080,128,0,74455:0:0:0:0:
320,192,74080,128,0,74267:0:0:0:0:
192,192,74267,128,0,74455:0:0:0:0:
448,192,74455,128,0,74830:0:0:0:0:
320,192,74455,128,0,74642:0:0:0:0:
64,192,74642,1,0,0:0:0:0:
192,192,74642,1,0,0:0:0:0:
64,192,74830,128,0,75205:0:0:0:0:
192,192,74830,128,0,75017:0:0:0:0:
320,192,74830,1,0,0:0:0:0:
448,192,75017,1,0,0:0:0:0:
320,192,75017,128,0,75205:0:0:0:0:
448,192,75205,1,0,0:0:0:0:
192,192,75205,128,0,75580:0:0:0:0:
64,192,75392,1,0,0:0:0:0:
320,192,75392,128,0,75580:0:0:0:0:
448,192,75580,128,0,75767:0:0:0:0:
320,192,75767,1,0,0:0:0:0:
192,192,75767,128,0,76142:0:0:0:0:
64,192,75955,128,0,76142:0:0:0:0:
448,192,75955,128,0,76330:0:0:0:0:
320,192,76142,128,0,76330:0:0:0:0:
64,192,76330,128,0,76517:0:0:0:0:
192,192,76330,128,0,76517:0:0:0:0:
320,192,76517,1,0,0:0:0:0:
448,192,76517,1,0,0:0:0:0:
448,192,76705,128,0,77080:0:0:0:0:
192,192,76705,128,0,76798:0:0:0:0:
320,192,76705,128,0,76892:0:0:0:0:
64,192,76892,128,0,77080:0:0:0:0:
192,192,77080,1,0,0:0:0:0:
320,192,77080,1,0,0:0:0:0:
64,192,77267,1,0,0:0:0:0:
320,192,77267,128,0,77642:0:0:0:0:
448,192,77455,128,0,77642:0:0:0:0:
64,192,77642,1,0,0:0:0:0:
192,192,77642,1,0,0:0:0:0:
192,192,77830,1,0,0:0:0:0:
320,192,77830,128,0,78205:0:0:0:0:
448,192,78017,128,0,78205:0:0:0:0:
192,192,78205,1,0,0:0:0:0:
64,192,78205,1,0,0:0:0:0:
448,192,78392,1,0,0:0:0:0:
192,192,78392,128,0,78580:0:0:0:0:
320,192,78580,128,0,78767:0:0:0:0:
448,192,78580,128,0,78955:0:0:0:0:
64,192,78580,1,0,0:0:0:0:
192,192,78767,1,0,0:0:0:0:
64,192,78767,128,0,78955:0:0:0:0:
320,192,78955,1,0,0:0:0:0:
192,192,78955,1,0,0:0:0:0:
64,192,79142,128,0,79517:0:0:0:0:
448,192,79142,1,0,0:0:0:0:
192,192,79330,128,0,79517:0:0:0:0:
320,192,79517,1,0,0:0:0:0:
448,192,79517,1,0,0:0:0:0:
64,192,79705,128,0,80080:0:0:0:0:
448,192,79705,1,0,0:0:0:0:
192,192,79892,128,0,80080:0:0:0:0:
320,192,80080,128,0,80267:0:0:0:0:
448,192,80080,1,0,0:0:0:0:
64,192,80267,1,0,0:0:0:0:
192,192,80267,128,0,80455:0:0:0:0:
320,192,80455,128,0,80830:0:0:0:0:
64,192,80455,128,0,80548:0:0:0:0:
448,192,80455,128,0,80642:0:0:0:0:
192,192,80642,128,0,80830:0:0:0:0:
448,192,80830,1,0,0:0:0:0:
64,192,80830,128,0,81205:0:0:0:0:
192,192,81017,128,0,81205:0:0:0:0:
448,192,81017,1,0,0:0:0:0:
320,192,81205,128,0,81392:0:0:0:0:
192,192,81392,1,0,0:0:0:0:
64,192,81392,128,0,81580:0:0:0:0:
448,192,81580,128,0,81955:0:0:0:0:
320,192,81580,128,0,81767:0:0:0:0:
192,192,81767,128,0,81955:0:0:0:0:
64,192,81955,128,0,82330:0:0:0:0:
320,192,81955,128,0,82142:0:0:0:0:
448,192,82142,1,0,0:0:0:0:
192,192,82142,128,0,82330:0:0:0:0:
320,192,82330,1,0,0:0:0:0:
448,192,82330,128,0,82892:0:0:0:0:
320,192,82611,128,0,83173:0:0:0:0:
64,192,82611,1,0,0:0:0:0:
192,192,82892,128,0,83455:0:0:0:0:
64,192,82892,1,0,0:0:0:0:
448,192,83173,1,0,0:0:0:0:
64,192,83173,128,0,83736:0:0:0:0:
448,192,83455,128,0,84017:0:0:0:0:
320,192,83455,1,0,0:0:0:0:
320,192,83736,128,0,84017:0:0:0:0:
192,192,83736,1,0,0:0:0:0:
192,192,84017,128,0,84205:0:0:0:0:
64,192,84017,1,0,0:0:0:0:
448,192,84205,128,0,84580:0:0:0:0:
64,192,84205,128,0,84298:0:0:0:0:
320,192,84205,128,0,84392:0:0:0:0:
192,192,84392,128,0,84580:0:0:0:0:
64,192,84580,1,0,0:0:0:0:
320,192,84580,1,0,0:0:0:0:
192,192,84767,1,0,0:0:0:0:
320,192,84767,128,0,85142:0:0:0:0:
448,192,84955,128,0,85142:0:0:0:0:
64,192,85142,1,0,0:0:0:0:
192,192,85142,1,0,0:0:0:0:
64,192,85330,1,0,0:0:0:0:
320,192,85330,128,0,85705:0:0:0:0:
448,192,85517,128,0,85705:0:0:0:0:
192,192,85705,1,0,0:0:0:0:
64,192,85705,1,0,0:0:0:0:
448,192,85892,1,0,0:0:0:0:
192,192,85892,128,0,86080:0:0:0:0:
448,192,86080,128,0,86455:0:0:0:0:
320,192,86080,128,0,86267:0:0:0:0:
64,192,86080,1,0,0:0:0:0:
192,192,86267,1,0,0:0:0:0:
64,192,86267,128,0,86455:0:0:0:0:
320,192,86455,1,0,0:0:0:0:
192,192,86455,1,0,0:0:0:0:
64,192,86642,128,0,87017:0:0:0:0:
448,192,86642,1,0,0:0:0:0:
192,192,86830,128,0,87017:0:0:0:0:
320,192,87017,1,0,0:0:0:0:
448,192,87017,1,0,0:0:0:0:
64,192,87205,128,0,87580:0:0:0:0:
448,192,87205,1,0,0:0:0:0:
192,192,87392,128,0,87580:0:0:0:0:
320,192,87580,128,0,87767:0:0:0:0:
448,192,87580,128,0,87673:0:0:0:0:
64,192,87767,1,0,0:0:0:0:
320,192,87861,1,0,0:0:0:0:
448,192,87955,128,0,88330:0:0:0:0:
192,192,87955,128,0,88142:0:0:0:0:
64,192,87955,128,0,88048:0:0:0:0:
320,192,88142,1,0,0:0:0:0:
64,192,88330,1,0,0:0:0:0:
192,192,88330,128,0,88705:0:0:0:0:
64,192,88517,128,0,88705:0:0:0:0:
448,192,88517,1,0,0:0:0:0:
320,192,88705,1,0,0:0:0:0:
192,192,88892,1,0,0:0:0:0:
448,192,88892,128,0,89080:0:0:0:0:
192,192,89080,128,0,89267:0:0:0:0:
320,192,89080,128,0,89455:0:0:0:0:
448,192,89267,128,0,89455:0:0:0:0:
64,192,89455,128,0,89642:0:0:0:0:
192,192,89455,128,0,89548:0:0:0:0:
448,192,89642,1,0,0:0:0:0:
64,192,89736,1,0,0:0:0:0:
448,192,89830,128,0,90080:0:0:0:0:
320,192,89830,128,0,90205:0:0:0:0:
192,192,89830,1,0,0:0:0:0:
64,192,90017,1,0,0:0:0:0:
192,192,90017,1,0,0:0:0:0:
448,192,90205,1,0,0:0:0:0:
64,192,90205,128,0,90580:0:0:0:0:
448,192,90392,128,0,90580:0:0:0:0:
320,192,90392,128,0,90486:0:0:0:0:
192,192,90580,1,0,0:0:0:0:
448,192,90767,1,0,0:0:0:0:
64,192,90767,128,0,90955:0:0:0:0:
320,192,90955,128,0,91142:0:0:0:0:
192,192,90955,128,0,91048:0:0:0:0:
448,192,91142,128,0,91330:0:0:0:0:
192,192,91330,128,0,91611:0:0:0:0:
64,192,91330,128,0,91423:0:0:0:0:
448,192,91517,1,0,0:0:0:0:
320,192,91611,1,0,0:0:0:0:
64,192,91705,128,0,92080:0:0:0:0:
192,192,91705,128,0,91798:0:0:0:0:
448,192,91705,128,0,91892:0:0:0:0:
320,192,91892,128,0,92080:0:0:0:0:
192,192,92080,1,0,0:0:0:0:
448,192,92080,1,0,0:0:0:0:
320,192,92267,1,0,0:0:0:0:
192,192,92267,128,0,92642:0:0:0:0:
64,192,92455,128,0,92642:0:0:0:0:
448,192,92642,1,0,0:0:0:0:
320,192,92642,1,0,0:0:0:0:
448,192,92830,1,0,0:0:0:0:
192,192,92830,128,0,93205:0:0:0:0:
64,192,93017,128,0,93205:0:0:0:0:
320,192,93205,1,0,0:0:0:0:
448,192,93205,1,0,0:0:0:0:
64,192,93392,1,0,0:0:0:0:
320,192,93392,128,0,93580:0:0:0:0:
64,192,93580,128,0,93955:0:0:0:0:
192,192,93580,128,0,93767:0:0:0:0:
448,192,93580,1,0,0:0:0:0:
320,192,93767,1,0,0:0:0:0:
448,192,93767,128,0,93955:0:0:0:0:
192,192,93955,1,0,0:0:0:0:
320,192,93955,1,0,0:0:0:0:
448,192,94142,128,0,94517:0:0:0:0:
64,192,94142,1,0,0:0:0:0:
320,192,94330,128,0,94517:0:0:0:0:
192,192,94517,1,0,0:0:0:0:
64,192,94517,1,0,0:0:0:0:
448,192,94705,128,0,95080:0:0:0:0:
64,192,94705,1,0,0:0:0:0:
320,192,94892,128,0,95080:0:0:0:0:
192,192,95080,128,0,95267:0:0:0:0:
64,192,95080,1,0,0:0:0:0:
448,192,95267,1,0,0:0:0:0:
320,192,95267,128,0,95455:0:0:0:0:
448,192,95455,128,0,95830:0:0:0:0:
64,192,95455,128,0,95548:0:0:0:0:
192,192,95455,128,0,95642:0:0:0:0:
320,192,95642,1,0,0:0:0:0:
64,192,95830,1,0,0:0:0:0:
192,192,95830,128,0,96205:0:0:0:0:
64,192,96017,128,0,96205:0:0:0:0:
448,192,96017,1,0,0:0:0:0:
320,192,96205,128,0,96392:0:0:0:0:
448,192,96392,1,0,0:0:0:0:
192,192,96392,128,0,96580:0:0:0:0:
320,192,96580,128,0,96767:0:0:0:0:
448,192,96580,128,0,96955:0:0:0:0:
64,192,96767,128,0,96955:0:0:0:0:
192,192,96955,128,0,97330:0:0:0:0:
320,192,96955,128,0,97142:0:0:0:0:
448,192,97142,1,0,0:0:0:0:
64,192,97142,128,0,97330:0:0:0:0:
448,192,97330,128,0,97892:0:0:0:0:
320,192,97330,1,0,0:0:0:0:
192,192,97611,1,0,0:0:0:0:
320,192,97611,128,0,98173:0:0:0:0:
64,192,97892,1,0,0:0:0:0:
192,192,97892,128,0,98455:0:0:0:0:
64,192,98173,128,0,98736:0:0:0:0:
448,192,98173,1,0,0:0:0:0:
320,192,98455,1,0,0:0:0:0:
448,192,98455,128,0,99017:0:0:0:0:
192,192,98736,1,0,0:0:0:0:
320,192,98736,128,0,99298:0:0:0:0:
64,192,99017,1,0,0:0:0:0:
192,192,99017,128,0,99580:0:0:0:0:
64,192,99298,128,0,99580:0:0:0:0:
448,192,99298,1,0,0:0:0:0:
320,192,99580,1,0,0:0:0:0:
448,192,99580,128,0,102205:0:0:0:0:
64,192,99955,128,0,100236:0:0:0:0:
192,192,100236,128,0,100517:0:0:0:0:
64,192,100517,128,0,100705:0:0:0:0:
192,192,100705,1,0,0:0:0:0:
320,192,100798,1,0,0:0:0:0:
192,192,100892,1,0,0:0:0:0:
64,192,100986,1,0,0:0:0:0:
192,192,101080,1,0,0:0:0:0:
320,192,101173,1,0,0:0:0:0:
64,192,101267,128,0,101548:0:0:0:0:
192,192,101548,128,0,101830:0:0:0:0:
64,192,101830,128,0,102017:0:0:0:0:
192,192,102017,1,0,0:0:0:0:
320,192,102111,1,0,0:0:0:0:
64,192,102205,128,0,102298:0:0:0:0:
192,192,102298,128,0,102392:0:0:0:0:
448,192,102392,1,0,0:0:0:0:
192,192,102486,128,0,102580:0:0:0:0:
320,192,102580,128,0,102673:0:0:0:0:
64,192,102673,1,0,0:0:0:0:
448,192,102767,128,0,102861:0:0:0:0:
320,192,102861,128,0,102955:0:0:0:0:
448,192,102955,128,0,103048:0:0:0:0:
64,192,103048,1,0,0:0:0:0:
320,192,103142,128,0,103236:0:0:0:0:
192,192,103236,1,0,0:0:0:0:
320,192,103330,128,0,103423:0:0:0:0:
448,192,103423,128,0,103517:0:0:0:0:
64,192,103517,128,0,103611:0:0:0:0:
192,192,103611,128,0,103705:0:0:0:0:
320,192,103705,128,0,103986:0:0:0:0:
448,192,103705,128,0,103892:0:0:0:0:
64,192,103705,128,0,103798:0:0:0:0:
448,192,103986,128,0,104080:0:0:0:0:
192,192,103986,128,0,104267:0:0:0:0:
64,192,103986,128,0,104173:0:0:0:0:
320,192,104267,128,0,104455:0:0:0:0:
448,192,104267,128,0,104361:0:0:0:0:
64,192,104267,1,0,0:0:0:0:
192,192,104455,1,0,0:0:0:0:
64,192,104501,1,0,0:0:0:0:
448,192,104548,1,0,0:0:0:0:
320,192,104595,1,0,0:0:0:0:
192,192,104830,128,0,105111:0:0:0:0:
64,192,104830,128,0,105017:0:0:0:0:
448,192,104830,128,0,104923:0:0:0:0:
448,192,105111,128,0,105298:0:0:0:0:
64,192,105111,128,0,105205:0:0:0:0:
320,192,105111,128,0,105392:0:0:0:0:
64,192,105392,128,0,105486:0:0:0:0:
448,192,105392,1,0,0:0:0:0:
192,192,105392,128,0,105580:0:0:0:0:
320,192,105580,1,0,0:0:0:0:
448,192,105626,1,0,0:0:0:0:
320,192,105955,1,0,0:0:0:0:
320,192,106330,1,0,0:0:0:0:
448,192,106705,1,0,0:0:0:0:
64,192,106705,128,0,106977:0:0:0:0:
320,192,106705,128,0,106841:0:0:0:0:
192,192,106841,128,0,106977:0:0:0:0:
448,192,106977,1,0,0:0:0:0:
320,192,106977,128,0,107114:0:0:0:0:
192,192,107114,128,0,107250:0:0:0:0:
64,192,107114,128,0,107250:0:0:0:0:
320,192,107250,1,0,0:0:0:0:
448,192,107250,1,0,0:0:0:0:
448,192,107386,128,0,107523:0:0:0:0:
64,192,107386,128,0,107523:0:0:0:0:
192,192,107523,1,0,0:0:0:0:
320,192,107523,1,0,0:0:0:0:
448,192,107659,128,0,108341:0:0:0:0:
320,192,107659,1,0,0:0:0:0:
192,192,107727,1,0,0:0:0:0:
64,192,107795,1,0,0:0:0:0:
192,192,107932,1,0,0:0:0:0:
64,192,107932,1,0,0:0:0:0:
320,192,108068,1,0,0:0:0:0:
192,192,108068,1,0,0:0:0:0:
64,192,108205,1,0,0:0:0:0:
320,192,108205,1,0,0:0:0:0:
192,192,108341,1,0,0:0:0:0:
64,192,108341,1,0,0:0:0:0:
448,192,108477,1,0,0:0:0:0:
320,192,108477,1,0,0:0:0:0:
64,192,108614,1,0,0:0:0:0:
192,192,108614,1,0,0:0:0:0:
320,192,108682,1,0,0:0:0:0:
448,192,108750,1,0,0:0:0:0:
320,192,108886,1,0,0:0:0:0:
448,192,108886,1,0,0:0:0:0:
64,192,108886,1,0,0:0:0:0:
192,192,108977,1,0,0:0:0:0:
320,192,109068,1,0,0:0:0:0:
64,192,109159,128,0,109432:0:0:0:0:
192,192,109159,128,0,109295:0:0:0:0:
320,192,109295,1,0,0:0:0:0:
448,192,109295,1,0,0:0:0:0:
320,192,109432,128,0,109568:0:0:0:0:
192,192,109432,128,0,109705:0:0:0:0:
448,192,109568,1,0,0:0:0:0:
64,192,109568,1,0,0:0:0:0:
448,192,109705,1,0,0:0:0:0:
320,192,109705,1,0,0:0:0:0:
64,192,109841,128,0,110521:0:0:0:0:
192,192,109841,1,0,0:0:0:0:
320,192,109909,1,0,0:0:0:0:
448,192,109976,1,0,0:0:0:0:
192,192,110112,1,0,0:0:0:0:
320,192,110112,1,0,0:0:0:0:
192,192,110248,1,0,0:0:0:0:
448,192,110248,1,0,0:0:0:0:
320,192,110385,1,0,0:0:0:0:
448,192,110385,1,0,0:0:0:0:
192,192,110521,1,0,0:0:0:0:
320,192,110521,1,0,0:0:0:0:
64,192,110657,1,0,0:0:0:0:
192,192,110657,1,0,0:0:0:0:
64,192,110794,1,0,0:0:0:0:
448,192,110794,1,0,0:0:0:0:
320,192,110862,1,0,0:0:0:0:
192,192,110930,1,0,0:0:0:0:
320,192,110998,1,0,0:0:0:0:
64,192,111066,1,0,0:0:0:0:
448,192,111066,1,0,0:0:0:0:
192,192,111135,1,0,0:0:0:0:
320,192,111203,1,0,0:0:0:0:
192,192,111271,1,0,0:0:0:0:
64,192,111339,1,0,0:0:0:0:
320,192,111339,128,0,111475:0:0:0:0:
448,192,111339,128,0,111475:0:0:0:0:
64,192,111475,1,0,0:0:0:0:
192,192,111475,1,0,0:0:0:0:
448,192,111611,1,0,0:0:0:0:
192,192,111611,128,0,111748:0:0:0:0:
448,192,111748,128,0,111884:0:0:0:0:
320,192,111748,128,0,111884:0:0:0:0:
64,192,111884,1,0,0:0:0:0:
192,192,111884,1,0,0:0:0:0:
448,192,112020,128,0,112157:0:0:0:0:
320,192,112020,128,0,112157:0:0:0:0:
64,192,112157,1,0,0:0:0:0:
192,192,112157,1,0,0:0:0:0:
192,192,112293,1,0,0:0:0:0:
64,192,112293,128,0,112566:0:0:0:0:
320,192,112361,1,0,0:0:0:0:
448,192,112429,1,0,0:0:0:0:
192,192,112498,1,0,0:0:0:0:
448,192,112566,1,0,0:0:0:0:
320,192,112566,1,0,0:0:0:0:
64,192,112702,128,0,112839:0:0:0:0:
192,192,112702,128,0,112839:0:0:0:0:
320,192,112839,1,0,0:0:0:0:
448,192,112839,1,0,0:0:0:0:
64,192,112975,128,0,113111:0:0:0:0:
192,192,112975,128,0,113111:0:0:0:0:
320,192,113111,1,0,0:0:0:0:
448,192,113111,1,0,0:0:0:0:
64,192,113248,1,0,0:0:0:0:
448,192,113248,1,0,0:0:0:0:
192,192,113316,1,0,0:0:0:0:
320,192,113384,1,0,0:0:0:0:
64,192,113452,1,0,0:0:0:0:
448,192,113520,1,0,0:0:0:0:
320,192,113520,1,0,0:0:0:0:
192,192,113520,1,0,0:0:0:0:
64,192,113589,1,0,0:0:0:0:
320,192,113657,128,0,113793:0:0:0:0:
448,192,113657,128,0,113793:0:0:0:0:
192,192,113793,1,0,0:0:0:0:
64,192,113793,1,0,0:0:0:0:
448,192,113929,128,0,114066:0:0:0:0:
64,192,113929,128,0,114066:0:0:0:0:
192,192,114066,1,0,0:0:0:0:
320,192,114066,1,0,0:0:0:0:
448,192,114202,128,0,114339:0:0:0:0:
64,192,114202,128,0,114339:0:0:0:0:
192,192,114339,1,0,0:0:0:0:
320,192,114339,1,0,0:0:0:0:
448,192,114475,128,0,114884:0:0:0:0:
320,192,114475,1,0,0:0:0:0:
192,192,114543,1,0,0:0:0:0:
64,192,114611,1,0,0:0:0:0:
320,192,114748,1,0,0:0:0:0:
192,192,114748,1,0,0:0:0:0:
64,192,114884,1,0,0:0:0:0:
192,192,114884,1,0,0:0:0:0:
448,192,115020,128,0,115293:0:0:0:0:
64,192,115020,128,0,115157:0:0:0:0:
320,192,115020,128,0,115293:0:0:0:0:
192,192,115293,128,0,115429:0:0:0:0:
64,192,115293,128,0,115429:0:0:0:0:
448,192,115429,1,0,0:0:0:0:
320,192,115429,1,0,0:0:0:0:
64,192,115566,128,0,115839:0:0:0:0:
320,192,115566,128,0,115702:0:0:0:0:
448,192,115566,128,0,115702:0:0:0:0:
192,192,115702,128,0,115839:0:0:0:0:
320,192,115839,128,0,115975:0:0:0:0:
448,192,115839,128,0,115975:0:0:0:0:
192,192,115975,1,0,0:0:0:0:
64,192,115975,1,0,0:0:0:0:
64,192,116111,1,0,0:0:0:0:
320,192,116111,1,0,0:0:0:0:
448,192,116111,1,0,0:0:0:0:
192,192,116248,1,0,0:0:0:0:
320,192,116248,1,0,0:0:0:0:
64,192,116384,1,0,0:0:0:0:
192,192,116384,1,0,0:0:0:0:
320,192,116520,128,0,116656:0:0:0:0:
448,192,116520,128,0,116656:0:0:0:0:
64,192,116520,128,0,116656:0:0:0:0:
192,192,116656,1,0,0:0:0:0:
448,192,116792,128,0,117065:0:0:0:0:
320,192,116792,1,0,0:0:0:0:
320,192,116929,128,0,117065:0:0:0:0:
192,192,116929,1,0,0:0:0:0:
64,192,117065,1,0,0:0:0:0:
192,192,117065,1,0,0:0:0:0:
448,192,117201,1,0,0:0:0:0:
64,192,117201,128,0,117338:0:0:0:0:
192,192,117338,1,0,0:0:0:0:
320,192,117338,1,0,0:0:0:0:
64,192,117474,128,0,117883:0:0:0:0:
192,192,117474,1,0,0:0:0:0:
320,192,117542,1,0,0:0:0:0:
448,192,117610,1,0,0:0:0:0:
320,192,117747,1,0,0:0:0:0:
192,192,117747,1,0,0:0:0:0:
320,192,117883,128,0,118020:0:0:0:0:
448,192,117883,128,0,118020:0:0:0:0:
64,192,118020,1,0,0:0:0:0:
192,192,118020,1,0,0:0:0:0:
320,192,118156,128,0,118292:0:0:0:0:
64,192,118156,128,0,118292:0:0:0:0:
192,192,118292,1,0,0:0:0:0:
448,192,118292,1,0,0:0:0:0:
64,192,118429,128,0,118565:0:0:0:0:
192,192,118429,128,0,118565:0:0:0:0:
320,192,118497,1,0,0:0:0:0:
448,192,118565,1,0,0:0:0:0:
320,192,118701,1,0,0:0:0:0:
448,192,118701,1,0,0:0:0:0:
64,192,118701,1,0,0:0:0:0:
192,192,118792,1,0,0:0:0:0:
320,192,118883,1,0,0:0:0:0:
64,192,118974,128,0,119247:0:0:0:0:
192,192,118974,128,0,119110:0:0:0:0:
448,192,119110,1,0,0:0:0:0:
320,192,119110,1,0,0:0:0:0:
448,192,119247,128,0,119520:0:0:0:0:
320,192,119247,128,0,119383:0:0:0:0:
64,192,119383,1,0,0:0:0:0:
192,192,119383,1,0,0:0:0:0:
320,192,119520,1,0,0:0:0:0:
192,192,119520,1,0,0:0:0:0:
64,192,119656,128,0,120201:0:0:0:0:
448,192,119656,1,0,0:0:0:0:
320,192,119724,1,0,0:0:0:0:
192,192,119792,1,0,0:0:0:0:
320,192,119928,1,0,0:0:0:0:
448,192,119928,1,0,0:0:0:0:
192,192,120064,1,0,0:0:0:0:
448,192,120064,1,0,0:0:0:0:
192,192,120201,1,0,0:0:0:0:
320,192,120201,1,0,0:0:0:0:
64,192,120337,1,0,0:0:0:0:
448,192,120337,1,0,0:0:0:0:
320,192,120473,1,0,0:0:0:0:
448,192,120473,1,0,0:0:0:0:
64,192,120610,1,0,0:0:0:0:
192,192,120610,1,0,0:0:0:0:
448,192,120678,1,0,0:0:0:0:
320,192,120746,1,0,0:0:0:0:
192,192,120814,1,0,0:0:0:0:
64,192,120814,1,0,0:0:0:0:
448,192,120882,1,0,0:0:0:0:
320,192,120882,1,0,0:0:0:0:
64,192,120951,1,0,0:0:0:0:
192,192,121019,1,0,0:0:0:0:
320,192,121087,1,0,0:0:0:0:
448,192,121155,1,0,0:0:0:0:
64,192,121155,128,0,121427:0:0:0:0:
192,192,121155,128,0,121291:0:0:0:0:
448,192,121291,1,0,0:0:0:0:
320,192,121291,1,0,0:0:0:0:
320,192,121427,128,0,121564:0:0:0:0:
192,192,121427,1,0,0:0:0:0:
192,192,121564,128,0,121700:0:0:0:0:
64,192,121564,128,0,121700:0:0:0:0:
448,192,121700,1,0,0:0:0:0:
320,192,121700,1,0,0:0:0:0:
192,192,121836,128,0,121973:0:0:0:0:
320,192,121836,128,0,121973:0:0:0:0:
448,192,121973,1,0,0:0:0:0:
64,192,121973,1,0,0:0:0:0:
448,192,122109,128,0,122245:0:0:0:0:
320,192,122109,128,0,122245:0:0:0:0:
192,192,122177,1,0,0:0:0:0:
64,192,122245,1,0,0:0:0:0:
64,192,122382,128,0,122518:0:0:0:0:
192,192,122382,128,0,122518:0:0:0:0:
320,192,122518,1,0,0:0:0:0:
448,192,122518,1,0,0:0:0:0:
192,192,122655,128,0,122791:0:0:0:0:
320,192,122655,128,0,122791:0:0:0:0:
64,192,122791,1,0,0:0:0:0:
448,192,122791,1,0,0:0:0:0:
320,192,122927,128,0,123064:0:0:0:0:
448,192,122927,128,0,123200:0:0:0:0:
64,192,123064,1,0,0:0:0:0:
192,192,123132,1,0,0:0:0:0:
320,192,123200,1,0,0:0:0:0:
64,192,123268,1,0,0:0:0:0:
448,192,123336,1,0,0:0:0:0:
192,192,123336,1,0,0:0:0:0:
320,192,123336,1,0,0:0:0:0:
64,192,123405,1,0,0:0:0:0:
320,192,123473,1,0,0:0:0:0:
448,192,123473,1,0,0:0:0:0:
192,192,123609,1,0,0:0:0:0:
64,192,123609,1,0,0:0:0:0:
320,192,123745,1,0,0:0:0:0:
448,192,123745,1,0,0:0:0:0:
448,192,123882,1,0,0:0:0:0:
192,192,123882,1,0,0:0:0:0:
64,192,124018,1,0,0:0:0:0:
320,192,124018,1,0,0:0:0:0:
64,192,124155,1,0,0:0:0:0:
192,192,124155,1,0,0:0:0:0:
320,192,124291,1,0,0:0:0:0:
448,192,124291,1,0,0:0:0:0:
192,192,124359,1,0,0:0:0:0:
64,192,124427,1,0,0:0:0:0:
320,192,124564,1,0,0:0:0:0:
192,192,124564,1,0,0:0:0:0:
64,192,124700,1,0,0:0:0:0:
448,192,124700,1,0,0:0:0:0:
320,192,124836,1,0,0:0:0:0:
64,192,124836,128,0,125109:0:0:0:0:
192,192,124836,128,0,124973:0:0:0:0:
320,192,125109,1,0,0:0:0:0:
192,192,125109,1,0,0:0:0:0:
448,192,125245,1,0,0:0:0:0:
320,192,125245,1,0,0:0:0:0:
448,192,125382,128,0,125655:0:0:0:0:
192,192,125382,128,0,125518:0:0:0:0:
64,192,125518,1,0,0:0:0:0:
192,192,125655,1,0,0:0:0:0:
320,192,125655,1,0,0:0:0:0:
448,192,125791,1,0,0:0:0:0:
64,192,125791,1,0,0:0:0:0:
320,192,125927,1,0,0:0:0:0:
448,192,125927,1,0,0:0:0:0:
192,192,126064,1,0,0:0:0:0:
64,192,126064,1,0,0:0:0:0:
320,192,126200,1,0,0:0:0:0:
192,192,126200,1,0,0:0:0:0:
64,192,126336,1,0,0:0:0:0:
448,192,126336,1,0,0:0:0:0:
320,192,126336,1,0,0:0:0:0:
64,192,126472,1,0,0:0:0:0:
192,192,126472,1,0,0:0:0:0:
192,192,126608,1,0,0:0:0:0:
448,192,126608,1,0,0:0:0:0:
64,192,126745,1,0,0:0:0:0:
320,192,126745,1,0,0:0:0:0:
192,192,126881,1,0,0:0:0:0:
320,192,126881,1,0,0:0:0:0:
192,192,127017,1,0,0:0:0:0:
320,192,127017,1,0,0:0:0:0:
64,192,127154,1,0,0:0:0:0:
448,192,127154,1,0,0:0:0:0:
320,192,127290,1,0,0:0:0:0:
448,192,127290,1,0,0:0:0:0:
192,192,127426,1,0,0:0:0:0:
64,192,127426,1,0,0:0:0:0:
64,192,127563,1,0,0:0:0:0:
448,192,127563,1,0,0:0:0:0:
320,192,127699,1,0,0:0:0:0:
448,192,127699,1,0,0:0:0:0:
192,192,127836,1,0,0:0:0:0:
64,192,127836,1,0,0:0:0:0:
64,192,127972,1,0,0:0:0:0:
192,192,127972,1,0,0:0:0:0:
320,192,128108,1,0,0:0:0:0:
448,192,128108,1,0,0:0:0:0:
448,192,128245,1,0,0:0:0:0:
64,192,128245,1,0,0:0:0:0:
320,192,128245,1,0,0:0:0:0:
64,192,128381,1,0,0:0:0:0:
192,192,128381,1,0,0:0:0:0:
192,192,128517,1,0,0:0:0:0:
448,192,128517,1,0,0:0:0:0:
320,192,128654,1,0,0:0:0:0:
64,192,128654,1,0,0:0:0:0:
320,192,128790,1,0,0:0:0:0:
192,192,128790,1,0,0:0:0:0:
320,192,128926,1,0,0:0:0:0:
192,192,128926,1,0,0:0:0:0:
64,192,129063,1,0,0:0:0:0:
448,192,129063,1,0,0:0:0:0:
448,192,129199,1,0,0:0:0:0:
320,192,129199,1,0,0:0:0:0:
64,192,129336,1,0,0:0:0:0:
192,192,129336,1,0,0:0:0:0:
64,192,129472,1,0,0:0:0:0:
448,192,129472,1,0,0:0:0:0:
448,192,129608,1,0,0:0:0:0:
320,192,129608,1,0,0:0:0:0:
64,192,129745,1,0,0:0:0:0:
320,192,129745,1,0,0:0:0:0:
192,192,129881,1,0,0:0:0:0:
64,192,129881,1,0,0:0:0:0:
320,192,130017,1,0,0:0:0:0:
448,192,130017,1,0,0:0:0:0:
64,192,130154,1,0,0:0:0:0:
448,192,130154,1,0,0:0:0:0:
320,192,130154,1,0,0:0:0:0:
64,192,130290,1,0,0:0:0:0:
192,192,130290,1,0,0:0:0:0:
192,192,130426,1,0,0:0:0:0:
320,192,130426,1,0,0:0:0:0:
448,192,130563,1,0,0:0:0:0:
320,192,130563,1,0,0:0:0:0:
448,192,130699,1,0,0:0:0:0:
64,192,130699,1,0,0:0:0:0:
448,192,130836,1,0,0:0:0:0:
64,192,130836,1,0,0:0:0:0:
192,192,130972,1,0,0:0:0:0:
320,192,130972,1,0,0:0:0:0:
320,192,131108,1,0,0:0:0:0:
64,192,131108,1,0,0:0:0:0:
448,192,131245,1,0,0:0:0:0:
192,192,131245,1,0,0:0:0:0:
64,192,131381,1,0,0:0:0:0:
448,192,131381,1,0,0:0:0:0:
192,192,131517,1,0,0:0:0:0:
64,192,131517,1,0,0:0:0:0:
448,192,131654,1,0,0:0:0:0:
320,192,131654,1,0,0:0:0:0:
448,192,131790,1,0,0:0:0:0:
320,192,131790,1,0,0:0:0:0:
192,192,131926,1,0,0:0:0:0:
64,192,131926,1,0,0:0:0:0:
64,192,132063,1,0,0:0:0:0:
192,192,132063,1,0,0:0:0:0:
320,192,132063,1,0,0:0:0:0:
320,192,132199,1,0,0:0:0:0:
448,192,132199,1,0,0:0:0:0:
448,192,132335,1,0,0:0:0:0:
192,192,132335,1,0,0:0:0:0:
64,192,132472,1,0,0:0:0:0:
192,192,132472,1,0,0:0:0:0:
64,192,132608,1,0,0:0:0:0:
448,192,132608,1,0,0:0:0:0:
64,192,132744,1,0,0:0:0:0:
448,192,132744,1,0,0:0:0:0:
320,192,132881,1,0,0:0:0:0:
192,192,132881,1,0,0:0:0:0:
192,192,133017,1,0,0:0:0:0:
448,192,133017,1,0,0:0:0:0:
64,192,133153,1,0,0:0:0:0:
320,192,133153,1,0,0:0:0:0:
448,192,133290,1,0,0:0:0:0:
64,192,133290,1,0,0:0:0:0:
448,192,133426,1,0,0:0:0:0:
320,192,133426,1,0,0:0:0:0:
64,192,133563,1,0,0:0:0:0:
192,192,133563,1,0,0:0:0:0:
64,192,133699,1,0,0:0:0:0:
192,192,133699,1,0,0:0:0:0:
192,192,133835,1,0,0:0:0:0:
64,192,133835,1,0,0:0:0:0:
320,192,133972,1,0,0:0:0:0:
448,192,133972,1,0,0:0:0:0:
320,192,134108,1,0,0:0:0:0:
448,192,134108,1,0,0:0:0:0:
64,192,134244,128,0,134584:0:0:0:0:
448,192,134244,128,0,134380:0:0:0:0:
320,192,134244,128,0,134448:0:0:0:0:
320,192,134516,128,0,134857:0:0:0:0:
192,192,134516,128,0,134721:0:0:0:0:
448,192,134516,128,0,134653:0:0:0:0:
192,192,134789,128,0,135130:0:0:0:0:
64,192,134789,128,0,134994:0:0:0:0:
448,192,134789,128,0,134994:0:0:0:0:
448,192,135062,128,0,135403:0:0:0:0:
320,192,135062,128,0,135266:0:0:0:0:
64,192,135062,128,0,135198:0:0:0:0:
320,192,135334,128,0,135471:0:0:0:0:
192,192,135334,128,0,135539:0:0:0:0:
64,192,135334,128,0,135675:0:0:0:0:
192,192,135607,128,0,135948:0:0:0:0:
320,192,135607,128,0,135812:0:0:0:0:
448,192,135607,128,0,135812:0:0:0:0:
320,192,135880,128,0,136084:0:0:0:0:
448,192,135880,128,0,136221:0:0:0:0:
64,192,135880,128,0,136016:0:0:0:0:
192,192,136153,128,0,136494:0:0:0:0:
64,192,136153,128,0,136357:0:0:0:0:
320,192,136153,128,0,136289:0:0:0:0:
320,192,136425,128,0,136630:0:0:0:0:
64,192,136425,128,0,136766:0:0:0:0:
448,192,136425,128,0,136630:0:0:0:0:
192,192,136698,128,0,136834:0:0:0:0:
320,192,136698,128,0,136903:0:0:0:0:
448,192,136698,128,0,137039:0:0:0:0:
320,192,136971,128,0,137107:0:0:0:0:
192,192,136971,128,0,137175:0:0:0:0:
64,192,136971,128,0,137312:0:0:0:0:
448,192,137244,128,0,137516:0:0:0:0:
192,192,137244,128,0,137448:0:0:0:0:
320,192,137244,128,0,137448:0:0:0:0:
64,192,137516,1,0,0:0:0:0:
320,192,137516,1,0,0:0:0:0:
192,192,137584,1,0,0:0:0:0:
64,192,137653,1,0,0:0:0:0:
448,192,137721,1,0,0:0:0:0:
192,192,137789,1,0,0:0:0:0:
320,192,137789,1,0,0:0:0:0:
448,192,137857,1,0,0:0:0:0:
192,192,137925,1,0,0:0:0:0:
320,192,137994,1,0,0:0:0:0:
64,192,138062,1,0,0:0:0:0:
448,192,138062,1,0,0:0:0:0:
192,192,138130,1,0,0:0:0:0:
64,192,138198,1,0,0:0:0:0:
448,192,138266,1,0,0:0:0:0:
192,192,138334,1,0,0:0:0:0:
320,192,138334,1,0,0:0:0:0:
64,192,138403,1,0,0:0:0:0:
320,192,138471,1,0,0:0:0:0:
64,192,138539,1,0,0:0:0:0:
192,192,138607,1,0,0:0:0:0:
448,192,138607,1,0,0:0:0:0:
320,192,138675,1,0,0:0:0:0:
192,192,138744,1,0,0:0:0:0:
448,192,138812,1,0,0:0:0:0:
320,192,138880,1,0,0:0:0:0:
64,192,138880,1,0,0:0:0:0:
192,192,138948,1,0,0:0:0:0:
320,192,139016,1,0,0:0:0:0:
64,192,139084,1,0,0:0:0:0:
192,192,139153,128,0,139403:0:0:0:0:
320,192,139184,128,0,139340:0:0:0:0:
448,192,139215,128,0,139278:0:0:0:0:
64,192,139496,1,0,0:0:0:0:
448,192,139528,128,0,139778:0:0:0:0:
320,192,139559,128,0,139715:0:0:0:0:
192,192,139590,128,0,139653:0:0:0:0:
448,192,139903,1,0,0:0:0:0:
320,192,139903,128,0,140090:0:0:0:0:
192,192,139934,128,0,140184:0:0:0:0:
64,192,139965,128,0,140278:0:0:0:0:
192,192,140278,128,0,140528:0:0:0:0:
320,192,140309,128,0,140465:0:0:0:0:
448,192,140340,128,0,140403:0:0:0:0:
448,192,140621,1,0,0:0:0:0:
64,192,140653,128,0,140903:0:0:0:0:
192,192,140684,128,0,140840:0:0:0:0:
320,192,140715,128,0,140778:0:0:0:0:
64,192,141028,1,0,0:0:0:0:
192,192,141028,128,0,141215:0:0:0:0:
320,192,141059,128,0,141309:0:0:0:0:
448,192,141090,128,0,141403:0:0:0:0:
320,192,141403,128,0,141653:0:0:0:0:
192,192,141434,128,0,141590:0:0:0:0:
64,192,141465,128,0,141528:0:0:0:0:
64,192,141746,1,0,0:0:0:0:
192,192,141778,128,0,142028:0:0:0:0:
320,192,141809,128,0,141965:0:0:0:0:
448,192,141840,128,0,141903:0:0:0:0:
448,192,142153,1,0,0:0:0:0:
64,192,142153,128,0,142340:0:0:0:0:
192,192,142184,128,0,142434:0:0:0:0:
320,192,142215,128,0,142528:0:0:0:0:
64,192,142528,128,0,142778:0:0:0:0:
192,192,142559,128,0,142715:0:0:0:0:
320,192,142590,128,0,142653:0:0:0:0:
64,192,142871,1,0,0:0:0:0:
448,192,142903,128,0,143153:0:0:0:0:
320,192,142934,128,0,143090:0:0:0:0:
192,192,142965,128,0,143028:0:0:0:0:
64,192,143278,1,0,0:0:0:0:
448,192,143278,128,0,143465:0:0:0:0:
320,192,143309,128,0,143559:0:0:0:0:
192,192,143340,128,0,143653:0:0:0:0:
448,192,143653,128,0,143746:0:0:0:0:
320,192,143653,128,0,143840:0:0:0:0:
64,192,143684,128,0,143934:0:0:0:0:
192,192,143840,1,0,0:0:0:0:
448,192,143840,1,0,0:0:0:0:
64,192,144028,128,0,144121:0:0:0:0:
192,192,144059,128,0,144215:0:0:0:0:
320,192,144215,1,0,0:0:0:0:
448,192,144215,1,0,0:0:0:0:
448,192,144403,128,0,144496:0:0:0:0:
192,192,144403,128,0,144684:0:0:0:0:
320,192,144403,128,0,144684:0:0:0:0:
448,192,144590,128,0,144684:0:0:0:0:
64,192,144590,1,0,0:0:0:0:
448,192,144778,128,0,144871:0:0:0:0:
320,192,144778,128,0,144965:0:0:0:0:
64,192,144809,128,0,145059:0:0:0:0:
192,192,144965,1,0,0:0:0:0:
448,192,144965,1,0,0:0:0:0:
192,192,145153,128,0,145246:0:0:0:0:
320,192,145184,128,0,145340:0:0:0:0:
448,192,145340,1,0,0:0:0:0:
64,192,145340,1,0,0:0:0:0:
192,192,145528,128,0,145809:0:0:0:0:
320,192,145528,1,0,0:0:0:0:
64,192,145528,128,0,145809:0:0:0:0:
448,192,145715,1,0,0:0:0:0:
320,192,145715,1,0,0:0:0:0:
64,192,145903,128,0,145996:0:0:0:0:
192,192,145903,128,0,146090:0:0:0:0:
448,192,145934,128,0,146184:0:0:0:0:
320,192,146090,1,0,0:0:0:0:
64,192,146090,1,0,0:0:0:0:
448,192,146278,128,0,146371:0:0:0:0:
320,192,146309,128,0,146465:0:0:0:0:
192,192,146465,1,0,0:0:0:0:
64,192,146465,1,0,0:0:0:0:
192,192,146653,128,0,146746:0:0:0:0:
64,192,146653,128,0,146934:0:0:0:0:
448,192,146653,128,0,146934:0:0:0:0:
192,192,146840,128,0,146934:0:0:0:0:
64,192,147028,128,0,147121:0:0:0:0:
320,192,147028,128,0,147215:0:0:0:0:
448,192,147059,128,0,147309:0:0:0:0:
64,192,147215,1,0,0:0:0:0:
192,192,147215,1,0,0:0:0:0:
192,192,147403,128,0,147496:0:0:0:0:
320,192,147434,128,0,147590:0:0:0:0:
64,192,147590,1,0,0:0:0:0:
448,192,147590,1,0,0:0:0:0:
64,192,147778,128,0,147871:0:0:0:0:
320,192,147778,128,0,148059:0:0:0:0:
192,192,147778,128,0,148059:0:0:0:0:
64,192,147965,128,0,148059:0:0:0:0:
320,192,148153,1,0,0:0:0:0:
192,192,148153,128,0,148340:0:0:0:0:
448,192,148153,128,0,148246:0:0:0:0:
64,192,148340,128,0,148715:0:0:0:0:
320,192,148340,128,0,148528:0:0:0:0:
448,192,148340,128,0,148621:0:0:0:0:
320,192,148715,1,0,0:0:0:0:
192,192,148715,1,0,0:0:0:0:
448,192,148715,128,0,149184:0:0:0:0:
64,192,148903,1,0,0:0:0:0:
320,192,148903,128,0,149278:0:0:0:0:
192,192,148903,128,0,149090:0:0:0:0:
192,192,149278,1,0,0:0:0:0:
64,192,149278,128,0,149465:0:0:0:0:
448,192,149278,128,0,149371:0:0:0:0:
320,192,149465,1,0,0:0:0:0:
192,192,149465,128,0,149653:0:0:0:0:
448,192,149465,128,0,149559:0:0:0:0:
320,192,149653,128,0,150028:0:0:0:0:
448,192,149653,128,0,149934:0:0:0:0:
64,192,149653,1,0,0:0:0:0:
448,192,150028,128,0,150684:0:0:0:0:
192,192,150028,1,0,0:0:0:0:
64,192,150028,128,0,150215:0:0:0:0:
320,192,150403,128,0,150778:0:0:0:0:
64,192,150403,1,0,0:0:0:0:
192,192,150403,128,0,150590:0:0:0:0:
448,192,150778,1,0,0:0:0:0:
192,192,150778,1,0,0:0:0:0:
64,192,150778,128,0,151059:0:0:0:0:
448,192,150965,1,0,0:0:0:0:
320,192,150965,1,0,0:0:0:0:
192,192,150965,128,0,151153:0:0:0:0:
320,192,151153,1,0,0:0:0:0:
448,192,151153,128,0,151340:0:0:0:0:
64,192,151153,128,0,151246:0:0:0:0:
320,192,151340,128,0,151715:0:0:0:0:
192,192,151340,128,0,151528:0:0:0:0:
64,192,151340,128,0,151621:0:0:0:0:
448,192,151715,1,0,0:0:0:0:
192,192,151715,1,0,0:0:0:0:
64,192,151715,128,0,152184:0:0:0:0:
448,192,151903,1,0,0:0:0:0:
192,192,151903,128,0,152278:0:0:0:0:
320,192,151903,128,0,152090:0:0:0:0:
320,192,152278,1,0,0:0:0:0:
448,192,152278,128,0,152465:0:0:0:0:
64,192,152278,128,0,152371:0:0:0:0:
192,192,152465,1,0,0:0:0:0:
320,192,152465,128,0,152653:0:0:0:0:
64,192,152465,128,0,152559:0:0:0:0:
192,192,152653,128,0,153403:0:0:0:0:
64,192,152653,128,0,152934:0:0:0:0:
448,192,152653,1,0,0:0:0:0:
64,192,153028,128,0,153309:0:0:0:0:
448,192,153028,1,0,0:0:0:0:
320,192,153028,1,0,0:0:0:0:
320,192,153403,1,0,0:0:0:0:
448,192,153403,1,0,0:0:0:0:
64,192,153403,1,0,0:0:0:0:
320,192,153590,1,0,0:0:0:0:
448,192,153590,1,0,0:0:0:0:
192,192,153684,1,0,0:0:0:0:
320,192,153778,1,0,0:0:0:0:
64,192,153778,1,0,0:0:0:0:
448,192,153778,1,0,0:0:0:0:
320,192,153965,128,0,154153:0:0:0:0:
448,192,153965,128,0,154153:0:0:0:0:
192,192,154153,1,0,0:0:0:0:
64,192,154153,1,0,0:0:0:0:
320,192,154340,1,0,0:0:0:0:
448,192,154340,1,0,0:0:0:0:
192,192,154434,1,0,0:0:0:0:
64,192,154528,128,0,154715:0:0:0:0:
448,192,154528,128,0,154903:0:0:0:0:
320,192,154528,128,0,154903:0:0:0:0:
64,192,154903,128,0,155090:0:0:0:0:
192,192,155278,128,0,155465:0:0:0:0:
64,192,155278,128,0,155559:0:0:0:0:
320,192,155278,128,0,155371:0:0:0:0:
320,192,155465,1,0,0:0:0:0:
448,192,155465,1,0,0:0:0:0:
192,192,155559,1,0,0:0:0:0:
320,192,155653,128,0,155840:0:0:0:0:
448,192,155653,128,0,156028:0:0:0:0:
192,192,155840,1,0,0:0:0:0:
64,192,155840,1,0,0:0:0:0:
320,192,156028,128,0,156215:0:0:0:0:
64,192,156028,1,0,0:0:0:0:
448,192,156215,128,0,156590:0:0:0:0:
192,192,156215,128,0,156309:0:0:0:0:
64,192,156215,128,0,156309:0:0:0:0:
320,192,156309,1,0,0:0:0:0:
192,192,156403,1,0,0:0:0:0:
64,192,156403,1,0,0:0:0:0:
320,192,156590,1,0,0:0:0:0:
64,192,156590,1,0,0:0:0:0:
320,192,156778,128,0,156965:0:0:0:0:
448,192,156778,128,0,156965:0:0:0:0:
192,192,156965,1,0,0:0:0:0:
64,192,156965,1,0,0:0:0:0:
448,192,157153,128,0,157340:0:0:0:0:
320,192,157153,128,0,157340:0:0:0:0:
64,192,157153,1,0,0:0:0:0:
192,192,157340,1,0,0:0:0:0:
64,192,157340,1,0,0:0:0:0:
448,192,157434,1,0,0:0:0:0:
192,192,157528,128,0,157903:0:0:0:0:
320,192,157528,128,0,157715:0:0:0:0:
64,192,157715,128,0,157903:0:0:0:0:
448,192,157715,1,0,0:0:0:0:
320,192,157903,1,0,0:0:0:0:
448,192,157903,1,0,0:0:0:0:
192,192,158090,128,0,158184:0:0:0:0:
64,192,158090,1,0,0:0:0:0:
320,192,158184,1,0,0:0:0:0:
192,192,158278,128,0,158653:0:0:0:0:
64,192,158278,128,0,158465:0:0:0:0:
448,192,158465,1,0,0:0:0:0:
320,192,158465,128,0,158653:0:0:0:0:
448,192,158653,128,0,158840:0:0:0:0:
64,192,158653,128,0,159028:0:0:0:0:
192,192,158840,1,0,0:0:0:0:
320,192,158840,1,0,0:0:0:0:
448,192,159028,128,0,159309:0:0:0:0:
320,192,159028,128,0,159215:0:0:0:0:
192,192,159028,128,0,159121:0:0:0:0:
64,192,159215,1,0,0:0:0:0:
192,192,159215,1,0,0:0:0:0:
320,192,159309,1,0,0:0:0:0:
448,192,159403,128,0,159496:0:0:0:0:
64,192,159403,1,0,0:0:0:0:
192,192,159590,1,0,0:0:0:0:
448,192,159590,128,0,159684:0:0:0:0:
64,192,159778,128,0,159871:0:0:0:0:
320,192,159778,1,0,0:0:0:0:
64,192,159965,128,0,160059:0:0:0:0:
448,192,159965,1,0,0:0:0:0:
192,192,160059,1,0,0:0:0:0:
320,192,160153,128,0,160340:0:0:0:0:
64,192,160153,1,0,0:0:0:0:
448,192,160153,128,0,160528:0:0:0:0:
192,192,160340,1,0,0:0:0:0:
64,192,160340,1,0,0:0:0:0:
192,192,160528,128,0,160715:0:0:0:0:
320,192,160528,1,0,0:0:0:0:
320,192,160715,128,0,160903:0:0:0:0:
448,192,160903,1,0,0:0:0:0:
64,192,160903,128,0,161184:0:0:0:0:
192,192,160903,128,0,161090:0:0:0:0:
320,192,161090,1,0,0:0:0:0:
448,192,161090,1,0,0:0:0:0:
192,192,161184,1,0,0:0:0:0:
64,192,161278,1,0,0:0:0:0:
320,192,161278,128,0,161653:0:0:0:0:
192,192,161465,1,0,0:0:0:0:
448,192,161465,128,0,161653:0:0:0:0:
192,192,161653,1,0,0:0:0:0:
64,192,161653,1,0,0:0:0:0:
64,192,161840,1,0,0:0:0:0:
448,192,161840,128,0,162028:0:0:0:0:
320,192,161934,128,0,162028:0:0:0:0:
192,192,162028,128,0,162121:0:0:0:0:
64,192,162028,128,0,162121:0:0:0:0:
448,192,162121,1,0,0:0:0:0:
320,192,162121,1,0,0:0:0:0:
192,192,162215,1,0,0:0:0:0:
64,192,162309,1,0,0:0:0:0:
320,192,162403,128,0,162496:0:0:0:0:
448,192,162403,128,0,162496:0:0:0:0:
192,192,162496,1,0,0:0:0:0:
64,192,162496,1,0,0:0:0:0:
448,192,162590,1,0,0:0:0:0:
320,192,162590,1,0,0:0:0:0:
192,192,162684,1,0,0:0:0:0:
64,192,162778,1,0,0:0:0:0:
448,192,162778,128,0,162965:0:0:0:0:
320,192,162778,128,0,162965:0:0:0:0:
192,192,162965,1,0,0:0:0:0:
64,192,162965,1,0,0:0:0:0:
320,192,163059,1,0,0:0:0:0:
192,192,163153,128,0,163528:0:0:0:0:
448,192,163153,128,0,163340:0:0:0:0:
320,192,163340,128,0,163528:0:0:0:0:
64,192,163340,1,0,0:0:0:0:
448,192,163528,1,0,0:0:0:0:
320,192,163715,1,0,0:0:0:0:
64,192,163715,128,0,163903:0:0:0:0:
192,192,163809,128,0,163903:0:0:0:0:
448,192,163903,128,0,164090:0:0:0:0:
320,192,163903,128,0,164090:0:0:0:0:
192,192,164090,1,0,0:0:0:0:
64,192,164090,1,0,0:0:0:0:
448,192,164184,1,0,0:0:0:0:
320,192,164184,1,0,0:0:0:0:
192,192,164278,128,0,164371:0:0:0:0:
448,192,164371,1,0,0:0:0:0:
320,192,164371,1,0,0:0:0:0:
192,192,164465,1,0,0:0:0:0:
64,192,164465,128,0,164559:0:0:0:0:
448,192,164653,128,0,164840:0:0:0:0:
320,192,164653,128,0,164840:0:0:0:0:
64,192,164653,1,0,0:0:0:0:
64,192,164840,1,0,0:0:0:0:
192,192,164840,1,0,0:0:0:0:
448,192,164934,1,0,0:0:0:0:
320,192,165028,128,0,165403:0:0:0:0:
192,192,165028,128,0,165215:0:0:0:0:
448,192,165215,128,0,165403:0:0:0:0:
64,192,165215,1,0,0:0:0:0:
192,192,165403,1,0,0:0:0:0:
64,192,165590,1,0,0:0:0:0:
448,192,165590,128,0,165778:0:0:0:0:
320,192,165684,128,0,165778:0:0:0:0:
192,192,165778,128,0,165965:0:0:0:0:
64,192,165778,128,0,165871:0:0:0:0:
448,192,165871,1,0,0:0:0:0:
320,192,165871,1,0,0:0:0:0:
64,192,165965,1,0,0:0:0:0:
192,192,166059,1,0,0:0:0:0:
448,192,166059,1,0,0:0:0:0:
320,192,166153,1,0,0:0:0:0:
64,192,166153,128,0,166246:0:0:0:0:
448,192,166246,1,0,0:0:0:0:
192,192,166340,1,0,0:0:0:0:
64,192,166340,1,0,0:0:0:0:
448,192,166434,1,0,0:0:0:0:
320,192,166528,1,0,0:0:0:0:
64,192,166528,128,0,166715:0:0:0:0:
192,192,166528,128,0,166715:0:0:0:0:
448,192,166715,1,0,0:0:0:0:
320,192,166715,1,0,0:0:0:0:
192,192,166809,1,0,0:0:0:0:
448,192,166903,128,0,167278:0:0:0:0:
64,192,166903,128,0,167090:0:0:0:0:
320,192,167090,128,0,167278:0:0:0:0:
192,192,167090,1,0,0:0:0:0:
64,192,167278,1,0,0:0:0:0:
448,192,167465,1,0,0:0:0:0:
192,192,167465,1,0,0:0:0:0:
320,192,167559,1,0,0:0:0:0:
192,192,167653,128,0,167840:0:0:0:0:
64,192,167653,128,0,167840:0:0:0:0:
320,192,167840,1,0,0:0:0:0:
448,192,167840,1,0,0:0:0:0:
64,192,168028,128,0,168215:0:0:0:0:
448,192,168028,128,0,168403:0:0:0:0:
192,192,168215,1,0,0:0:0:0:
320,192,168215,128,0,168309:0:0:0:0:
192,192,168403,128,0,168590:0:0:0:0:
320,192,168403,128,0,168496:0:0:0:0:
64,192,168403,128,0,168590:0:0:0:0:
320,192,168590,128,0,168778:0:0:0:0:
448,192,168590,128,0,168684:0:0:0:0:
64,192,168684,128,0,168965:0:0:0:0:
448,192,168778,128,0,168965:0:0:0:0:
192,192,168778,128,0,168871:0:0:0:0:
192,192,168965,128,0,169153:0:0:0:0:
320,192,168965,128,0,169434:0:0:0:0:
64,192,169153,128,0,169246:0:0:0:0:
448,192,169153,128,0,169434:0:0:0:0:
192,192,169246,128,0,169434:0:0:0:0:
64,192,169340,128,0,169434:0:0:0:0:
192,192,169528,128,0,170278:0:0:0:0:
320,192,169528,1,0,0:0:0:0:
320,192,169715,1,0,0:0:0:0:
320,192,169903,1,0,0:0:0:0:
320,192,170090,1,0,0:0:0:0:
448,192,170184,1,0,0:0:0:0:
64,192,170278,128,0,170653:0:0:0:0:
320,192,170653,128,0,172528:0:0:0:0:
448,192,170653,128,0,174028:0:0:0:0:
192,192,170653,1,0,0:0:0:0:
192,192,171778,128,0,172715:0:0:0:0:
64,192,172528,128,0,172715:0:0:0:0:
320,192,172715,128,0,172903:0:0:0:0:
64,192,172903,128,0,173278:0:0:0:0:
320,192,173090,128,0,173465:0:0:0:0:
192,192,173278,128,0,173840:0:0:0:0:
64,192,173465,128,0,173840:0:0:0:0:
320,192,173840,128,0,174028:0:0:0:0:
192,192,174028,128,0,174778:0:0:0:0:
64,192,174028,1,0,0:0:0:0:
320,192,174215,128,0,174590:0:0:0:0:
64,192,174403,128,0,174965:0:0:0:0:
448,192,174590,1,0,0:0:0:0:
320,192,174778,128,0,174965:0:0:0:0:
192,192,174965,128,0,175153:0:0:0:0:
64,192,175153,1,0,0:0:0:0:
320,192,175153,1,0,0:0:0:0:
448,192,175153,1,0,0:0:0:0:
64,192,175340,1,0,0:0:0:0:
64,192,175528,1,0,0:0:0:0:
320,192,175715,1,0,0:0:0:0:
320,192,175903,1,0,0:0:0:0:
320,192,176090,1,0,0:0:0:0:
192,192,176278,1,0,0:0:0:0:
448,192,176278,1,0,0:0:0:0:
64,192,176278,1,0,0:0:0:0:
192,192,176465,1,0,0:0:0:0:
320,192,176465,1,0,0:0:0:0:
192,192,176653,1,0,0:0:0:0:
64,192,176653,1,0,0:0:0:0:
448,192,176840,1,0,0:0:0:0:
320,192,176840,1,0,0:0:0:0:
448,192,177028,1,0,0:0:0:0:
192,192,177028,1,0,0:0:0:0:
64,192,177028,1,0,0:0:0:0:
448,192,177215,128,0,177403:0:0:0:0:
192,192,177403,128,0,178153:0:0:0:0:
64,192,177403,128,0,178528:0:0:0:0:
320,192,177403,128,0,177778:0:0:0:0:
448,192,177778,1,0,0:0:0:0:
320,192,178153,1,0,0:0:0:0:
192,192,178528,1,0,0:0:0:0:
320,192,178528,1,0,0:0:0:0:
448,192,178528,1,0,0:0:0:0:
64,192,178809,1,0,0:0:0:0:
192,192,178809,1,0,0:0:0:0:
448,192,178809,1,0,0:0:0:0:
192,192,179090,1,0,0:0:0:0:
320,192,179090,1,0,0:0:0:0:
64,192,179371,1,0,0:0:0:0:
320,192,179371,1,0,0:0:0:0:
448,192,179371,1,0,0:0:0:0:
64,192,179653,128,0,180028:0:0:0:0:
192,192,179653,128,0,179903:0:0:0:0:
320,192,179653,128,0,179778:0:0:0:0:
448,192,179653,1,0,0:0:0:0:
448,192,180028,1,0,0:0:0:0:
64,192,180215,1,0,0:0:0:0:
192,192,180215,1,0,0:0:0:0:
320,192,180403,1,0,0:0:0:0:
448,192,180590,1,0,0:0:0:0:
64,192,180590,1,0,0:0:0:0:
448,192,180778,128,0,181528:0:0:0:0:
320,192,180778,128,0,181153:0:0:0:0:
192,192,180778,1,0,0:0:0:0:
64,192,181153,1,0,0:0:0:0:
192,192,181340,1,0,0:0:0:0:
320,192,181340,1,0,0:0:0:0:
64,192,181528,128,0,181715:0:0:0:0:
320,192,181715,1,0,0:0:0:0:
448,192,181715,1,0,0:0:0:0:
192,192,181903,128,0,182278:0:0:0:0:
320,192,181903,128,0,182653:0:0:0:0:
64,192,181903,1,0,0:0:0:0:
448,192,182278,1,0,0:0:0:0:
64,192,182465,1,0,0:0:0:0:
192,192,182465,1,0,0:0:0:0:
448,192,182653,1,0,0:0:0:0:
192,192,182840,1,0,0:0:0:0:
320,192,182840,1,0,0:0:0:0:
64,192,183028,128,0,183403:0:0:0:0:
448,192,183028,1,0,0:0:0:0:
192,192,183028,128,0,183590:0:0:0:0:
448,192,183403,128,0,183778:0:0:0:0:
320,192,183403,128,0,183590:0:0:0:0:
64,192,183778,128,0,184153:0:0:0:0:
320,192,183778,1,0,0:0:0:0:
192,192,183778,128,0,183965:0:0:0:0:
448,192,184153,1,0,0:0:0:0:
320,192,184153,128,0,184528:0:0:0:0:
192,192,184153,128,0,184903:0:0:0:0:
64,192,184528,1,0,0:0:0:0:
320,192,184715,1,0,0:0:0:0:
448,192,184715,1,0,0:0:0:0:
64,192,184903,1,0,0:0:0:0:
192,192,185090,1,0,0:0:0:0:
320,192,185090,1,0,0:0:0:0:
64,192,185278,1,0,0:0:0:0:
448,192,185278,1,0,0:0:0:0:
320,192,185278,128,0,185465:0:0:0:0:
192,192,185465,128,0,185653:0:0:0:0:
448,192,185653,128,0,185840:0:0:0:0:
64,192,185840,128,0,186028:0:0:0:0:
192,192,185840,1,0,0:0:0:0:
320,192,186028,128,0,186215:0:0:0:0:
192,192,186215,128,0,186403:0:0:0:0:
448,192,186215,1,0,0:0:0:0:
64,192,186403,1,0,0:0:0:0:
320,192,186403,128,0,186778:0:0:0:0:
448,192,186403,128,0,186590:0:0:0:0:
64,192,186778,128,0,187340:0:0:0:0:
192,192,186778,128,0,186965:0:0:0:0:
320,192,186965,1,0,0:0:0:0:
448,192,186965,1,0,0:0:0:0:
192,192,187153,128,0,187340:0:0:0:0:
320,192,187340,1,0,0:0:0:0:
448,192,187340,1,0,0:0:0:0:
64,192,187528,1,0,0:0:0:0:
320,192,187528,128,0,187715:0:0:0:0:
448,192,187528,128,0,188090:0:0:0:0:
192,192,187809,1,0,0:0:0:0:
64,192,187809,1,0,0:0:0:0:
320,192,187903,128,0,188090:0:0:0:0:
64,192,188090,1,0,0:0:0:0:
192,192,188090,1,0,0:0:0:0:
64,192,188278,128,0,188465:0:0:0:0:
448,192,188278,1,0,0:0:0:0:
192,192,188278,128,0,188371:0:0:0:0:
320,192,188371,1,0,0:0:0:0:
192,192,188465,1,0,0:0:0:0:
448,192,188559,1,0,0:0:0:0:
192,192,188653,128,0,188903:0:0:0:0:
320,192,188653,128,0,189028:0:0:0:0:
64,192,188653,128,0,188778:0:0:0:0:
64,192,189028,1,0,0:0:0:0:
320,192,189215,1,0,0:0:0:0:
448,192,189215,1,0,0:0:0:0:
192,192,189403,1,0,0:0:0:0:
64,192,189590,1,0,0:0:0:0:
448,192,189590,1,0,0:0:0:0:
64,192,189778,128,0,190528:0:0:0:0:
192,192,189778,128,0,190153:0:0:0:0:
320,192,189778,1,0,0:0:0:0:
448,192,190153,1,0,0:0:0:0:
320,192,190340,1,0,0:0:0:0:
192,192,190340,1,0,0:0:0:0:
448,192,190528,128,0,190715:0:0:0:0:
320,192,190715,1,0,0:0:0:0:
192,192,190715,1,0,0:0:0:0:
64,192,190903,1,0,0:0:0:0:
448,192,190903,128,0,191653:0:0:0:0:
320,192,190903,128,0,191278:0:0:0:0:
64,192,191278,1,0,0:0:0:0:
192,192,191465,1,0,0:0:0:0:
320,192,191465,1,0,0:0:0:0:
64,192,191653,1,0,0:0:0:0:
192,192,191840,1,0,0:0:0:0:
320,192,191840,1,0,0:0:0:0:
320,192,192028,128,0,192590:0:0:0:0:
64,192,192028,128,0,192778:0:0:0:0:
448,192,192028,128,0,192309:0:0:0:0:
448,192,192403,128,0,192590:0:0:0:0:
192,192,192403,128,0,192590:0:0:0:0:
192,192,192778,128,0,193153:0:0:0:0:
448,192,192778,1,0,0:0:0:0:
320,192,192778,128,0,192965:0:0:0:0:
320,192,193153,128,0,193528:0:0:0:0:
448,192,193153,128,0,193715:0:0:0:0:
64,192,193153,128,0,193340:0:0:0:0:
192,192,193340,128,0,193528:0:0:0:0:
64,192,193528,128,0,194278:0:0:0:0:
320,192,193715,1,0,0:0:0:0:
192,192,193715,128,0,194090:0:0:0:0:
320,192,194090,1,0,0:0:0:0:
448,192,194090,1,0,0:0:0:0:
192,192,194278,1,0,0:0:0:0:
448,192,194278,128,0,194653:0:0:0:0:
320,192,194278,128,0,194465:0:0:0:0:
64,192,194465,128,0,194653:0:0:0:0:
192,192,194653,128,0,194840:0:0:0:0:
320,192,194840,128,0,195028:0:0:0:0:
64,192,195028,128,0,195215:0:0:0:0:
192,192,195028,128,0,195215:0:0:0:0:
448,192,195028,1,0,0:0:0:0:
320,192,195215,1,0,0:0:0:0:
448,192,195403,128,0,195590:0:0:0:0:
64,192,195403,1,0,0:0:0:0:
192,192,195403,1,0,0:0:0:0:
320,192,195778,128,0,195965:0:0:0:0:
64,192,195965,1,0,0:0:0:0:
448,192,195965,1,0,0:0:0:0:
192,192,196153,128,0,196340:0:0:0:0:
64,192,196340,1,0,0:0:0:0:
320,192,196340,1,0,0:0:0:0:
64,192,196528,128,0,196715:0:0:0:0:
192,192,196528,1,0,0:0:0:0:
448,192,196528,1,0,0:0:0:0:
192,192,196809,1,0,0:0:0:0:
64,192,196809,1,0,0:0:0:0:
320,192,196903,128,0,197090:0:0:0:0:
448,192,196903,128,0,197090:0:0:0:0:
192,192,197090,1,0,0:0:0:0:
64,192,197090,1,0,0:0:0:0:
320,192,197278,128,0,197371:0:0:0:0:
448,192,197278,128,0,197371:0:0:0:0:
64,192,197371,1,0,0:0:0:0:
192,192,197371,1,0,0:0:0:0:
320,192,197465,1,0,0:0:0:0:
448,192,197465,1,0,0:0:0:0:
192,192,197559,1,0,0:0:0:0:
320,192,197653,128,0,198028:0:0:0:0:
448,192,197653,128,0,197903:0:0:0:0:
64,192,197653,128,0,197778:0:0:0:0:
192,192,198028,1,0,0:0:0:0:
448,192,198215,1,0,0:0:0:0:
64,192,198215,1,0,0:0:0:0:
320,192,198403,1,0,0:0:0:0:
192,192,198590,1,0,0:0:0:0:
448,192,198590,1,0,0:0:0:0:
320,192,198778,1,0,0:0:0:0:
192,192,198778,128,0,199153:0:0:0:0:
64,192,198778,128,0,199528:0:0:0:0:
448,192,199153,1,0,0:0:0:0:
192,192,199340,1,0,0:0:0:0:
320,192,199340,1,0,0:0:0:0:
448,192,199528,128,0,199715:0:0:0:0:
64,192,199715,1,0,0:0:0:0:
192,192,199715,1,0,0:0:0:0:
320,192,199903,128,0,200278:0:0:0:0:
192,192,199903,128,0,200653:0:0:0:0:
448,192,199903,1,0,0:0:0:0:
64,192,200278,1,0,0:0:0:0:
320,192,200465,1,0,0:0:0:0:
448,192,200465,1,0,0:0:0:0:
64,192,200653,1,0,0:0:0:0:
448,192,200840,1,0,0:0:0:0:
192,192,200840,1,0,0:0:0:0:
320,192,201028,128,0,201590:0:0:0:0:
64,192,201028,1,0,0:0:0:0:
448,192,201028,128,0,201403:0:0:0:0:
64,192,201403,128,0,201778:0:0:0:0:
192,192,201403,128,0,201590:0:0:0:0:
448,192,201778,1,0,0:0:0:0:
192,192,201778,128,0,202153:0:0:0:0:
320,192,201778,128,0,201965:0:0:0:0:
448,192,202153,128,0,202903:0:0:0:0:
64,192,202153,128,0,202528:0:0:0:0:
320,192,202153,1,0,0:0:0:0:
320,192,202528,1,0,0:0:0:0:
64,192,202715,1,0,0:0:0:0:
192,192,202715,1,0,0:0:0:0:
320,192,202903,1,0,0:0:0:0:
192,192,203090,1,0,0:0:0:0:
64,192,203090,1,0,0:0:0:0:
320,192,203278,128,0,203465:0:0:0:0:
64,192,203278,1,0,0:0:0:0:
448,192,203278,1,0,0:0:0:0:
192,192,203465,128,0,203653:0:0:0:0:
64,192,203653,128,0,203840:0:0:0:0:
448,192,203840,1,0,0:0:0:0:
320,192,203840,128,0,204028:0:0:0:0:
192,192,204028,128,0,204215:0:0:0:0:
64,192,204215,1,0,0:0:0:0:
320,192,204215,128,0,204403:0:0:0:0:
64,192,204403,128,0,204590:0:0:0:0:
192,192,204403,128,0,204778:0:0:0:0:
448,192,204403,1,0,0:0:0:0:
320,192,204778,128,0,204965:0:0:0:0:
448,192,204778,128,0,205340:0:0:0:0:
64,192,204965,1,0,0:0:0:0:
192,192,204965,1,0,0:0:0:0:
320,192,205153,128,0,205340:0:0:0:0:
64,192,205340,1,0,0:0:0:0:
192,192,205340,1,0,0:0:0:0:
64,192,205528,128,0,206090:0:0:0:0:
192,192,205528,128,0,205715:0:0:0:0:
448,192,205528,1,0,0:0:0:0:
448,192,205809,1,0,0:0:0:0:
320,192,205809,1,0,0:0:0:0:
192,192,205903,128,0,206090:0:0:0:0:
320,192,206090,1,0,0:0:0:0:
448,192,206090,1,0,0:0:0:0:
320,192,206278,128,0,206371:0:0:0:0:
64,192,206278,1,0,0:0:0:0:
448,192,206278,128,0,206465:0:0:0:0:
192,192,206371,1,0,0:0:0:0:
320,192,206465,1,0,0:0:0:0:
64,192,206559,1,0,0:0:0:0:
192,192,206653,128,0,207028:0:0:0:0:
320,192,206653,128,0,206903:0:0:0:0:
448,192,206653,128,0,206778:0:0:0:0:
448,192,207028,1,0,0:0:0:0:
64,192,207215,1,0,0:0:0:0:
192,192,207215,1,0,0:0:0:0:
320,192,207403,1,0,0:0:0:0:
64,192,207590,1,0,0:0:0:0:
448,192,207590,1,0,0:0:0:0:
192,192,207778,1,0,0:0:0:0:
320,192,207778,128,0,208153:0:0:0:0:
448,192,207778,128,0,208528:0:0:0:0:
64,192,208153,1,0,0:0:0:0:
320,192,208340,1,0,0:0:0:0:
192,192,208340,1,0,0:0:0:0:
64,192,208528,128,0,208715:0:0:0:0:
320,192,208715,1,0,0:0:0:0:
192,192,208715,1,0,0:0:0:0:
320,192,208903,128,0,209278:0:0:0:0:
64,192,208903,128,0,209653:0:0:0:0:
448,192,208903,1,0,0:0:0:0:
192,192,209278,1,0,0:0:0:0:
320,192,209465,1,0,0:0:0:0:
448,192,209465,1,0,0:0:0:0:
192,192,209653,1,0,0:0:0:0:
448,192,209840,1,0,0:0:0:0:
320,192,209840,1,0,0:0:0:0:
448,192,210028,128,0,210778:0:0:0:0:
192,192,210028,128,0,210590:0:0:0:0:
64,192,210028,128,0,210309:0:0:0:0:
64,192,210403,128,0,210590:0:0:0:0:
320,192,210403,128,0,210590:0:0:0:0:
64,192,210778,1,0,0:0:0:0:
320,192,210778,128,0,211153:0:0:0:0:
192,192,210778,128,0,210965:0:0:0:0:
64,192,211153,128,0,211715:0:0:0:0:
192,192,211153,128,0,211528:0:0:0:0:
448,192,211153,128,0,211340:0:0:0:0:
320,192,211340,128,0,211528:0:0:0:0:
448,192,211528,128,0,212278:0:0:0:0:
320,192,211715,128,0,212090:0:0:0:0:
192,192,211715,1,0,0:0:0:0:
64,192,212090,1,0,0:0:0:0:
192,192,212090,1,0,0:0:0:0:
192,192,212278,128,0,212465:0:0:0:0:
64,192,212278,128,0,212653:0:0:0:0:
320,192,212278,1,0,0:0:0:0:
448,192,212465,128,0,212653:0:0:0:0:
320,192,212653,128,0,212840:0:0:0:0:
192,192,212840,128,0,213028:0:0:0:0:
64,192,213028,1,0,0:0:0:0:
320,192,213028,128,0,213215:0:0:0:0:
448,192,213028,128,0,213215:0:0:0:0:
192,192,213215,1,0,0:0:0:0:
320,192,213403,1,0,0:0:0:0:
64,192,213403,128,0,213590:0:0:0:0:
448,192,213403,128,0,213778:0:0:0:0:
320,192,213778,128,0,214340:0:0:0:0:
64,192,213965,1,0,0:0:0:0:
448,192,213965,128,0,214340:0:0:0:0:
192,192,214153,1,0,0:0:0:0:
64,192,214340,1,0,0:0:0:0:
192,192,214340,1,0,0:0:0:0:
448,192,214528,1,0,0:0:0:0:
64,192,214528,128,0,214715:0:0:0:0:
192,192,214528,128,0,214715:0:0:0:0:
448,192,214809,1,0,0:0:0:0:
320,192,214809,1,0,0:0:0:0:
64,192,214903,128,0,215090:0:0:0:0:
192,192,214903,128,0,215090:0:0:0:0:
448,192,215090,1,0,0:0:0:0:
320,192,215090,1,0,0:0:0:0:
64,192,215278,128,0,215371:0:0:0:0:
192,192,215278,128,0,215371:0:0:0:0:
320,192,215371,1,0,0:0:0:0:
448,192,215371,1,0,0:0:0:0:
64,192,215465,1,0,0:0:0:0:
192,192,215465,1,0,0:0:0:0:
320,192,215559,1,0,0:0:0:0:
448,192,215653,1,0,0:0:0:0:
64,192,215653,128,0,216028:0:0:0:0:
192,192,215653,128,0,215840:0:0:0:0:
448,192,215840,1,0,0:0:0:0:
320,192,215840,1,0,0:0:0:0:
192,192,216028,128,0,216215:0:0:0:0:
320,192,216028,128,0,216121:0:0:0:0:
64,192,216215,1,0,0:0:0:0:
448,192,216215,1,0,0:0:0:0:
192,192,216403,128,0,216590:0:0:0:0:
320,192,216403,128,0,216496:0:0:0:0:
448,192,216590,1,0,0:0:0:0:
64,192,216590,1,0,0:0:0:0:
320,192,216778,128,0,216871:0:0:0:0:
192,192,216778,128,0,216965:0:0:0:0:
64,192,216778,1,0,0:0:0:0:
320,192,216965,1,0,0:0:0:0:
448,192,216965,1,0,0:0:0:0:
448,192,217153,128,0,217528:0:0:0:0:
192,192,217153,1,0,0:0:0:0:
320,192,217340,128,0,217715:0:0:0:0:
64,192,217340,1,0,0:0:0:0:
64,192,217528,128,0,217715:0:0:0:0:
192,192,217528,1,0,0:0:0:0:
192,192,217715,1,0,0:0:0:0:
448,192,217715,1,0,0:0:0:0:
320,192,217903,128,0,218278:0:0:0:0:
448,192,217903,128,0,218090:0:0:0:0:
64,192,217903,1,0,0:0:0:0:
64,192,218090,1,0,0:0:0:0:
192,192,218090,1,0,0:0:0:0:
448,192,218278,1,0,0:0:0:0:
192,192,218278,128,0,218653:0:0:0:0:
64,192,218465,128,0,218840:0:0:0:0:
320,192,218465,1,0,0:0:0:0:
320,192,218653,1,0,0:0:0:0:
448,192,218653,1,0,0:0:0:0:
192,192,218840,1,0,0:0:0:0:
448,192,218840,1,0,0:0:0:0:
64,192,219028,128,0,219403:0:0:0:0:
320,192,219028,1,0,0:0:0:0:
192,192,219028,128,0,219215:0:0:0:0:
320,192,219215,1,0,0:0:0:0:
448,192,219215,1,0,0:0:0:0:
448,192,219403,128,0,219778:0:0:0:0:
192,192,219403,1,0,0:0:0:0:
320,192,219590,128,0,219965:0:0:0:0:
64,192,219590,1,0,0:0:0:0:
64,192,219778,1,0,0:0:0:0:
192,192,219778,1,0,0:0:0:0:
192,192,219965,1,0,0:0:0:0:
448,192,219965,1,0,0:0:0:0:
64,192,220153,128,0,220528:0:0:0:0:
448,192,220153,1,0,0:0:0:0:
320,192,220153,128,0,220340:0:0:0:0:
192,192,220340,1,0,0:0:0:0:
448,192,220340,1,0,0:0:0:0:
192,192,220528,128,0,220621:0:0:0:0:
320,192,220528,128,0,220715:0:0:0:0:
64,192,220715,1,0,0:0:0:0:
448,192,220715,1,0,0:0:0:0:
320,192,220903,128,0,221090:0:0:0:0:
192,192,220903,128,0,220996:0:0:0:0:
64,192,221090,1,0,0:0:0:0:
448,192,221090,1,0,0:0:0:0:
320,192,221278,128,0,221465:0:0:0:0:
192,192,221278,128,0,221371:0:0:0:0:
448,192,221278,1,0,0:0:0:0:
64,192,221465,1,0,0:0:0:0:
192,192,221465,1,0,0:0:0:0:
64,192,221653,128,0,222028:0:0:0:0:
320,192,221653,1,0,0:0:0:0:
192,192,221840,128,0,222215:0:0:0:0:
448,192,221840,1,0,0:0:0:0:
320,192,222028,1,0,0:0:0:0:
448,192,222028,1,0,0:0:0:0:
320,192,222215,128,0,222590:0:0:0:0:
64,192,222215,1,0,0:0:0:0:
448,192,222403,128,0,222590:0:0:0:0:
192,192,222403,1,0,0:0:0:0:
64,192,222590,1,0,0:0:0:0:
192,192,222590,1,0,0:0:0:0:
64,192,222778,128,0,223153:0:0:0:0:
320,192,222778,1,0,0:0:0:0:
192,192,222965,128,0,223340:0:0:0:0:
448,192,222965,1,0,0:0:0:0:
448,192,223153,1,0,0:0:0:0:
320,192,223153,1,0,0:0:0:0:
320,192,223340,128,0,223715:0:0:0:0:
64,192,223340,1,0,0:0:0:0:
448,192,223528,128,0,223715:0:0:0:0:
192,192,223528,1,0,0:0:0:0:
64,192,223715,1,0,0:0:0:0:
192,192,223715,1,0,0:0:0:0:
320,192,223809,1,0,0:0:0:0:
448,192,223809,1,0,0:0:0:0:
192,192,223903,128,0,224278:0:0:0:0:
64,192,223903,1,0,0:0:0:0:
64,192,224090,1,0,0:0:0:0:
320,192,224090,128,0,224278:0:0:0:0:
448,192,224090,1,0,0:0:0:0:
448,192,224278,1,0,0:0:0:0:
64,192,224278,1,0,0:0:0:0:
192,192,224371,1,0,0:0:0:0:
320,192,224465,1,0,0:0:0:0:
448,192,224465,1,0,0:0:0:0:
192,192,224559,1,0,0:0:0:0:
64,192,224653,1,0,0:0:0:0:
448,192,224653,128,0,225028:0:0:0:0:
320,192,224653,128,0,224840:0:0:0:0:
192,192,224840,1,0,0:0:0:0:
64,192,224840,1,0,0:0:0:0:
192,192,225028,128,0,225215:0:0:0:0:
320,192,225028,1,0,0:0:0:0:
64,192,225215,1,0,0:0:0:0:
448,192,225215,1,0,0:0:0:0:
192,192,225403,128,0,225590:0:0:0:0:
320,192,225403,1,0,0:0:0:0:
448,192,225590,1,0,0:0:0:0:
64,192,225590,1,0,0:0:0:0:
192,192,225778,128,0,225965:0:0:0:0:
64,192,225778,1,0,0:0:0:0:
320,192,225778,1,0,0:0:0:0:
320,192,225965,1,0,0:0:0:0:
448,192,225965,1,0,0:0:0:0:
192,192,226153,1,0,0:0:0:0:
448,192,226153,128,0,226528:0:0:0:0:
320,192,226340,128,0,226528:0:0:0:0:
64,192,226340,1,0,0:0:0:0:
192,192,226528,1,0,0:0:0:0:
64,192,226528,1,0,0:0:0:0:
448,192,226715,1,0,0:0:0:0:
192,192,226715,1,0,0:0:0:0:
64,192,226903,128,0,227278:0:0:0:0:
192,192,226903,128,0,227090:0:0:0:0:
320,192,226903,1,0,0:0:0:0:
448,192,227090,1,0,0:0:0:0:
320,192,227090,1,0,0:0:0:0:
192,192,227278,1,0,0:0:0:0:
448,192,227278,128,0,227653:0:0:0:0:
320,192,227465,128,0,227653:0:0:0:0:
64,192,227465,1,0,0:0:0:0:
64,192,227653,1,0,0:0:0:0:
192,192,227653,1,0,0:0:0:0:
192,192,227840,1,0,0:0:0:0:
448,192,227840,1,0,0:0:0:0:
64,192,228028,128,0,228403:0:0:0:0:
320,192,228028,1,0,0:0:0:0:
192,192,228028,128,0,228215:0:0:0:0:
320,192,228215,1,0,0:0:0:0:
448,192,228215,1,0,0:0:0:0:
192,192,228403,1,0,0:0:0:0:
448,192,228403,128,0,228778:0:0:0:0:
320,192,228590,128,0,228778:0:0:0:0:
64,192,228590,1,0,0:0:0:0:
64,192,228778,1,0,0:0:0:0:
192,192,228778,1,0,0:0:0:0:
320,192,228965,1,0,0:0:0:0:
448,192,228965,1,0,0:0:0:0:
448,192,229153,128,0,229528:0:0:0:0:
64,192,229153,1,0,0:0:0:0:
320,192,229153,128,0,229340:0:0:0:0:
192,192,229340,1,0,0:0:0:0:
64,192,229340,1,0,0:0:0:0:
320,192,229528,128,0,229715:0:0:0:0:
192,192,229528,1,0,0:0:0:0:
64,192,229715,1,0,0:0:0:0:
448,192,229715,1,0,0:0:0:0:
320,192,229903,128,0,230090:0:0:0:0:
192,192,229903,1,0,0:0:0:0:
64,192,230090,1,0,0:0:0:0:
448,192,230090,1,0,0:0:0:0:
320,192,230278,128,0,230465:0:0:0:0:
448,192,230278,1,0,0:0:0:0:
192,192,230278,1,0,0:0:0:0:
64,192,230465,1,0,0:0:0:0:
192,192,230465,1,0,0:0:0:0:
64,192,230653,128,0,231028:0:0:0:0:
320,192,230653,1,0,0:0:0:0:
192,192,230840,128,0,231028:0:0:0:0:
448,192,230840,1,0,0:0:0:0:
320,192,231028,1,0,0:0:0:0:
448,192,231028,128,0,231215:0:0:0:0:
320,192,231215,128,0,231590:0:0:0:0:
192,192,231215,1,0,0:0:0:0:
448,192,231403,128,0,231590:0:0:0:0:
64,192,231403,128,0,231496:0:0:0:0:
64,192,231590,1,0,0:0:0:0:
192,192,231590,1,0,0:0:0:0:
192,192,231778,128,0,231871:0:0:0:0:
448,192,231778,128,0,232153:0:0:0:0:
64,192,231965,128,0,232153:0:0:0:0:
320,192,231965,1,0,0:0:0:0:
320,192,232153,128,0,232340:0:0:0:0:
192,192,232153,128,0,232246:0:0:0:0:
64,192,232340,128,0,232715:0:0:0:0:
448,192,232340,1,0,0:0:0:0:
192,192,232528,128,0,232715:0:0:0:0:
320,192,232528,128,0,232621:0:0:0:0:
320,192,232715,1,0,0:0:0:0:
448,192,232715,1,0,0:0:0:0:
64,192,232809,1,0,0:0:0:0:
192,192,232809,1,0,0:0:0:0:
320,192,232903,128,0,233090:0:0:0:0:
448,192,232903,128,0,232996:0:0:0:0:
192,192,233090,128,0,233278:0:0:0:0:
64,192,233090,1,0,0:0:0:0:
448,192,233278,128,0,233465:0:0:0:0:
320,192,233278,1,0,0:0:0:0:
64,192,233371,1,0,0:0:0:0:
320,192,233465,1,0,0:0:0:0:
192,192,233559,1,0,0:0:0:0:
448,192,233653,1,0,0:0:0:0:
320,192,233653,1,0,0:0:0:0:
64,192,233653,1,0,0:0:0:0:
192,192,233840,1,0,0:0:0:0:
448,192,234028,1,0,0:0:0:0:
64,192,234028,128,0,234215:0:0:0:0:
320,192,234215,1,0,0:0:0:0:
64,192,234403,128,0,234590:0:0:0:0:
448,192,234403,1,0,0:0:0:0:
320,192,234590,1,0,0:0:0:0:
192,192,234778,128,0,234965:0:0:0:0:
448,192,234778,1,0,0:0:0:0:
64,192,234778,128,0,235153:0:0:0:0:
320,192,234965,1,0,0:0:0:0:
448,192,235153,128,0,235528:0:0:0:0:
192,192,235153,1,0,0:0:0:0:
320,192,235340,128,0,235528:0:0:0:0:
192,192,235528,1,0,0:0:0:0:
64,192,235528,1,0,0:0:0:0:
448,192,235715,1,0,0:0:0:0:
320,192,235903,128,0,236090:0:0:0:0:
448,192,235903,128,0,236278:0:0:0:0:
192,192,236090,1,0,0:0:0:0:
64,192,236278,128,0,236653:0:0:0:0:
320,192,236278,1,0,0:0:0:0:
192,192,236465,128,0,236653:0:0:0:0:
448,192,236653,1,0,0:0:0:0:
64,192,236840,1,0,0:0:0:0:
448,192,237028,1,0,0:0:0:0:
192,192,237028,128,0,237215:0:0:0:0:
64,192,237028,128,0,237403:0:0:0:0:
320,192,237215,1,0,0:0:0:0:
448,192,237403,128,0,237778:0:0:0:0:
192,192,237403,1,0,0:0:0:0:
320,192,237590,128,0,237778:0:0:0:0:
64,192,237778,1,0,0:0:0:0:
192,192,237778,1,0,0:0:0:0:
320,192,237965,1,0,0:0:0:0:
64,192,238153,128,0,238340:0:0:0:0:
192,192,238153,128,0,238528:0:0:0:0:
320,192,238340,1,0,0:0:0:0:
64,192,238528,1,0,0:0:0:0:
448,192,238528,128,0,238715:0:0:0:0:
192,192,238715,1,0,0:0:0:0:
448,192,238903,128,0,239090:0:0:0:0:
64,192,238903,1,0,0:0:0:0:
192,192,239090,1,0,0:0:0:0:
64,192,239278,1,0,0:0:0:0:
448,192,239278,128,0,239653:0:0:0:0:
320,192,239278,128,0,239465:0:0:0:0:
192,192,239465,1,0,0:0:0:0:
64,192,239653,128,0,240028:0:0:0:0:
320,192,239653,1,0,0:0:0:0:
192,192,239840,128,0,240028:0:0:0:0:
320,192,240028,128,0,240215:0:0:0:0:
448,192,240028,128,0,240215:0:0:0:0:
192,192,240215,1,0,0:0:0:0:
320,192,240403,128,0,240590:0:0:0:0:
64,192,240403,128,0,240778:0:0:0:0:
448,192,240590,1,0,0:0:0:0:
320,192,240778,128,0,240965:0:0:0:0:
192,192,240778,128,0,241153:0:0:0:0:
64,192,240965,128,0,241153:0:0:0:0:
448,192,241153,128,0,241340:0:0:0:0:
320,192,241153,128,0,241340:0:0:0:0:
64,192,241340,1,0,0:0:0:0:
448,192,241528,1,0,0:0:0:0:
320,192,241528,128,0,241715:0:0:0:0:
192,192,241528,128,0,241903:0:0:0:0:
64,192,241715,1,0,0:0:0:0:
448,192,241903,128,0,242090:0:0:0:0:
320,192,241903,128,0,242278:0:0:0:0:
192,192,242090,128,0,242278:0:0:0:0:
64,192,242278,128,0,242653:0:0:0:0:
448,192,242278,128,0,242465:0:0:0:0:
320,192,242465,1,0,0:0:0:0:
448,192,242653,128,0,243403:0:0:0:0:
64,192,243028,128,0,243778:0:0:0:0:
192,192,243403,128,0,243778:0:0:0:0:
320,192,243778,128,0,244528:0:0:0:0:
448,192,243778,128,0,243965:0:0:0:0:
448,192,244153,128,0,244340:0:0:0:0:
192,192,244340,128,0,244715:0:0:0:0:
64,192,244528,128,0,244903:0:0:0:0:
320,192,244903,128,0,245090:0:0:0:0:
192,192,244903,128,0,245653:0:0:0:0:
320,192,245278,128,0,245840:0:0:0:0:
448,192,245465,128,0,246028:0:0:0:0:
192,192,246028,128,0,246778:0:0:0:0:
64,192,246028,128,0,246215:0:0:0:0:
64,192,246403,128,0,246590:0:0:0:0:
320,192,246590,128,0,246965:0:0:0:0:
448,192,246778,128,0,247153:0:0:0:0:
64,192,247153,128,0,247340:0:0:0:0:
192,192,247340,128,0,247528:0:0:0:0:
64,192,247528,128,0,248840:0:0:0:0:
448,192,247528,128,0,248278:0:0:0:0:
320,192,247903,128,0,248278:0:0:0:0:
192,192,248278,128,0,248465:0:0:0:0:
192,192,248653,128,0,249028:0:0:0:0:
320,192,248840,128,0,249215:0:0:0:0:
448,192,249028,128,0,249403:0:0:0:0:
64,192,249215,128,0,249403:0:0:0:0:
320,192,249403,128,0,249778:0:0:0:0:
192,192,249403,128,0,249590:0:0:0:0:
64,192,249778,128,0,249965:0:0:0:0:
192,192,249965,128,0,250528:0:0:0:0:
448,192,249965,128,0,250340:0:0:0:0:
320,192,250340,128,0,250528:0:0:0:0:
64,192,250528,128,0,250715:0:0:0:0:
448,192,250528,128,0,250715:0:0:0:0:
320,192,250903,128,0,251653:0:0:0:0:
192,192,250903,128,0,251090:0:0:0:0:
448,192,251090,128,0,251653:0:0:0:0:
64,192,251278,128,0,252028:0:0:0:0:
