osu file format v14

[General]
AudioFilename: audio.mp3
AudioLeadIn: 0
PreviewTime: 30682
Countdown: 0
SampleSet: Soft
StackLeniency: 0.7
Mode: 0
LetterboxInBreaks: 0
WidescreenStoryboard: 1

[Editor]
Bookmarks: 76822
DistanceSpacing: 1.9
BeatDivisor: 8
GridSize: 32
TimelineZoom: 1.6

[Metadata]
Title:[[=Please Intro=]]
TitleUnicode:[[=Please Intro=]]
Artist:Nostrap
ArtistUnicode:Nostrap
Creator:Hobbes2
Version:Extra
Source:
Tags:indie super crazy guitar maniac deluxe instrumental newgrounds audio portal rock
BeatmapID:2586715
BeatmapSetID:1244367

[Difficulty]
HPDrainRate:3
CircleSize:5
OverallDifficulty:8.2
ApproachRate:8.6
SliderMultiplier:1.2
SliderTickRate:1

[Events]
//Background and Video events
0,0,"please intro.jpeg",0,0
//Break Periods
//Storyboard Layer 0 (Background)
//Storyboard Layer 1 (Fail)
//Storyboard Layer 2 (Pass)
//Storyboard Layer 3 (Foreground)
//Storyboard Layer 4 (Overlay)
//Storyboard Sound Samples

[TimingPoints]
22,480,4,2,0,40,1,0
15382,-83.3333333333333,4,2,0,40,0,0
30742,-71.4285714285714,4,2,0,48,0,0
46102,-62.5,4,2,0,57,0,0
80662,-62.5,4,2,0,25,0,0
82582,-62.5,4,2,0,5,0,0

[Colours]
Combo1 : 214,173,173
Combo2 : 255,200,176
Combo3 : 255,128,128

[HitObjects]
16,47,22,6,0,P|36:105|48:171,1,120,2|0,0:0|0:0,0:0:0:0:
132,148,742,2,0,P|123:176|118:206,1,60,2|0,0:0|0:0,0:0:0:0:
198,195,1222,1,0,0:0:0:0:
270,158,1462,2,0,P|273:199|277:228,1,60,2|0,0:0|0:0,0:0:0:0:
361,295,1942,6,0,P|418:291|440:229,1,120,2|0,0:0|0:0,0:0:0:0:
398,174,2662,1,2,0:0:0:0:
466,51,3142,1,0,0:0:0:0:
466,51,3382,2,0,P|411:42|382:39,1,60,2|0,0:0|0:0,0:0:0:0:
299,110,3862,6,0,L|310:177,2,60,2|0|0,0:0|0:0|0:0,0:0:0:0:
222,125,4582,2,0,L|244:256,1,120,2|0,0:0|0:0,0:0:0:0:
259,319,5302,1,2,0:0:0:0:
90,345,5782,6,0,P|33:346|25:270,1,120,2|0,0:0|0:0,0:0:0:0:
58,230,6502,1,2,0:0:0:0:
14,80,6982,1,0,0:0:0:0:
68,24,7222,1,2,0:0:0:0:
68,24,7462,1,0,0:0:0:0:
149,94,7702,6,0,L|159:172,2,60,2|0|0,0:0|0:0|0:0,0:0:0:0:
84,176,8422,2,0,L|222:189,1,120,2|0,0:0|0:0,0:0:0:0:
253,127,9142,2,0,L|320:114,1,60,2|0,0:0|0:0,0:0:0:0:
370,15,9622,6,0,P|413:31|417:103,1,120,2|0,0:0|0:0,0:0:0:0:
370,157,10342,2,0,P|358:221|352:278,1,120,2|0,0:0|0:0,0:0:0:0:
409,328,11062,1,2,0:0:0:0:
409,328,11302,1,0,0:0:0:0:
279,372,11542,6,0,L|208:369,1,60,2|0,0:0|0:0,0:0:0:0:
242,294,12022,1,0,0:0:0:0:
215,208,12262,2,0,P|168:251|103:276,1,120,2|0,0:0|0:0,0:0:0:0:
45,240,12982,1,2,0:0:0:0:
12,87,13462,6,0,P|19:29|87:25,1,120,2|0,0:0|0:0,0:0:0:0:
131,66,14182,2,0,P|224:49|325:35,1,180,2|2,0:0|0:0,0:0:0:0:
369,259,15382,6,0,B|433:264|433:264|442:179,1,143.999995605469,6|2,1:0|0:3,0:0:0:0:
410,60,16102,1,2,0:3:0:0:
335,85,16342,2,0,P|292:77|256:65,1,71.9999978027345
196,108,16822,1,2,0:3:0:0:
60,326,17302,5,2,0:0:0:0:
27,253,17542,1,0,0:0:0:0:
103,230,17782,1,2,0:3:0:0:
135,302,18022,1,2,0:3:0:0:
209,274,18262,1,0,0:0:0:0:
181,199,18502,1,0,0:0:0:0:
100,139,18742,1,2,0:3:0:0:
100,139,18982,1,0,0:0:0:0:
191,78,19222,6,0,P|230:85|265:86,2,71.9999978027345,2|0|2,0:0|0:0|0:3,0:0:0:0:
255,1,19942,2,0,P|278:68|325:146,1,143.999995605469,2|0,0:3|0:0,0:0:0:0:
384,95,20662,1,2,0:3:0:0:
381,174,20902,1,0,0:0:0:0:
482,259,21142,5,2,0:0:0:0:
410,292,21382,1,0,0:0:0:0:
331,279,21622,1,2,0:3:0:0:
242,384,21862,5,2,0:3:0:0:
221,307,22102,1,2,0:0:0:0:
242,384,22342,1,2,0:0:0:0:
92,334,22582,1,2,0:3:0:0:
114,258,22822,2,0,L|94:200,1,35.9999989013672,2|0,0:0|0:0,0:0:0:0:
38,172,23062,6,0,P|47:118|50:88,2,71.9999978027345,2|0|2,0:0|0:0|0:3,0:0:0:0:
3,2,23782,2,0,L|164:11,1,143.999995605469,2|0,0:3|0:0,0:0:0:0:
215,49,24502,1,2,0:3:0:0:
288,18,24742,1,0,0:0:0:0:
385,159,24982,5,2,0:0:0:0:
406,82,25222,1,0,0:0:0:0:
482,104,25462,1,2,0:3:0:0:
461,180,25702,1,2,0:3:0:0:
382,280,25942,1,2,0:0:0:0:
303,271,26182,1,2,0:0:0:0:
240,319,26422,1,2,0:3:0:0:
32,290,26902,6,0,L|47:372,1,71.9999978027344,2|0,0:0|0:0,0:0:0:0:
98,239,27382,1,2,0:3:0:0:
11,191,27622,2,0,P|18:137|34:32,1,143.999995605469,2|0,0:3|0:0,0:0:0:0:
143,12,28342,2,0,B|172:5|172:5|155:89,1,107.999996704102,2|0,0:3|0:0,0:0:0:0:
147,116,28822,6,0,P|200:101|239:91,2,71.9999978027344,2|0|2,0:0|0:0|0:3,0:0:0:0:
308,11,29542,2,0,P|336:93|353:227,1,215.999993408203,2|2,0:3|0:3,0:0:0:0:
334,305,30502,1,0,0:0:0:0:
161,360,30742,5,6,1:2:0:0:
62,337,30982,1,2,1:2:0:0:
46,237,31222,1,2,1:2:0:0:
305,205,31462,6,0,B|292:134|292:135|290:109,1,83.9999974365235,10|0,0:0|0:0,0:0:0:0:
345,57,31822,1,0,3:0:0:0:
345,57,31942,1,0,1:0:0:0:
268,284,32182,6,0,P|247:278|226:275,1,41.9999987182618,10|0,0:0|0:0,0:0:0:0:
95,306,32422,1,0,3:0:0:0:
65,335,32542,1,8,0:3:0:0:
79,374,32662,5,2,1:2:0:0:
148,231,32902,1,2,1:2:0:0:
0,239,33142,1,2,1:2:0:0:
106,24,33382,6,0,P|169:34|221:39,1,83.9999974365235,10|0,0:0|0:0,0:0:0:0:
272,22,33742,1,0,3:0:0:0:
272,22,33862,1,0,1:0:0:0:
27,85,34102,2,0,P|58:126|101:169,1,83.9999974365235,10|0,0:0|3:0,0:0:0:0:
164,150,34462,1,8,0:3:0:0:
164,150,34582,5,2,1:2:0:0:
258,288,34822,1,2,1:2:0:0:
412,354,35062,1,2,1:2:0:0:
294,49,35302,1,10,0:0:0:0:
285,32,35662,1,0,3:0:0:0:
285,32,35782,1,0,1:0:0:0:
382,124,36022,2,0,P|458:115|493:111,1,83.9999974365235,10|0,0:0|3:0,0:0:0:0:
489,33,36382,1,8,0:3:0:0:
489,33,36502,5,2,1:2:0:0:
482,228,36742,1,2,1:2:0:0:
509,356,36982,1,2,1:2:0:0:
348,215,37222,1,10,0:0:0:0:
266,236,37462,1,2,0:0:0:0:
285,276,37582,1,0,3:0:0:0:
324,296,37702,1,2,1:2:0:0:
396,120,37942,1,10,0:0:0:0:
228,74,38182,1,2,3:2:0:0:
228,74,38302,1,8,0:3:0:0:
212,141,38422,5,4,1:1:0:0:
192,239,38662,1,2,1:2:0:0:
170,337,38902,1,2,1:2:0:0:
64,110,39142,2,0,P|76:167|90:216,1,83.9999974365235,10|0,0:0|0:0,0:0:0:0:
29,286,39502,2,0,L|19:246,1,41.9999987182618,0|0,3:0|1:0,0:0:0:0:
126,15,39862,2,0,B|201:4|201:4|233:22,1,83.9999974365235,10|0,0:0|3:0,0:0:0:0:
275,58,40222,1,8,0:3:0:0:
275,58,40342,5,2,1:2:0:0:
398,34,40582,1,2,1:2:0:0:
359,153,40822,1,2,1:2:0:0:
502,208,41062,6,0,P|491:280|488:329,1,83.9999974365235,10|0,0:0|0:0,0:0:0:0:
407,306,41422,2,0,L|417:333,2,20.9999993591309,0|0|0,3:0|3:0|1:0,0:0:0:0:
229,368,41782,2,0,L|160:354,1,41.9999987182618,10|0,0:0|0:0,0:0:0:0:
105,284,42022,1,0,3:0:0:0:
69,306,42142,1,8,0:3:0:0:
63,347,42262,5,2,1:2:0:0:
20,237,42502,1,2,1:2:0:0:
131,200,42742,1,2,1:2:0:0:
16,46,42982,6,0,L|164:93,1,125.999996154785,10|0,0:0|3:0,0:0:0:0:
214,53,43462,1,0,1:0:0:0:
355,145,43702,2,0,L|410:134,1,41.9999987182618,10|0,0:0|0:0,0:0:0:0:
466,91,43942,2,0,L|474:62,2,20.9999993591309,0|0|8,3:0|3:0|0:3,0:0:0:0:
506,165,44182,6,0,P|507:186|495:219,1,41.9999987182618,4|0,1:0|0:0,0:0:0:0:
268,181,44422,2,0,P|262:160|263:139,1,41.9999987182618,2|0,1:2|0:0,0:0:0:0:
337,63,44662,1,2,1:2:0:0:
137,7,44902,5,10,0:0:0:0:
68,55,45142,1,2,0:0:0:0:
145,88,45382,1,2,1:2:0:0:
13,201,45622,1,10,0:0:0:0:
100,327,45862,5,2,3:2:0:0:
100,327,45922,1,0,3:0:0:0:
100,327,45982,1,8,0:3:0:0:
169,291,46102,6,0,L|219:303,1,48,6|0,1:0|0:0,0:0:0:0:
275,364,46342,2,0,L|325:376,1,48,2|0,1:2|0:0,0:0:0:0:
384,315,46582,2,0,L|434:327,1,48,2|0,1:2|0:0,0:0:0:0:
48,365,46822,6,0,P|32:279|24:236,1,96,14|0,0:0|0:0,0:0:0:0:
89,209,47182,1,0,3:0:0:0:
89,209,47242,1,0,3:0:0:0:
89,209,47302,1,0,1:0:0:0:
203,10,47542,2,0,P|192:65|180:138,1,96,14|0,0:0|3:0,0:0:0:0:
217,185,47902,1,8,0:3:0:0:
319,114,48022,6,0,L|404:94,1,48,6|0,1:0|0:0,0:0:0:0:
473,53,48262,2,0,L|427:43,1,48,2|0,1:2|0:0,0:0:0:0:
371,193,48502,2,0,P|370:216|381:238,1,48,2|0,1:2|0:0,0:0:0:0:
512,384,48742,5,14,0:0:0:0:
506,288,48982,1,2,0:0:0:0:
425,341,49222,1,2,1:2:0:0:
189,373,49462,1,14,0:0:0:0:
64,180,49702,1,2,3:2:0:0:
64,180,49762,1,0,3:0:0:0:
64,180,49822,1,8,0:3:0:0:
15,105,49942,6,0,P|17:81|27:59,1,48,6|0,1:0|0:0,0:0:0:0:
156,0,50182,2,0,P|165:21|168:45,1,48,2|0,1:2|0:0,0:0:0:0:
236,100,50422,2,0,P|233:123|223:145,1,48,2|0,1:2|0:0,0:0:0:0:
17,263,50662,6,0,P|52:209|108:200,1,96,14|0,0:0|0:0,0:0:0:0:
165,212,51022,1,0,3:0:0:0:
203,289,51142,1,0,1:0:0:0:
310,26,51382,2,0,P|327:97|335:145,1,96,14|0,0:0|3:0,0:0:0:0:
335,125,51682,1,0,3:0:0:0:
339,130,51742,1,8,0:3:0:0:
395,189,51862,6,0,P|456:184|487:190,1,48,6|0,1:0|0:0,0:0:0:0:
249,127,52102,2,0,P|225:125|201:121,1,48,2|0,1:2|0:0,0:0:0:0:
164,199,52342,2,0,P|143:185|125:170,1,48,2|0,1:2|0:0,0:0:0:0:
1,11,52582,6,0,P|15:61|19:115,1,96,14|0,0:0|0:0,0:0:0:0:
104,91,52942,1,0,3:0:0:0:
8,189,53062,1,2,1:0:0:0:
259,105,53302,6,0,P|231:49|184:55,1,96,14|0,0:0|3:0,0:0:0:0:
197,49,53602,1,0,3:0:0:0:
190,52,53662,1,8,0:3:0:0:
159,149,53782,6,0,P|154:181|153:222,1,48,6|0,1:0|0:0,0:0:0:0:
77,240,54022,2,0,P|88:270|108:306,1,48,2|0,1:2|0:0,0:0:0:0:
215,374,54262,2,0,P|266:368|283:357,1,48,2|0,1:2|0:0,0:0:0:0:
348,194,54502,5,14,0:0:0:0:
338,178,54862,1,0,3:0:0:0:
338,178,54922,1,0,3:0:0:0:
338,178,54982,1,0,1:0:0:0:
440,349,55222,2,0,B|448:280|448:280|467:254,1,96,14|0,0:0|3:0,0:0:0:0:
469,254,55522,1,0,3:0:0:0:
474,249,55582,1,8,0:3:0:0:
357,288,55702,6,0,B|305:278|305:278|292:278,1,48,6|0,1:0|0:0,0:0:0:0:
238,231,55942,2,0,P|202:274|195:290,1,48,2|0,1:2|0:0,0:0:0:0:
142,372,56182,2,0,P|127:327|122:310,1,48,2|0,1:2|0:0,0:0:0:0:
72,43,56422,5,14,0:0:0:0:
30,129,56662,1,2,0:0:0:0:
125,116,56902,1,2,1:2:0:0:
317,216,57142,1,14,0:0:0:0:
410,6,57382,1,2,3:2:0:0:
410,6,57442,1,0,3:0:0:0:
410,6,57502,1,8,0:3:0:0:
463,73,57622,6,0,B|452:111|452:111|457:134,1,48,6|0,1:0|0:0,0:0:0:0:
489,314,57862,2,0,B|500:276|500:276|499:268,1,48,2|0,1:2|0:0,0:0:0:0:
367,150,58102,2,0,P|313:143|288:138,1,48,2|0,1:2|0:0,0:0:0:0:
148,0,58342,6,0,L|33:26,1,96,14|0,0:0|0:0,0:0:0:0:
21,96,58702,1,0,3:0:0:0:
21,96,58762,1,0,3:0:0:0:
21,96,58822,1,0,1:0:0:0:
176,285,59062,2,0,B|211:222|211:222|195:193,1,96,14|0,0:0|3:0,0:0:0:0:
195,194,59362,1,0,3:0:0:0:
191,187,59422,1,8,0:3:0:0:
295,226,59542,6,0,P|343:244|366:255,1,48,6|0,1:0|0:0,0:0:0:0:
373,163,59782,2,0,P|325:145|302:134,1,48,2|0,1:2|0:0,0:0:0:0:
266,302,60022,2,0,P|284:350|295:373,1,48,2|0,1:2|0:0,0:0:0:0:
504,370,60262,6,0,B|508:249|508:249|488:218,1,144,14|0,0:0|3:0,0:0:0:0:
490,224,60682,1,0,3:0:0:0:
484,219,60742,1,2,1:0:0:0:
326,11,60982,2,0,P|261:23|197:30,1,96,14|0,0:0|3:0,0:0:0:0:
233,33,61282,1,0,3:0:0:0:
234,39,61342,1,8,0:3:0:0:
154,0,61462,6,0,B|146:31|146:31|153:68,1,48,6|0,1:0|0:0,0:0:0:0:
283,241,61702,2,0,B|285:225|285:225|277:194,1,48,2|0,1:2|0:0,0:0:0:0:
185,300,61942,2,0,B|150:290|150:290|119:282,1,48,2|0,1:2|0:0,0:0:0:0:
0,129,62182,6,0,P|70:114|111:106,1,96,14|0,0:0|0:0,0:0:0:0:
136,37,62542,1,0,3:0:0:0:
136,37,62602,1,0,3:0:0:0:
136,37,62662,1,0,1:0:0:0:
342,7,62902,2,0,L|357:60,1,48,14|0,0:0|0:0,0:0:0:0:
427,162,63142,1,0,3:0:0:0:
374,230,63262,1,8,0:3:0:0:
508,191,63382,6,0,B|499:222|499:222|495:252,1,48,6|0,1:0|0:0,0:0:0:0:
365,313,63622,2,0,B|374:344|374:344|378:374,1,48,2|0,1:2|0:0,0:0:0:0:
305,200,63862,2,0,P|271:197|250:194,1,48,2|0,1:2|0:0,0:0:0:0:
17,368,64102,5,14,0:0:0:0:
112,375,64342,1,2,0:0:0:0:
71,287,64582,1,2,1:2:0:0:
266,93,64822,1,14,0:0:0:0:
40,35,65062,1,2,3:2:0:0:
40,35,65122,1,0,3:0:0:0:
40,35,65182,1,8,0:3:0:0:
40,117,65302,6,0,P|92:102|99:101,1,48,6|0,1:0|0:0,0:0:0:0:
249,1,65542,2,0,P|272:6|295:15,1,48,2|0,1:2|0:0,0:0:0:0:
356,77,65782,2,0,B|349:136|349:136|352:157,1,48,2|0,1:2|0:0,0:0:0:0:
465,354,66022,6,0,B|484:280|484:280|460:246,1,96,14|0,0:0|0:0,0:0:0:0:
400,293,66382,1,0,3:0:0:0:
400,293,66442,1,0,3:0:0:0:
400,293,66502,1,0,1:0:0:0:
204,360,66742,6,0,L|260:351,1,48,14|0,0:0|0:0,0:0:0:0:
210,275,66982,1,0,3:0:0:0:
210,275,67042,1,0,3:0:0:0:
210,275,67102,1,8,0:3:0:0:
128,312,67222,6,0,L|113:265,1,48,6|0,1:0|0:0,0:0:0:0:
0,230,67462,2,0,L|15:183,1,48,2|0,1:2|0:0,0:0:0:0:
210,275,67702,2,0,P|233:270|253:258,1,48,2|0,1:2|0:0,0:0:0:0:
45,31,67942,6,0,B|150:87|150:87|148:124,1,144,14|0,0:0|3:0,0:0:0:0:
148,119,68362,1,0,3:0:0:0:
147,126,68422,1,2,1:0:0:0:
290,0,68662,2,0,L|311:65,1,48,14|0,0:0|0:0,0:0:0:0:
381,9,68902,1,0,3:0:0:0:
381,9,68962,1,0,3:0:0:0:
381,9,69022,1,8,0:3:0:0:
506,21,69142,6,0,L|494:79,1,48,6|0,1:0|0:0,0:0:0:0:
384,179,69382,2,0,L|393:226,1,48,2|0,1:2|0:0,0:0:0:0:
466,352,69622,2,0,P|511:359|525:353,1,48,2|0,1:2|0:0,0:0:0:0:
263,195,69862,6,0,B|208:184|208:184|148:168,1,96,14|0,0:0|0:0,0:0:0:0:
121,101,70222,1,0,3:0:0:0:
121,101,70282,1,0,3:0:0:0:
121,101,70342,1,0,1:0:0:0:
39,350,70582,2,0,B|35:281|35:281|30:247,1,96,14|0,0:0|3:0,0:0:0:0:
30,247,70882,1,0,3:0:0:0:
28,239,70942,1,8,0:3:0:0:
124,216,71062,6,0,B|163:230|163:230|185:234,1,48,6|0,1:0|0:0,0:0:0:0:
46,97,71302,2,0,B|7:111|7:111|1:113,1,48,2|0,1:2|0:0,0:0:0:0:
197,0,71542,2,0,P|246:17|250:17,1,48,2|0,1:2|0:0,0:0:0:0:
478,36,71782,5,14,0:0:0:0:
403,96,72022,1,2,0:0:0:0:
490,135,72262,1,2,1:2:0:0:
380,357,72502,1,14,0:0:0:0:
147,299,72742,1,2,3:2:0:0:
147,299,72802,1,0,3:0:0:0:
147,299,72862,1,8,0:3:0:0:
67,359,72982,6,0,B|64:324|64:324|54:306,1,48,6|0,1:0|0:0,0:0:0:0:
237,235,73222,2,0,B|230:246|230:246|227:281,1,48,2|0,1:2|0:0,0:0:0:0:
0,210,73462,2,0,B|29:185|29:185|39:163,1,48,2|0,1:2|0:0,0:0:0:0:
236,43,73702,6,0,P|296:56|347:69,1,96,14|0,0:0|0:0,0:0:0:0:
361,144,74062,1,0,3:0:0:0:
361,144,74122,1,0,3:0:0:0:
361,144,74182,1,0,1:0:0:0:
242,309,74422,2,0,L|237:255,1,48,14|0,0:0|0:0,0:0:0:0:
326,336,74662,1,0,3:0:0:0:
326,336,74722,1,0,3:0:0:0:
326,336,74782,1,8,0:3:0:0:
215,380,74902,6,0,L|163:372,1,48,6|0,1:0|0:0,0:0:0:0:
144,161,75142,2,0,L|96:168,1,48,2|0,1:2|0:0,0:0:0:0:
6,323,75382,2,0,P|2:366|-3:391,1,48,2|0,1:2|0:0,0:0:0:0:
293,239,75622,6,0,B|371:261|371:261|379:287,1,96,14|0,0:0|0:0,0:0:0:0:
313,337,75982,1,0,3:0:0:0:
313,337,76042,1,0,3:0:0:0:
313,337,76102,1,2,1:0:0:0:
246,132,76342,6,0,P|266:77|279:34,1,96,14|2,0:0|3:2,0:0:0:0:
271,36,76642,1,0,3:0:0:0:
265,31,76702,1,8,0:3:0:0:
336,162,76822,5,4,0:1:0:0:
256,192,76942,12,0,82582,0:0:0:0:
