osu file format v14

[General]
AudioFilename: audio.ogg
AudioLeadIn: 0
PreviewTime: 604
Countdown: 0
SampleSet: Soft
StackLeniency: 0.3
Mode: 0
LetterboxInBreaks: 0
WidescreenStoryboard: 0

[Editor]
DistanceSpacing: 2.3
BeatDivisor: 4
GridSize: 32
TimelineZoom: 1.8

[Metadata]
Title:Gotta Go Fast (TV Size)
TitleUnicode:Gotta Go Fast (TV Size)
Artist:Norman J. Grossfeld, Russell Velazquez
ArtistUnicode:Norman J. Grossfeld, Russell Velázquez
Creator:buddon
Version:SPEED OF SOUND
Source:Sonic X
Tags:ソニックX ソニック・ザ・ヘッジホッグ sonic theme sanic the hedgehog song opening gtg fasta faster Joseph Garrity velazques 4Kids TMS jetix Entertainment SEGA rock english anime the fart lord ayyri eiri- annabel jeby gos
BeatmapID:4419660
BeatmapSetID:2106264

[Difficulty]
HPDrainRate:6
CircleSize:4.2
OverallDifficulty:9.4
ApproachRate:9.6
SliderMultiplier:1.4
SliderTickRate:1

[Events]
//Background and Video events
0,0,"2619207.png",0,0
Video,543,"sonic.avi"
//Break Periods
//Storyboard Layer 0 (Background)
//Storyboard Layer 1 (Fail)
//Storyboard Layer 2 (Pass)
//Storyboard Layer 3 (Foreground)
//Storyboard Layer 4 (Overlay)
//Storyboard Sound Samples

[TimingPoints]
904,240,4,2,1,70,1,0
904,-80,4,2,1,70,0,0
1864,-80,4,2,1,75,0,0
2344,-74.0740740740741,4,2,1,75,0,0
2824,-66.6666666666667,4,2,1,85,0,1
3004,-66.6666666666667,4,2,1,5,0,1
3064,-66.6666666666667,4,2,1,85,0,1
6544,-66.6666666666667,4,2,1,85,0,0
6664,-62.5,4,2,1,85,0,1
6844,-62.5,4,2,1,5,0,1
6904,-62.5,4,2,1,85,0,1
7324,-62.5,4,2,1,5,0,1
7384,-62.5,4,2,1,85,0,1
8584,-66.6666666666667,4,2,1,85,0,1
9544,-83.3333333333333,4,2,1,85,0,1
9784,-71.4285714285714,4,2,1,85,0,1
10024,-62.5,4,2,1,85,0,1
10264,-55.5555555555556,4,2,1,85,0,1
10504,-83.3333333333333,4,2,1,70,0,0
10683,-83.3333333333333,4,2,1,5,0,0
10744,-83.3333333333333,4,2,1,70,0,0
12363,-83.3333333333333,4,2,1,5,0,0
12424,-83.3333333333333,4,2,1,70,0,0
14344,-80,4,2,1,75,0,0
16444,-80,4,2,1,5,0,0
16504,-80,4,2,1,75,0,0
17404,-80,4,2,1,5,0,0
17464,-80,4,2,1,75,0,0
17884,-80,4,2,1,5,0,0
17944,-80,4,2,1,75,0,0
22024,-80,4,2,1,85,0,0
22624,-80,4,2,1,60,0,0
23944,-80,4,2,1,70,0,0
25864,-71.4285714285714,4,2,1,80,0,0
26043,-71.4285714285714,4,2,1,5,0,0
26104,-71.4285714285714,4,2,1,80,0,0
27723,-71.4285714285714,4,2,1,5,0,0
27784,-71.4285714285714,4,2,1,80,0,0
29704,-76.9230769230769,4,2,1,80,0,0
34504,-100,4,2,1,65,0,0
40264,-100,4,2,1,75,0,0
40384,-100,4,2,1,5,0,0
40504,-100,4,2,1,75,0,0
42124,-100,4,2,1,5,0,0
42184,-62.5,4,2,1,95,0,1
42364,-62.5,4,2,1,5,0,1
42424,-62.5,4,2,1,95,0,1
45904,-62.5,4,2,1,95,0,0
46024,-58.8235294117647,4,2,1,95,0,1
46204,-58.8235294117647,4,2,1,5,0,1
46264,-58.8235294117647,4,2,1,95,0,1
46684,-58.8235294117647,4,2,1,5,0,1
46744,-58.8235294117647,4,2,1,95,0,1
49864,-62.5,4,2,1,95,0,1
55504,-62.5,4,2,1,95,0,0
55624,-55.5555555555556,4,2,1,95,0,1
55803,-55.5555555555556,4,2,1,5,0,1
55864,-55.5555555555556,4,2,1,95,0,1
56283,-55.5555555555556,4,2,1,5,0,1
56344,-55.5555555555556,4,2,1,95,0,1
57424,-55.5555555555556,4,2,1,95,0,0
57544,-111.111111111111,4,2,1,95,0,1
58443,-111.111111111111,4,2,1,5,0,1
58504,-111.111111111111,4,2,1,85,0,1
59464,-111.111111111111,4,2,1,85,0,0
60184,-111.111111111111,4,2,1,5,0,0

[Colours]
Combo1 : 177,218,222
Combo2 : 66,70,225
Combo3 : 189,136,238
Combo4 : 230,81,81
Combo5 : 231,197,146
Combo6 : 193,197,208
Combo7 : 135,205,138

[HitObjects]
128,241,664,5,8,0:0:0:0:
128,225,724,1,8,0:0:0:0:
128,210,784,1,8,0:0:0:0:
128,195,844,1,8,0:0:0:0:
128,179,904,6,0,P|173:162|217:178,1,87.5,2|0,0:0|3:2,0:0:0:0:
256,272,1144,1,10,0:0:0:0:
384,179,1264,2,0,P|338:162|294:178,1,87.5,10|0,0:0|3:2,0:0:0:0:
256,272,1504,1,10,0:0:0:0:
256,110,1624,2,0,L|256:14,1,87.5,6|0,3:2|0:0,0:0:0:0:
256,272,1864,5,10,0:0:0:0:
180,62,1984,1,0,3:2:0:0:
256,272,2104,1,10,0:0:0:0:
332,62,2224,1,0,3:2:0:0:
300,337,2344,6,0,P|256:352|211:337,1,94.5000003604889,10|2,0:0|3:2,0:0:0:0:
256,191,2584,1,10,0:0:0:0:
135,323,2704,1,0,3:2:0:0:
135,323,2764,1,0,3:2:0:0:
135,323,2824,6,0,L|114:166,1,157.500006008148,6|0,3:2|0:0,0:0:0:0:
99,154,3064,2,0,P|43:174|33:228,1,105.000004005432,10|0,0:0|0:0,0:0:0:0:
46,305,3304,1,2,3:2:0:0:
99,154,3424,1,0,3:2:0:0:
213,266,3544,2,0,P|263:275|311:256,1,105.000004005432,10|0,0:0|0:0,0:0:0:0:
441,144,3784,6,0,L|427:248,1,105.000004005432,2|0,3:2|0:0,0:0:0:0:
256,191,4023,2,0,L|241:87,1,105.000004005432,10|0,0:0|0:0,0:0:0:0:
301,20,4264,1,2,3:2:0:0:
128,74,4384,1,2,3:2:0:0:
334,175,4504,2,0,P|361:118|341:70,1,105.000004005432,10|0,0:0|0:0,0:0:0:0:
113,59,4744,6,0,B|54:105|54:105|86:238,1,210.000008010865,6|10,3:2|0:0,0:0:0:0:
74,341,5104,1,0,0:0:0:0:
179,196,5224,1,2,3:2:0:0:
148,381,5344,1,0,3:2:0:0:
0,265,5464,2,0,L|104:250,1,105.000004005432,10|0,0:0|0:0,0:0:0:0:
289,382,5704,6,0,P|316:325|296:277,1,105.000004005432,2|0,3:2|0:0,0:0:0:0:
170,181,5944,2,0,L|185:285,1,105.000004005432,10|0,0:0|0:0,0:0:0:0:
305,207,6184,1,2,3:2:0:0:
165,370,6304,1,2,3:2:0:0:
71,178,6424,2,0,P|123:164|174:183,1,105.000004005432,10|0,0:0|0:0,0:0:0:0:
331,352,6664,6,0,B|342:288|342:288|380:263|380:263|391:205,1,168,6|0,3:2|0:0,0:0:0:0:
289,96,6904,2,0,L|304:206,1,112,10|0,0:0|0:0,0:0:0:0:
450,352,7144,6,0,B|439:288|439:288|401:263|401:263|390:205,1,168,6|0,3:2|0:0,0:0:0:0:
491,96,7384,2,0,L|476:207,1,112,10|0,0:0|0:0,0:0:0:0:
258,281,7624,5,14,0:0:0:0:
476,206,7744,1,0,3:2:0:0:
201,213,7864,5,14,0:0:0:0:
492,207,7984,1,0,3:2:0:0:
189,129,8104,5,14,0:0:0:0:
508,208,8224,1,0,3:2:0:0:
147,281,8344,2,0,P|117:236|123:182,1,112,14|0,0:0|3:2,0:0:0:0:
284,53,8584,6,0,L|269:157,1,105.000004005432,4|0,3:2|0:0,0:0:0:0:
399,270,8824,2,0,L|384:166,1,105.000004005432,8|0,0:0|0:0,0:0:0:0:
284,53,9064,2,0,B|228:31|183:88|202:97|165:150|100:125,1,210.000008010865,2|8,3:2|0:0,0:0:0:0:
26,73,9424,1,0,0:0:0:0:
70,255,9544,6,0,L|77:203,3,41.9999987182618,2|2|2|2,3:2|0:0|0:0|0:0,0:0:0:0:
151,354,9784,6,0,L|144:302,3,48.9999985046387,10|2|2|2,0:0|0:0|0:0|0:0,0:0:0:0:
218,197,10024,5,10,0:0:0:0:
218,197,10084,1,2,0:0:0:0:
218,197,10144,2,0,L|210:254,1,56,10|2,0:0|0:0,0:0:0:0:
293,360,10264,5,10,0:0:0:0:
293,360,10324,1,2,0:0:0:0:
293,360,10384,2,0,L|284:297,1,62.9999980773926,10|2,0:0|0:0,0:0:0:0:
335,164,10504,6,0,P|400:156|460:199,1,125.999996154785,4|0,3:2|0:0,0:0:0:0:
472,188,10744,2,0,L|483:272,1,83.9999974365235,10|0,0:0|0:0,0:0:0:0:
369,318,10984,2,0,L|380:235,1,83.9999974365235,2|0,3:2|3:2,0:0:0:0:
410,129,11224,1,10,0:0:0:0:
380,234,11344,1,0,0:0:0:0:
342,76,11464,6,0,B|281:86|281:86|254:127|254:127|186:138,1,167.999994873047,6|10,3:2|0:0,0:0:0:0:
104,147,11824,1,0,0:0:0:0:
206,56,11944,1,2,3:2:0:0:
206,56,12064,1,0,3:2:0:0:
138,225,12184,2,0,P|72:227|22:174,1,125.999996154785,10|0,0:0|0:0,0:0:0:0:
10,185,12424,6,0,L|-1:269,1,83.9999974365235,2|0,3:2|0:0,0:0:0:0:
104,147,12664,2,0,L|93:63,1,83.9999974365235,10|0,0:0|0:0,0:0:0:0:
138,225,12904,1,2,3:2:0:0:
10,185,13024,1,0,3:2:0:0:
124,312,13144,2,0,L|208:301,1,83.9999974365235,10|0,0:0|0:0,0:0:0:0:
359,208,13384,6,0,P|378:264|353:305,1,83.9999974365235,6|0,3:2|0:0,0:0:0:0:
239,148,13624,2,0,P|220:204|245:245,1,83.9999974365235,10|0,0:0|0:0,0:0:0:0:
329,115,13864,1,2,3:2:0:0:
329,115,13984,1,0,3:2:0:0:
208,33,14104,2,0,P|243:24|300:46,1,83.9999974365235,10|8,0:0|0:0,0:0:0:0:
434,182,14344,6,0,B|452:63|452:63|410:97,1,175,6|10,3:2|0:0,0:0:0:0:
418,271,14704,1,0,0:0:0:0:
512,178,14824,1,2,3:2:0:0:
466,344,14944,1,0,3:2:0:0:
349,217,15064,2,0,P|295:223|265:262,1,87.5,10|0,0:0|0:0,0:0:0:0:
185,383,15304,6,0,L|174:297,1,87.5,6|0,3:2|0:0,0:0:0:0:
338,297,15544,2,0,L|326:383,1,87.5,10|0,0:0|0:0,0:0:0:0:
156,297,15784,2,0,L|145:211,1,87.5,2|0,3:2|3:2,0:0:0:0:
367,211,16024,2,0,L|355:297,1,87.5,10|0,0:0|0:0,0:0:0:0:
81,153,16264,6,0,B|144:129|144:129|209:153,1,131.25,4|0,3:2|0:0,0:0:0:0:
268,197,16504,2,0,P|279:175|268:105,1,87.5,10|0,0:0|0:0,0:0:0:0:
156,47,16744,1,2,3:2:0:0:
291,1,16864,1,0,3:2:0:0:
136,55,16984,2,0,L|43:42,1,87.5,10|0,0:0|0:0,0:0:0:0:
273,114,17224,6,0,P|337:114|390:77,1,131.25,2|0,3:2|0:0,0:0:0:0:
457,37,17464,2,0,B|472:77|472:77|450:133,1,87.5,10|0,0:0|0:0,0:0:0:0:
367,232,17704,2,0,P|347:197|371:231,1,131.25,2|0,3:2|0:0,0:0:0:0:
420,308,17944,2,0,L|327:320,1,87.5,10|0,0:0|0:0,0:0:0:0:
180,384,18184,6,0,B|154:279|154:279|207:237,1,175,6|8,3:2|0:0,0:0:0:0:
93,226,18544,1,2,0:0:0:0:
93,226,18664,2,0,P|74:265|80:314,1,87.5,0|0,3:2|0:0,0:0:0:0:
155,168,18904,6,0,P|54:149|7:209,1,175,10|0,0:0|3:2,0:0:0:0:
19,83,19264,1,2,0:0:0:0:
19,83,19384,2,0,P|63:64|103:67,1,87.5,8|0,0:0|3:2,0:0:0:0:
155,168,19624,2,0,L|247:155,1,87.5,2|0,3:2|3:2,0:0:0:0:
181,43,19864,1,8,0:0:0:0:
319,125,19984,1,2,0:0:0:0:
319,125,20104,6,0,P|336:70|311:29,1,87.5,0|0,3:2|0:0,0:0:0:0:
422,148,20344,2,0,L|409:240,1,87.5,10|0,0:0|0:0,0:0:0:0:
348,335,20584,1,0,3:2:0:0:
486,268,20704,1,0,3:2:0:0:
334,211,20824,6,0,B|270:221|270:221|241:264|241:264|170:276,2,175,10|0|8,0:0|3:2|0:0,0:0:0:0:
192,190,21424,1,0,0:0:0:0:
192,190,21544,2,0,P|173:151|179:102,1,87.5,0|0,3:2|0:0,0:0:0:0:
309,19,21784,2,0,L|296:111,1,87.5,10|0,0:0|0:0,0:0:0:0:
299,295,22024,5,14,0:0:0:0:
224,36,22144,1,0,3:2:0:0:
436,202,22264,1,14,0:0:0:0:
167,192,22384,1,0,3:2:0:0:
391,42,22504,1,14,0:0:0:0:
391,42,23944,5,8,0:0:0:0:
306,152,24064,1,0,3:2:0:0:
227,38,24184,2,0,P|171:37|137:62,1,87.5,2|0,0:0|3:2,0:0:0:0:
117,221,24424,5,8,0:0:0:0:
202,111,24544,1,0,3:2:0:0:
279,228,24664,2,0,P|335:229|369:204,1,87.5,2|0,0:0|3:2,0:0:0:0:
426,120,24904,1,8,0:0:0:0:
426,120,25024,1,0,3:2:0:0:
420,267,25144,5,14,0:0:0:0:
351,83,25264,1,0,3:2:0:0:
350,310,25384,5,14,0:0:0:0:
432,103,25504,1,0,3:2:0:0:
469,334,25624,5,14,0:0:0:0:
345,69,25744,1,0,3:2:0:0:
345,69,25804,1,0,3:2:0:0:
345,69,25864,6,0,L|199:88,1,146.999995513916,6|0,3:2|0:0,0:0:0:0:
187,104,26104,2,0,P|167:49|185:13,1,97.9999970092774,10|0,0:0|0:0,0:0:0:0:
236,169,26344,1,2,3:2:0:0:
90,80,26464,1,2,3:2:0:0:
110,259,26584,2,0,P|164:265|201:242,1,97.9999970092774,10|0,0:0|0:0,0:0:0:0:
38,147,26824,6,0,B|-21:193|-21:193|7:310,1,195.999994018555,6|10,3:2|0:0,0:0:0:0:
82,384,27184,1,0,0:0:0:0:
114,239,27304,1,0,3:2:0:0:
225,364,27424,1,2,3:2:0:0:
247,189,27544,2,0,P|312:199|416:227,1,146.999995513916,10|0,0:0|0:0,0:0:0:0:
410,212,27784,6,0,P|432:153|413:116,1,97.9999970092774,6|0,3:2|0:0,0:0:0:0:
247,189,28024,2,0,P|225:130|244:93,1,97.9999970092774,10|0,0:0|0:0,0:0:0:0:
426,224,28264,2,0,P|448:165|429:128,1,97.9999970092774,2|0,3:2|3:2,0:0:0:0:
232,204,28504,2,0,P|210:145|229:108,1,97.9999970092774,10|0,0:0|0:0,0:0:0:0:
348,6,28744,5,14,0:0:0:0:
138,112,28864,1,2,3:2:0:0:
365,175,28984,1,14,0:0:0:0:
118,112,29104,1,2,3:2:0:0:
348,6,29224,6,0,P|366:64|348:102,1,97.9999970092774,14|0,0:0|3:2,0:0:0:0:
241,292,29464,2,0,P|219:249|232:203,1,97.9999970092774,14|0,0:0|3:2,0:0:0:0:
287,54,29704,6,0,B|246:74|209:43|209:43|193:50|193:50|154:20|111:35,3,181.999991668702,6|8|0|8,3:2|0:0|3:2|0:0,0:0:0:0:
125,202,30664,6,0,L|138:109,1,90.9999958343508,4|0,3:2|0:0,0:0:0:0:
12,262,30904,2,0,L|-1:169,1,90.9999958343508,10|0,0:0|0:0,0:0:0:0:
93,343,31144,2,0,P|181:298|263:351,1,181.999991668702,2|8,3:2|0:0,0:0:0:0:
353,147,31624,5,6,3:2:0:0:
248,233,31744,1,2,0:0:0:0:
377,279,31864,1,10,0:0:0:0:
267,149,31984,1,2,0:0:0:0:
297,309,32104,1,2,3:2:0:0:
420,202,32224,1,2,3:2:0:0:
327,220,32344,5,10,0:0:0:0:
361,364,32584,6,0,L|453:351,1,90.9999958343508,4|0,3:2|0:0,0:0:0:0:
510,213,32824,2,0,L|417:201,1,90.9999958343508,10|0,0:0|0:0,0:0:0:0:
247,232,33064,2,0,P|188:181|220:77,1,181.999991668702,2|8,3:2|0:0,0:0:0:0:
441,113,33544,5,6,3:2:0:0:
333,203,33664,1,2,0:0:0:0:
306,70,33784,1,10,0:0:0:0:
419,201,33904,1,2,0:0:0:0:
266,148,34024,1,2,3:2:0:0:
389,41,34144,1,2,3:2:0:0:
361,128,34264,5,10,0:0:0:0:
296,55,34384,1,8,0:0:0:0:
296,55,34444,1,8,0:0:0:0:
296,55,34504,6,0,B|222:35|240:112|164:92,2,140,6|8|2,3:2|0:0|3:2,0:0:0:0:
161,24,35104,1,0,3:2:0:0:
161,24,35224,2,0,L|170:94,1,70,8|2,0:0|0:0,0:0:0:0:
150,198,35464,6,0,P|180:180|215:183,1,70,2|0,3:2|0:0,0:0:0:0:
358,215,35704,2,0,P|330:193|296:192,1,70,10|0,0:0|0:0,0:0:0:0:
241,324,35944,2,0,L|250:254,2,70,2|0|8,3:2|3:2|0:0,0:0:0:0:
262,122,36424,6,0,P|316:79|384:89,1,140,2|8,3:2|0:0,0:0:0:0:
427,260,36904,1,2,3:2:0:0:
343,164,37024,1,0,3:2:0:0:
343,164,37144,2,0,L|352:234,1,70,8|2,0:0|0:0,0:0:0:0:
416,342,37384,6,0,P|450:344|479:326,1,70,2|0,3:2|0:0,0:0:0:0:
340,316,37624,2,0,P|305:313|276:331,1,70,10|0,0:0|0:0,0:0:0:0:
427,260,37864,2,0,L|436:190,2,70,2|0|8,3:2|3:2|0:0,0:0:0:0:
226,181,38344,6,0,B|277:189|277:189|300:223|300:223|357:233,2,140,6|8|2,3:2|0:0|3:2,0:0:0:0:
132,255,38944,1,0,3:2:0:0:
132,255,39064,2,0,L|123:185,1,70,8|0,0:0|0:0,0:0:0:0:
236,100,39304,6,0,P|201:97|172:115,1,70,2|0,3:2|0:0,0:0:0:0:
0,113,39544,2,0,P|35:110|64:128,1,70,10|0,0:0|0:0,0:0:0:0:
132,255,39784,2,0,L|123:185,1,70,2|0,3:2|3:2,0:0:0:0:
102,0,40024,2,0,L|111:70,1,70,10|0,0:0|0:0,0:0:0:0:
136,274,40264,6,0,P|171:277|200:259,1,70,14|0,3:2|0:0,0:0:0:0:
0,113,40504,1,14,3:2:0:0:
0,113,41704,6,0,L|70:104,1,70,2|2,0:0|0:0,0:0:0:0:
158,189,41944,2,0,L|263:202,1,105,2|0,0:0|0:0,0:0:0:0:
278,216,42184,6,0,P|310:149|261:72,1,168,6|0,3:2|0:0,0:0:0:0:
193,51,42424,2,0,P|225:8|279:0,1,112,10|0,0:0|0:0,0:0:0:0:
395,65,42664,1,2,3:2:0:0:
228,151,42784,1,0,3:2:0:0:
429,234,42904,2,0,P|453:188|433:120,1,112,10|0,0:0|0:0,0:0:0:0:
326,305,43144,6,0,L|210:290,1,112,2|0,3:2|0:0,0:0:0:0:
44,208,43384,2,0,L|159:193,1,112,10|0,0:0|0:0,0:0:0:0:
148,339,43624,1,2,3:2:0:0:
228,151,43744,1,2,3:2:0:0:
141,357,43864,2,0,P|85:363|34:325,1,112,10|0,0:0|0:0,0:0:0:0:
228,151,44104,6,0,B|307:163|307:163|342:217|342:217|430:231,1,224,6|10,3:2|0:0,0:0:0:0:
256,239,44464,1,0,0:0:0:0:
394,142,44584,1,2,3:2:0:0:
323,333,44704,1,0,3:2:0:0:
228,151,44824,2,0,P|162:150|113:202,1,112,10|0,0:0|0:0,0:0:0:0:
242,350,45064,6,0,L|256:234,1,112,2|0,3:2|0:0,0:0:0:0:
113,65,45304,2,0,L|127:180,1,112,10|0,0:0|0:0,0:0:0:0:
145,324,45544,1,2,3:2:0:0:
228,151,45664,1,2,3:2:0:0:
31,258,45784,1,10,0:0:0:0:
242,350,45904,1,0,0:0:0:0:
79,122,46024,6,0,B|185:96|185:96|227:150,1,178.500003404617,6|0,3:2|0:0,0:0:0:0:
17,174,46264,2,0,P|-3:112|27:58,1,119.000002269745,10|0,0:0|0:0,0:0:0:0:
376,122,46504,6,0,B|270:96|270:96|228:150,1,178.500003404617,6|0,3:2|0:0,0:0:0:0:
438,174,46744,2,0,P|458:112|428:58,1,119.000002269745,10|0,0:0|0:0,0:0:0:0:
142,206,46984,5,14,0:0:0:0:
376,122,47104,1,0,3:2:0:0:
128,221,47224,5,14,0:0:0:0:
441,258,47344,1,0,3:2:0:0:
114,236,47464,5,14,0:0:0:0:
432,380,47584,1,0,3:2:0:0:
47,292,47704,2,0,P|27:230|57:176,1,119.000002269745,14|0,0:0|3:2,0:0:0:0:
303,40,47944,6,0,L|287:166,1,119.000002269745,6|0,3:2|3:2,0:0:0:0:
267,295,48184,1,10,0:0:0:0:
108,138,48304,2,0,P|159:110|217:117,1,119.000002269745,2|0,0:0|3:2,0:0:0:0:
383,210,48544,1,2,3:2:0:0:
193,368,48664,2,0,L|178:249,1,119.000002269745,10|0,0:0|0:0,0:0:0:0:
151,70,48904,5,2,3:2:0:0:
267,295,49024,1,0,3:2:0:0:
147,51,49144,5,10,0:0:0:0:
105,318,49264,1,0,0:0:0:0:
311,123,49384,5,10,0:0:0:0:
0,223,49504,1,8,0:0:0:0:
254,193,49624,1,10,0:0:0:0:
22,139,49744,1,8,0:0:0:0:
267,295,49864,6,0,B|346:283|346:283|381:229|381:229|469:215,1,224,6|8,3:2|0:0,0:0:0:0:
365,360,50224,1,0,0:0:0:0:
254,193,50344,2,0,P|187:182|143:225,1,112,2|0,3:2|0:0,0:0:0:0:
25,301,50584,2,0,P|92:312|136:269,1,112,10|0,0:0|0:0,0:0:0:0:
302,86,50824,6,0,B|224:67|224:67|171:104|171:104|84:84,1,224,6|8,3:2|0:0,0:0:0:0:
254,193,51184,1,0,0:0:0:0:
360,19,51304,2,0,P|387:79|367:138,1,112,2|0,3:2|3:2,0:0:0:0:
271,296,51544,2,0,P|244:236|264:177,1,112,10|0,0:0|0:0,0:0:0:0:
477,64,51784,6,0,L|447:302,2,224,6|8|2,3:2|0:0|3:2,0:0:0:0:
376,202,52384,1,2,3:2:0:0:
281,40,52504,2,0,P|227:32|176:61,1,112,10|0,0:0|0:0,0:0:0:0:
81,269,52744,6,0,L|192:283,1,112,6|0,3:2|0:0,0:0:0:0:
111,95,52984,2,0,L|0:109,1,112,10|0,0:0|0:0,0:0:0:0:
81,269,53224,1,2,3:2:0:0:
193,109,53344,1,2,3:2:0:0:
80,290,53464,1,10,0:0:0:0:
0,92,53584,1,0,0:0:0:0:
153,328,53704,6,0,B|214:352|264:289|243:279|283:221|355:248,1,224,6|10,3:2|0:0,0:0:0:0:
290,365,54064,1,0,0:0:0:0:
222,194,54184,1,2,3:2:0:0:
402,297,54304,1,0,3:2:0:0:
153,239,54424,2,0,P|141:175|161:136,1,112,10|0,0:0|0:0,0:0:0:0:
420,39,54664,6,0,L|406:150,1,112,6|0,3:2|0:0,0:0:0:0:
302,353,54904,2,0,L|288:242,1,112,10|0,0:0|0:0,0:0:0:0:
266,78,55144,1,2,3:2:0:0:
389,283,55264,1,2,0:0:0:0:
260,58,55384,1,8,0:0:0:0:
215,314,55504,1,0,0:0:0:0:
118,96,55624,6,0,B|186:106|186:106|216:153|216:153|293:165,1,188.999994232178,6|0,3:2|0:0,0:0:0:0:
131,292,55864,2,0,B|103:231|103:231|142:169,1,125.999996154785,10|0,0:0|0:0,0:0:0:0:
441,96,56104,6,0,B|372:106|372:106|342:153|342:153|265:165,1,188.999994232178,6|0,3:2|0:0,0:0:0:0:
428,292,56344,2,0,B|456:231|456:231|417:169,1,125.999996154785,10|0,0:0|0:0,0:0:0:0:
260,58,56584,5,14,0:0:0:0:
365,348,56704,1,2,3:2:0:0:
260,43,56824,5,14,0:0:0:0:
292,383,56944,1,2,3:2:0:0:
260,28,57064,5,14,0:0:0:0:
210,383,57184,1,0,3:2:0:0:
260,13,57304,5,14,0:0:0:0:
133,358,57424,1,0,3:2:0:0:
440,111,57544,6,0,B|362:162|269:135|269:135|195:251|195:251|116:214|45:274,1,472.499985580445,14|0,3:2|0:0,0:0:0:0:
44,349,58504,6,0,L|96:342,1,31.4999990386963,8|0,0:0|0:0,0:0:0:0:
439,215,58834,6,0,L|387:208,1,31.4999990386963,8|8,0:0|0:0,0:0:0:0:
44,74,59164,6,0,L|96:67,1,31.4999990386963,8|0,0:0|0:0,0:0:0:0:
267,251,59464,38,0,P|245:129|255:252,1,377.999988464356,12|0,0:3|0:0,0:0:0:0:
