osu file format v14

[General]
AudioFilename: audio.ogg
AudioLeadIn: 0
PreviewTime: 604
Countdown: 0
SampleSet: Soft
StackLeniency: 0.7
Mode: 0
LetterboxInBreaks: 0
WidescreenStoryboard: 1

[Editor]
DistanceSpacing: 1.1
BeatDivisor: 2
GridSize: 8
TimelineZoom: 4.199998

[Metadata]
Title:Gotta Go Fast (TV Size)
TitleUnicode:Gotta Go Fast (TV Size)
Artist:Norman J. Grossfeld, Russell Velazquez
ArtistUnicode:Norman J. Grossfeld, Russell Velázquez
Creator:buddon
Version:JEBY'S NORMAL
Source:Sonic X
Tags:ソニックX ソニック・ザ・ヘッジホッグ sonic theme sanic the hedgehog song opening gtg fasta faster Joseph Garrity velazques 4Kids TMS jetix Entertainment SEGA rock english anime the fart lord ayyri eiri- annabel jeby gos
BeatmapID:4422927
BeatmapSetID:2106264

[Difficulty]
HPDrainRate:3
CircleSize:3.2
OverallDifficulty:4.5
ApproachRate:5.5
SliderMultiplier:0.78
SliderTickRate:1

[Events]
//Background and Video events
0,0,"2619207.png",0,0
Video,543,"sonic.avi"
//Break Periods
//Storyboard Layer 0 (Background)
//Storyboard Layer 1 (Fail)
//Storyboard Layer 2 (Pass)
//Storyboard Layer 3 (Foreground)
//Storyboard Layer 4 (Overlay)
//Storyboard Sound Samples

[TimingPoints]
904,240,4,2,1,70,1,0
904,-103.092783505155,4,2,1,70,0,0
1864,-103.092783505155,4,2,1,75,0,0
2824,-100,4,2,1,85,0,1
8944,-100,4,2,1,5,0,1
9064,-100,4,2,1,85,0,1
9424,-100,4,2,1,5,0,1
9544,-100,4,2,1,85,0,1
10504,-103.092783505155,4,2,1,70,0,0
14344,-103.092783505155,4,2,1,75,0,0
22024,-103.092783505155,4,2,1,85,0,0
22624,-103.092783505155,4,2,1,60,0,0
23944,-103.092783505155,4,2,1,70,0,0
25864,-103.092783505155,4,2,1,80,0,0
34504,-103.092783505155,4,2,1,65,0,0
40264,-103.092783505155,4,2,1,75,0,0
42184,-97.0873786407767,4,2,1,95,0,1
57544,-103.092783505155,4,2,1,95,0,0
58024,-103.092783505155,4,2,1,5,0,0
58504,-103.092783505155,4,2,1,85,0,0
59464,-103.092783505155,4,2,1,85,0,0
60184,-103.092783505155,4,2,1,5,0,0

[Colours]
Combo1 : 177,218,222
Combo2 : 66,70,225
Combo3 : 189,136,238
Combo4 : 230,81,81
Combo5 : 231,197,146
Combo6 : 193,197,208
Combo7 : 135,205,138

[HitObjects]
338,96,904,6,0,P|398:73|453:83,2,113.490002684166,2|10|6,0:0|0:0|3:2,0:0:0:0:
301,171,1864,2,0,P|307:207|310:247,1,75.660001789444,10|10,0:0|0:0,0:0:0:0:
71,346,2824,6,0,P|64:308|60:267,1,78,6|10,3:2|0:0,0:0:0:0:
88,187,3304,1,2,3:2:0:0:
165,223,3544,1,10,0:0:0:0:
216,154,3784,2,0,P|223:115|227:75,1,78,2|10,3:2|0:0,0:0:0:0:
297,27,4264,1,2,3:2:0:0:
453,96,4744,6,0,P|461:173|435:251,1,156,6|2,3:2|3:2,0:0:0:0:
490,314,5464,1,10,0:0:0:0:
413,352,5704,2,0,P|375:345|334:341,1,78,2|10,3:2|0:0,0:0:0:0:
287,270,6184,1,2,3:2:0:0:
117,298,6664,6,0,P|120:260|127:221,1,78,6|10,3:2|0:0,0:0:0:0:
79,149,7144,2,0,P|114:133|151:120,1,78,6|10,3:2|0:0,0:0:0:0:
236,104,7624,1,14,0:0:0:0:
306,154,7864,1,14,0:0:0:0:
323,238,8104,1,14,0:0:0:0:
273,307,8344,1,14,0:0:0:0:
191,329,8584,6,0,B|151:311|151:311|77:326,1,117,4|0,3:2|0:0,0:0:0:0:
39,341,9064,2,0,P|50:283|53:225,1,117,2|0,3:2|0:0,0:0:0:0:
42,183,9544,2,0,P|80:180|119:173,1,78,2|10,3:2|0:0,0:0:0:0:
191,126,10024,1,10,0:0:0:0:
232,286,10504,6,0,B|280:267|310:281|299:292|345:306|395:286,1,151.320003578888,4|2,3:2|3:2,0:0:0:0:
466,303,11224,1,10,0:0:0:0:
466,303,11464,2,0,P|480:227|487:150,1,151.320003578888,6|2,3:2|3:2,0:0:0:0:
340,73,12424,6,0,P|265:90|185:55,1,151.320003578888,2|2,3:2|3:2,0:0:0:0:
122,96,13144,1,10,0:0:0:0:
122,96,13384,2,0,P|84:99|45:106,2,75.660001789444,6|10|2,3:2|0:0|3:2,0:0:0:0:
271,169,14344,6,0,B|286:227|257:279|257:279|271:325,1,151.320003578888,6|2,3:2|3:2,0:0:0:0:
192,342,15064,1,10,0:0:0:0:
192,342,15304,2,0,P|154:345|115:352,1,75.660001789444,6|10,3:2|0:0,0:0:0:0:
53,297,15784,1,2,3:2:0:0:
164,175,16264,6,0,P|161:137|154:98,2,75.660001789444,4|10|2,3:2|0:0|3:2,0:0:0:0:
202,254,16984,1,10,0:0:0:0:
202,254,17224,2,0,P|240:257|279:264,1,75.660001789444,2|10,3:2|0:0,0:0:0:0:
350,304,17704,1,2,3:2:0:0:
388,142,18184,6,0,P|447:128|505:142,2,113.490002684166,6|2|10,3:2|0:0|0:0,0:0:0:0:
285,70,19264,1,2,0:0:0:0:
181,139,19624,2,0,P|180:82|168:26,2,113.490002684166,2|2|10,3:2|0:0|0:0,0:0:0:0:
344,168,20824,2,0,B|364:220|364:220|344:324,1,151.320003578888,10|8,0:0|0:0,0:0:0:0:
274,355,21544,1,0,3:2:0:0:
107,345,22024,5,14,0:0:0:0:
52,282,22264,1,14,0:0:0:0:
63,199,22504,1,14,0:0:0:0:
229,54,23944,6,0,P|232:92|239:131,1,75.660001789444,8|2,0:0|0:0,0:0:0:0:
307,174,24424,2,0,P|304:212|297:251,1,75.660001789444,8|2,0:0|0:0,0:0:0:0:
268,327,24904,2,0,P|228:325|191:337,2,75.660001789444,8|14|14,0:0|0:0|0:0,0:0:0:0:
406,233,25864,6,0,P|436:170|406:77,1,151.320003578888,6|2,3:2|3:2,0:0:0:0:
481,38,26584,1,10,0:0:0:0:
481,38,26824,2,0,P|418:68|325:38,1,151.320003578888,6|0,3:2|3:2,0:0:0:0:
176,72,27784,6,0,P|173:110|166:149,1,75.660001789444,6|10,3:2|0:0,0:0:0:0:
245,173,28264,2,0,P|248:211|255:250,1,75.660001789444,2|10,3:2|0:0,0:0:0:0:
286,325,28744,2,0,P|345:304|403:325,1,113.490002684166,14|2,0:0|3:2,0:0:0:0:
428,336,29224,2,0,P|430:299|437:262,1,75.660001789444,14|14,0:0|0:0,0:0:0:0:
394,191,29704,2,0,P|318:177|239:172,1,151.320003578888,6|0,3:2|3:2,0:0:0:0:
79,195,30664,6,0,P|76:157|69:118,1,75.660001789444,4|10,3:2|0:0,0:0:0:0:
92,40,31144,1,2,3:2:0:0:
228,135,31624,2,0,P|268:132|305:145,2,75.660001789444,6|10|2,3:2|0:0|3:2,0:0:0:0:
191,210,32344,1,10,0:0:0:0:
191,210,32584,6,0,P|194:248|201:287,1,75.660001789444,4|10,3:2|0:0,0:0:0:0:
261,342,33064,1,2,3:2:0:0:
400,250,33544,2,0,P|440:253|477:240,2,75.660001789444,6|10|2,3:2|0:0|3:2,0:0:0:0:
361,177,34264,1,10,0:0:0:0:
361,177,34504,6,0,B|312:158|282:172|293:183|247:197|197:177,1,151.320003578888,6|2,3:2|3:2,0:0:0:0:
51,144,35464,2,0,P|57:183|61:222,1,75.660001789444,2|10,3:2|0:0,0:0:0:0:
68,301,35944,1,2,3:2:0:0:
228,345,36424,6,0,P|265:285|326:320,1,151.320003578888,2|2,3:2|3:2,0:0:0:0:
485,272,37384,2,0,P|491:228|475:194,1,75.660001789444,2|10,3:2|0:0,0:0:0:0:
441,126,37864,1,2,3:2:0:0:
290,55,38344,6,0,B|256:44|256:44|177:69|177:69|139:56,1,151.320003578888,6|2,3:2|3:2,0:0:0:0:
44,189,39304,2,0,P|50:227|54:266,1,75.660001789444,2|10,3:2|0:0,0:0:0:0:
102,331,39784,2,0,P|140:324|179:320,1,75.660001789444,2|10,3:2|0:0,0:0:0:0:
244,270,40264,1,14,3:2:0:0:
310,320,40504,1,14,3:2:0:0:
386,70,42184,6,0,P|347:63|306:59,1,80.3399993257599,6|10,3:2|0:0,0:0:0:0:
222,33,42664,1,2,3:2:0:0:
154,90,42904,1,10,0:0:0:0:
223,143,43144,2,0,P|230:181|234:223,1,80.3399993257599,2|10,3:2|0:0,0:0:0:0:
164,277,43624,1,2,3:2:0:0:
324,348,44104,6,0,P|395:312|479:328,1,160.67999865152,6|2,3:2|3:2,0:0:0:0:
486,236,44824,1,10,0:0:0:0:
415,182,45064,2,0,P|422:144|426:103,1,80.3399993257599,2|10,3:2|0:0,0:0:0:0:
374,32,45544,1,2,3:2:0:0:
201,71,46024,6,0,P|161:66|121:59,1,80.3399993257599,6|10,3:2|0:0,0:0:0:0:
37,86,46504,2,0,P|53:122|67:160,1,80.3399993257599,6|10,3:2|0:0,0:0:0:0:
131,221,46984,1,14,0:0:0:0:
208,178,47224,1,14,0:0:0:0:
282,225,47464,1,14,0:0:0:0:
270,312,47704,1,14,0:0:0:0:
187,343,47944,6,0,P|147:329|108:332,1,80.3399993257599,6|10,3:2|0:0,0:0:0:0:
67,346,48304,2,0,P|69:306|56:268,1,80.3399993257599,2|2,0:0|3:2,0:0:0:0:
37,228,48664,1,10,0:0:0:0:
98,164,48904,2,0,P|85:126|87:86,1,80.3399993257599,2|10,3:2|0:0,0:0:0:0:
160,35,49384,1,10,0:0:0:0:
222,97,49624,1,10,0:0:0:0:
284,159,49864,6,0,B|336:138|336:138|441:159,1,160.67999865152,6|2,3:2|3:2,0:0:0:0:
471,240,50584,1,10,0:0:0:0:
389,274,50824,2,0,P|394:314|401:353,2,80.3399993257599,6|8|2,3:2|0:0|3:2,0:0:0:0:
225,340,51784,6,0,P|124:329|49:297,1,160.67999865152,6|2,3:2|3:2,0:0:0:0:
36,225,52504,1,10,0:0:0:0:
118,194,52744,2,0,P|122:154|130:115,1,80.3399993257599,6|10,3:2|0:0,0:0:0:0:
181,42,53224,1,2,3:2:0:0:
332,133,53704,6,0,P|339:171|343:213,1,80.3399993257599,6|10,3:2|0:0,0:0:0:0:
334,300,54184,1,2,3:2:0:0:
412,340,54424,1,10,0:0:0:0:
466,270,54664,2,0,P|459:231|454:190,1,80.3399993257599,6|10,3:2|0:0,0:0:0:0:
489,109,55144,1,2,3:2:0:0:
314,82,55624,6,0,P|274:86|234:93,1,80.3399993257599,6|10,3:2|0:0,0:0:0:0:
165,38,56104,2,0,P|149:75|136:113,1,80.3399993257599,6|10,3:2|0:0,0:0:0:0:
154,200,56584,2,0,P|113:196|76:210,2,80.3399993257599,14|14|14,0:0|0:0|0:0,0:0:0:0:
207,270,57304,1,14,0:0:0:0:
259,334,57544,6,0,P|343:320|415:314,1,151.320003578888,14|0,3:2|0:0,0:0:0:0:
463,157,58504,2,0,B|475:120|475:120|465:52,2,104.032502460486,8|8|8,0:0|0:0|0:0,0:0:0:0:
394,221,59464,5,12,0:3:0:0:
