osu file format v14

[General]
AudioFilename: audio.ogg
AudioLeadIn: 0
PreviewTime: 604
Countdown: 0
SampleSet: Soft
StackLeniency: 0.3
Mode: 0
LetterboxInBreaks: 0
WidescreenStoryboard: 1

[Editor]
DistanceSpacing: 2.3
BeatDivisor: 4
GridSize: 32
TimelineZoom: 1.8

[Metadata]
Title:Gotta Go Fast (TV Size)
TitleUnicode:Gotta Go Fast (TV Size)
Artist:Norman J. Grossfeld, Russell Velazquez
ArtistUnicode:Norman J. Grossfeld, Russell Velázquez
Creator:buddon
Version:EXPERT
Source:Sonic X
Tags:ソニックX ソニック・ザ・ヘッジホッグ sonic theme sanic the hedgehog song opening gtg fasta faster Joseph Garrity velazques 4Kids TMS jetix Entertainment SEGA rock english anime the fart lord ayyri eiri- annabel jeby gos
BeatmapID:4421836
BeatmapSetID:2106264

[Difficulty]
HPDrainRate:5.5
CircleSize:4
OverallDifficulty:9
ApproachRate:9.3
SliderMultiplier:1.4
SliderTickRate:1

[Events]
//Background and Video events
0,0,"2619207.png",0,0
Video,543,"sonic.avi"
//Break Periods
//Storyboard Layer 0 (Background)
//Storyboard Layer 1 (Fail)
//Storyboard Layer 2 (Pass)
//Storyboard Layer 3 (Foreground)
//Storyboard Layer 4 (Overlay)
//Storyboard Sound Samples

[TimingPoints]
904,240,4,2,1,70,1,0
904,-90.9090909090909,4,2,1,70,0,0
1864,-90.9090909090909,4,2,1,75,0,0
2824,-76.9230769230769,4,2,1,85,0,1
6544,-76.9230769230769,4,2,1,85,0,0
6664,-71.4285714285714,4,2,1,85,0,1
6843,-71.4285714285714,4,2,1,5,0,1
6904,-71.4285714285714,4,2,1,85,0,1
7323,-71.4285714285714,4,2,1,5,0,1
7384,-71.4285714285714,4,2,1,85,0,1
8584,-76.9230769230769,4,2,1,85,0,1
10504,-95.2380952380952,4,2,1,70,0,0
12363,-95.2380952380952,4,2,1,5,0,0
12424,-95.2380952380952,4,2,1,70,0,0
14344,-86.9565217391304,4,2,1,75,0,0
16444,-86.9565217391304,4,2,1,5,0,0
16504,-86.9565217391304,4,2,1,75,0,0
17884,-86.9565217391304,4,2,1,5,0,0
17944,-86.9565217391304,4,2,1,75,0,0
22024,-86.9565217391304,4,2,1,85,0,0
22624,-86.9565217391304,4,2,1,60,0,0
23944,-86.9565217391304,4,2,1,70,0,0
25864,-81.3008130081301,4,2,1,80,0,0
29704,-88.4955752212389,4,2,1,80,0,0
34504,-125,4,2,1,65,0,0
40264,-125,4,2,1,75,0,0
42124,-125,4,2,1,5,0,0
42184,-71.4285714285714,4,2,1,95,0,1
45904,-71.4285714285714,4,2,1,95,0,0
46024,-66.6666666666667,4,2,1,95,0,1
46204,-66.6666666666667,4,2,1,5,0,1
46264,-66.6666666666667,4,2,1,95,0,1
46684,-66.6666666666667,4,2,1,5,0,1
46744,-66.6666666666667,4,2,1,95,0,1
49864,-71.4285714285714,4,2,1,95,0,1
55504,-71.4285714285714,4,2,1,95,0,0
55624,-66.6666666666667,4,2,1,95,0,1
55804,-66.6666666666667,4,2,1,5,0,1
55864,-66.6666666666667,4,2,1,95,0,1
56284,-66.6666666666667,4,2,1,5,0,1
56344,-66.6666666666667,4,2,1,95,0,1
57424,-66.6666666666667,4,2,1,95,0,0
57544,-144.927536231884,4,2,1,95,0,1
58444,-144.927536231884,4,2,1,5,0,1
58504,-144.927536231884,4,2,1,85,0,1
59344,-144.927536231884,4,2,1,85,0,0
60184,-144.927536231884,4,2,1,5,0,0

[Colours]
Combo1 : 177,218,222
Combo2 : 66,70,225
Combo3 : 189,136,238
Combo4 : 230,81,81
Combo5 : 231,197,146
Combo6 : 193,197,208
Combo7 : 135,205,138

[HitObjects]
345,297,664,5,8,0:0:0:0:
345,297,724,1,8,0:0:0:0:
345,297,784,2,0,L|345:261,1,35,8|8,0:0|0:0,0:0:0:0:
384,190,904,6,0,P|345:179|304:190,1,77.0000023498536,2|0,0:0|3:2,0:0:0:0:
256,264,1144,1,10,0:0:0:0:
128,190,1264,2,0,P|167:179|208:190,1,77.0000023498536,10|0,0:0|3:2,0:0:0:0:
256,264,1504,1,10,0:0:0:0:
256,126,1624,2,0,L|256:38,1,77.0000023498536,6|0,3:2|0:0,0:0:0:0:
256,264,1864,5,10,0:0:0:0:
332,99,1984,1,0,3:2:0:0:
256,264,2104,1,10,0:0:0:0:
180,99,2224,1,0,3:2:0:0:
256,264,2344,6,0,P|293:275|330:268,1,77.0000023498536,10|2,0:0|3:2,0:0:0:0:
201,186,2584,2,0,P|163:179|126:189,1,77.0000023498536,10|0,0:0|3:2,0:0:0:0:
172,261,2764,1,0,3:2:0:0:
172,261,2824,6,0,L|155:351,1,90.9999958343508,6|0,3:2|0:0,0:0:0:0:
38,294,3064,2,0,L|21:204,1,90.9999958343508,10|0,0:0|0:0,0:0:0:0:
82,109,3304,1,2,3:2:0:0:
21,204,3424,1,0,3:2:0:0:
92,94,3544,2,0,P|136:85|179:98,1,90.9999958343508,10|0,0:0|0:0,0:0:0:0:
155,271,3784,6,0,L|138:181,1,90.9999958343508,2|0,3:2|0:0,0:0:0:0:
271,68,4024,2,0,L|254:158,1,90.9999958343508,10|0,0:0|0:0,0:0:0:0:
237,256,4264,1,2,3:2:0:0:
179,98,4384,1,2,3:2:0:0:
245,274,4504,2,0,P|289:283|332:270,1,90.9999958343508,10|0,0:0|0:0,0:0:0:0:
454,141,4744,6,0,B|418:119|418:119|364:184|418:245,1,181.999991668702,6|10,3:2|0:0,0:0:0:0:
508,211,5104,1,0,0:0:0:0:
401,324,5224,1,2,3:2:0:0:
314,193,5344,1,0,3:2:0:0:
410,340,5464,2,0,P|366:353|322:344,1,90.9999958343508,10|0,0:0|0:0,0:0:0:0:
232,215,5704,6,0,L|215:305,1,90.9999958343508,2|0,3:2|0:0,0:0:0:0:
133,384,5944,2,0,L|116:294,1,90.9999958343508,10|0,0:0|0:0,0:0:0:0:
95,193,6184,1,2,3:2:0:0:
226,322,6304,1,2,3:2:0:0:
44,341,6424,2,0,P|31:297|40:253,1,90.9999958343508,10|0,0:0|0:0,0:0:0:0:
163,141,6664,6,0,P|86:110|25:143,1,146.999995513916,6|0,3:2|0:0,0:0:0:0:
24,155,6904,2,0,L|5:56,1,97.9999970092774,10|0,0:0|0:0,0:0:0:0:
163,141,7144,6,0,P|240:110|301:143,1,146.999995513916,6|0,3:2|0:0,0:0:0:0:
302,155,7384,2,0,L|320:56,1,97.9999970092774,10|0,0:0|0:0,0:0:0:0:
183,224,7624,5,14,0:0:0:0:
160,48,7744,1,0,3:2:0:0:
183,241,7864,5,14,0:0:0:0:
243,37,7984,1,0,3:2:0:0:
183,258,8104,5,14,0:0:0:0:
320,58,8224,1,0,3:2:0:0:
261,295,8344,2,0,P|309:309|357:299,1,97.9999970092774,14|0,0:0|3:2,0:0:0:0:
470,162,8584,6,0,B|404:174|404:174|373:219|373:219|307:232,1,181.999991668702,4|8,3:2|0:0,0:0:0:0:
433,275,8944,1,0,0:0:0:0:
321,146,9064,2,0,B|229:122|251:217|157:192,1,181.999991668702,2|8,3:2|0:0,0:0:0:0:
198,98,9424,1,0,0:0:0:0:
58,170,9544,6,0,L|48:120,3,45.4999979171754,2|2|2|2,3:2|0:0|0:0|0:0,0:0:0:0:
156,191,9784,2,0,L|147:235,3,45.4999979171754,10|2|2|2,0:0|0:0|0:0|0:0,0:0:0:0:
51,298,10024,6,0,L|41:248,3,45.4999979171754,10|2|10|2,0:0|0:0|0:0|0:0,0:0:0:0:
149,319,10264,2,0,L|140:363,1,45.4999979171754,10|2,0:0|0:0,0:0:0:0:
225,278,10384,1,10,0:0:0:0:
225,278,10444,1,2,0:0:0:0:
225,278,10504,6,0,P|262:271|299:280,1,73.4999977569581,4|0,3:2|0:0,0:0:0:0:
384,344,10744,2,0,L|397:271,1,73.4999977569581,10|0,0:0|0:0,0:0:0:0:
309,201,10984,2,0,L|295:128,1,73.4999977569581,2|0,3:2|3:2,0:0:0:0:
334,46,11224,1,10,0:0:0:0:
334,46,11344,1,0,0:0:0:0:
215,113,11464,6,0,B|162:103|162:103|137:67|137:67|84:57,1,146.999995513916,6|10,3:2|0:0,0:0:0:0:
104,158,11824,1,0,0:0:0:0:
19,93,11944,1,2,3:2:0:0:
19,93,12064,1,0,3:2:0:0:
0,232,12184,2,0,P|61:227|115:263,1,110.249996635437,10|0,0:0|0:0,0:0:0:0:
114,271,12424,6,0,L|187:257,1,73.4999977569581,2|0,3:2|0:0,0:0:0:0:
255,184,12664,2,0,L|328:198,1,73.4999977569581,10|0,0:0|0:0,0:0:0:0:
394,273,12904,1,2,3:2:0:0:
394,273,13024,1,0,3:2:0:0:
311,353,13144,2,0,P|300:318|306:282,1,73.4999977569581,10|0,0:0|0:0,0:0:0:0:
471,316,13384,6,0,P|481:282|475:246,1,73.4999977569581,6|0,3:2|0:0,0:0:0:0:
381,188,13624,2,0,P|370:153|377:117,1,73.4999977569581,10|0,0:0|0:0,0:0:0:0:
428,42,13864,1,2,3:2:0:0:
428,42,13984,1,0,3:2:0:0:
318,66,14104,2,0,L|245:80,1,73.4999977569581,10|8,0:0|0:0,0:0:0:0:
153,182,14344,6,0,B|120:201|120:201|72:143|118:90,1,161.000003070831,6|10,3:2|0:0,0:0:0:0:
158,20,14704,1,0,0:0:0:0:
249,105,14824,1,2,3:2:0:0:
249,105,14944,1,0,3:2:0:0:
158,20,15064,2,0,P|119:11|80:20,1,80.5000015354157,10|0,0:0|0:0,0:0:0:0:
15,115,15304,6,0,L|0:35,1,80.5000015354157,6|0,3:2|0:0,0:0:0:0:
117,90,15544,2,0,L|101:169,1,80.5000015354157,10|0,0:0|0:0,0:0:0:0:
42,274,15784,2,0,L|27:194,1,80.5000015354157,2|0,3:2|3:2,0:0:0:0:
144,249,16024,2,0,L|128:328,1,80.5000015354157,10|0,0:0|0:0,0:0:0:0:
194,158,16264,6,0,B|258:141|242:207|308:190,1,120.750002303124,4|0,3:2|0:0,0:0:0:0:
324,185,16504,2,0,P|335:146|328:107,1,80.5000015354157,10|0,0:0|0:0,0:0:0:0:
271,37,16744,1,2,3:2:0:0:
271,37,16864,1,0,3:2:0:0:
392,60,16984,2,0,L|472:75,1,80.5000015354157,10|0,0:0|0:0,0:0:0:0:
426,232,17224,6,0,P|415:193|422:154,1,80.5000015354157,2|0,3:2|0:0,0:0:0:0:
470,304,17464,2,0,P|431:314|392:308,1,80.5000015354157,10|0,0:0|0:0,0:0:0:0:
330,206,17704,2,0,B|297:210|283:240|283:240|262:216|228:222,1,120.750002303124,2|0,3:2|0:0,0:0:0:0:
212,205,17944,2,0,L|132:220,1,80.5000015354157,10|0,0:0|0:0,0:0:0:0:
3,175,18184,6,0,B|19:85|19:85|52:65|89:97,1,161.000003070831,6|8,3:2|0:0,0:0:0:0:
169,133,18544,1,2,0:0:0:0:
169,133,18664,2,0,P|180:94|173:55,1,80.5000015354157,0|0,3:2|0:0,0:0:0:0:
276,142,18904,6,0,B|334:131|334:131|361:91|361:91|420:80,2,161.000003070831,10|0|8,0:0|3:2|0:0,0:0:0:0:
411,163,19504,1,0,3:2:0:0:
303,252,19624,2,0,P|292:291|299:330,1,80.5000015354157,2|0,3:2|3:2,0:0:0:0:
380,295,19864,1,8,0:0:0:0:
380,295,19984,1,2,0:0:0:0:
200,270,20104,6,0,L|120:255,1,80.5000015354157,0|0,3:2|0:0,0:0:0:0:
39,183,20344,2,0,L|119:168,1,80.5000015354157,10|0,0:0|0:0,0:0:0:0:
214,148,20584,1,0,3:2:0:0:
214,148,20704,1,0,3:2:0:0:
137,62,20824,6,0,P|61:44|2:95,2,161.000003070831,10|0|8,0:0|3:2|0:0,0:0:0:0:
118,168,21424,1,0,0:0:0:0:
118,168,21544,2,0,L|103:248,1,80.5000015354157,0|0,3:2|0:0,0:0:0:0:
39,350,21784,2,0,L|24:270,1,80.5000015354157,10|0,0:0|0:0,0:0:0:0:
234,202,22024,5,14,0:0:0:0:
25,271,22144,1,0,3:2:0:0:
155,93,22264,1,14,0:0:0:0:
155,313,22384,1,0,3:2:0:0:
25,135,22504,1,14,0:0:0:0:
25,135,23944,5,8,0:0:0:0:
86,214,24064,1,0,3:2:0:0:
150,137,24184,2,0,P|189:130|227:141,1,80.5000015354157,2|0,0:0|3:2,0:0:0:0:
245,292,24424,5,8,0:0:0:0:
184,213,24544,1,0,3:2:0:0:
120,290,24664,2,0,P|81:296|43:285,1,80.5000015354157,2|0,0:0|3:2,0:0:0:0:
90,195,24904,1,8,0:0:0:0:
90,195,25024,1,0,3:2:0:0:
127,310,25144,5,14,0:0:0:0:
150,137,25264,1,0,3:2:0:0:
245,292,25384,1,14,0:0:0:0:
146,124,25504,1,0,3:2:0:0:
127,310,25624,1,14,0:0:0:0:
258,169,25744,1,0,3:2:0:0:
258,169,25804,1,0,3:2:0:0:
259,168,25864,6,0,B|349:145|327:240|412:217,1,172.200002627564,6|10,3:2|0:0,0:0:0:0:
496,184,26224,1,0,0:0:0:0:
418,299,26344,2,0,P|404:256|413:212,1,86.1000013137818,2|2,3:2|3:2,0:0:0:0:
462,109,26584,2,0,L|377:93,1,86.1000013137818,10|0,0:0|0:0,0:0:0:0:
186,95,26824,6,0,B|244:83|244:83|275:38|275:38|340:27,1,172.200002627564,6|10,3:2|0:0,0:0:0:0:
306,153,27184,1,0,0:0:0:0:
186,95,27304,2,0,P|143:88|103:102,1,86.1000013137818,0|2,3:2|3:2,0:0:0:0:
53,218,27544,2,0,L|138:234,1,86.1000013137818,10|0,0:0|0:0,0:0:0:0:
25,137,27784,6,0,L|9:52,1,86.1000013137818,6|0,3:2|0:0,0:0:0:0:
201,10,28024,2,0,L|185:95,1,86.1000013137818,10|0,0:0|0:0,0:0:0:0:
15,147,28264,2,0,L|-1:62,1,86.1000013137818,2|0,3:2|3:2,0:0:0:0:
214,2,28504,2,0,L|198:87,1,86.1000013137818,10|0,0:0|0:0,0:0:0:0:
156,230,28744,5,14,0:0:0:0:
106,45,28864,1,2,3:2:0:0:
152,246,28984,1,14,0:0:0:0:
280,84,29104,1,2,3:2:0:0:
232,273,29224,6,0,P|275:280|315:266,1,86.1000013137818,14|0,0:0|3:2,0:0:0:0:
413,142,29464,2,0,P|370:135|330:149,1,86.1000013137818,14|0,0:0|3:2,0:0:0:0:
448,280,29704,6,0,B|426:194|516:215|494:134,3,158.200000482788,6|8|0|8,3:2|0:0|3:2|0:0,0:0:0:0:
335,157,30664,6,0,L|412:142,1,79.100000241394,4|0,3:2|0:0,0:0:0:0:
360,252,30904,2,0,L|283:237,1,79.100000241394,10|0,0:0|0:0,0:0:0:0:
171,178,31144,2,0,P|194:106|268:94,1,158.200000482788,2|8,3:2|0:0,0:0:0:0:
182,286,31624,5,6,3:2:0:0:
267,236,31744,1,2,0:0:0:0:
178,193,31864,1,10,0:0:0:0:
177,301,31984,1,2,0:0:0:0:
282,236,32104,1,2,3:2:0:0:
170,181,32224,1,2,3:2:0:0:
211,237,32344,5,10,0:0:0:0:
82,361,32584,6,0,L|97:284,1,79.100000241394,4|0,3:2|0:0,0:0:0:0:
0,216,32824,2,0,L|15:293,1,79.100000241394,10|0,0:0|0:0,0:0:0:0:
89,161,33064,2,0,P|85:81|9:48,1,158.200000482788,2|8,3:2|0:0,0:0:0:0:
206,29,33544,5,6,3:2:0:0:
117,72,33664,1,2,0:0:0:0:
202,122,33784,1,10,0:0:0:0:
214,17,33904,1,2,0:0:0:0:
102,72,34024,1,2,3:2:0:0:
207,137,34144,1,2,3:2:0:0:
174,75,34264,5,10,0:0:0:0:
126,161,34384,1,8,0:0:0:0:
126,161,34444,1,8,0:0:0:0:
126,161,34504,6,0,L|147:270,2,112,6|8|2,3:2|0:0|3:2,0:0:0:0:
48,210,35104,1,0,3:2:0:0:
48,210,35224,2,0,L|58:264,1,56,8|2,0:0|0:0,0:0:0:0:
40,353,35464,6,0,P|66:359|93:351,1,56,2|0,3:2|0:0,0:0:0:0:
147,270,35704,2,0,P|173:263|200:271,1,56,10|0,0:0|0:0,0:0:0:0:
272,342,35944,2,0,P|298:348|325:340,2,56,2|0|8,3:2|3:2|0:0,0:0:0:0:
382,220,36424,6,0,B|342:227|342:227|323:254|323:254|284:262,2,112,2|8|2,3:2|0:0|3:2,0:0:0:0:
474,265,37024,1,0,3:2:0:0:
474,265,37144,2,0,L|464:211,1,56,8|2,0:0|0:0,0:0:0:0:
484,131,37384,6,0,P|457:124|431:133,1,56,2|0,3:2|0:0,0:0:0:0:
382,220,37624,2,0,P|355:226|329:217,1,56,10|0,0:0|0:0,0:0:0:0:
267,143,37864,2,0,P|240:136|214:145,2,56,2|0|8,3:2|3:2|0:0,0:0:0:0:
150,238,38344,6,0,L|129:129,2,112,6|8|2,3:2|0:0|3:2,0:0:0:0:
61,225,38944,1,0,3:2:0:0:
61,225,39064,2,0,L|51:171,1,56,8|0,0:0|0:0,0:0:0:0:
18,75,39304,6,0,P|44:65|71:71,1,56,2|0,3:2|0:0,0:0:0:0:
181,124,39544,2,0,P|155:133|128:128,1,56,10|0,0:0|0:0,0:0:0:0:
230,57,39784,2,0,P|256:47|283:53,1,56,2|0,3:2|3:2,0:0:0:0:
393,106,40024,2,0,P|367:115|340:110,1,56,10|0,0:0|0:0,0:0:0:0:
448,37,40264,5,14,3:2:0:0:
406,256,40504,1,14,3:2:0:0:
406,256,41704,6,0,L|352:246,1,56,2|2,0:0|0:0,0:0:0:0:
291,176,41944,2,0,L|208:191,1,84,2|0,0:0|0:0,0:0:0:0:
197,207,42184,6,0,P|179:158|192:111,1,97.9999970092774,6|0,3:2|0:0,0:0:0:0:
247,277,42424,2,0,P|202:293|155:283,1,97.9999970092774,10|0,0:0|0:0,0:0:0:0:
75,201,42664,1,2,3:2:0:0:
128,356,42784,1,0,3:2:0:0:
197,207,42904,2,0,P|207:159|189:114,1,97.9999970092774,10|0,0:0|0:0,0:0:0:0:
40,68,43144,6,0,L|136:49,1,97.9999970092774,2|0,3:2|0:0,0:0:0:0:
285,133,43384,2,0,L|189:114,1,97.9999970092774,10|0,0:0|0:0,0:0:0:0:
378,56,43624,1,2,3:2:0:0:
275,231,43744,1,2,3:2:0:0:
214,36,43864,2,0,P|259:18|306:28,1,97.9999970092774,10|0,0:0|0:0,0:0:0:0:
442,156,44104,6,0,B|369:169|369:169|335:218|335:218|274:230,1,195.999994018555,6|10,3:2|0:0,0:0:0:0:
421,244,44464,1,0,0:0:0:0:
285,133,44584,1,2,3:2:0:0:
341,305,44704,1,0,3:2:0:0:
442,156,44824,2,0,P|452:108|434:63,1,97.9999970092774,10|0,0:0|0:0,0:0:0:0:
324,213,45064,6,0,P|276:223|231:205,1,97.9999970092774,2|0,3:2|0:0,0:0:0:0:
118,102,45304,2,0,P|163:84|210:94,1,97.9999970092774,10|0,0:0|0:0,0:0:0:0:
153,220,45544,1,2,3:2:0:0:
76,38,45664,1,2,3:2:0:0:
158,235,45784,2,0,P|112:252|65:242,1,97.9999970092774,10|0,0:0|0:0,0:0:0:0:
210,94,46024,6,0,B|266:104|266:104|292:142|292:142|349:153,1,157.500006008148,6|0,3:2|0:0,0:0:0:0:
360,167,46264,2,0,P|379:117|368:65,1,105.000004005432,10|0,0:0|0:0,0:0:0:0:
210,94,46504,6,0,B|153:104|153:104|127:142|127:142|70:153,1,157.500006008148,6|0,3:2|0:0,0:0:0:0:
60,167,46744,2,0,P|40:117|51:65,1,105.000004005432,10|0,0:0|0:0,0:0:0:0:
253,210,46984,5,14,0:0:0:0:
60,167,47104,1,0,3:2:0:0:
273,215,47224,5,14,0:0:0:0:
28,248,47344,1,0,3:2:0:0:
293,220,47464,5,14,0:0:0:0:
49,329,47584,1,0,3:2:0:0:
328,383,47704,2,0,P|347:333|336:281,1,105.000004005432,14|0,0:0|3:2,0:0:0:0:
250,122,47944,6,0,L|353:101,1,105.000004005432,6|0,3:2|3:2,0:0:0:0:
465,199,48184,1,10,0:0:0:0:
338,284,48304,2,0,P|319:234|330:182,1,105.000004005432,2|0,0:0|3:2,0:0:0:0:
437,108,48544,1,2,3:2:0:0:
437,293,48664,2,0,P|386:302|337:283,1,105.000004005432,10|0,0:0|0:0,0:0:0:0:
350,83,48904,5,2,3:2:0:0:
465,199,49024,1,0,3:2:0:0:
285,217,49144,5,10,0:0:0:0:
437,108,49264,1,0,0:0:0:0:
337,283,49384,5,10,0:0:0:0:
280,128,49504,1,8,0:0:0:0:
242,293,49624,1,10,0:0:0:0:
207,183,49744,1,8,0:0:0:0:
186,351,49864,6,0,B|113:338|113:338|79:289|79:289|18:277,1,195.999994018555,6|8,3:2|0:0,0:0:0:0:
164,257,50224,1,0,0:0:0:0:
21,195,50344,2,0,P|10:147|28:102,1,97.9999970092774,2|0,3:2|0:0,0:0:0:0:
169,27,50584,2,0,L|149:123,1,97.9999970092774,10|0,0:0|0:0,0:0:0:0:
176,274,50824,6,0,B|249:261|249:261|283:212|283:212|344:200,1,195.999994018555,6|8,3:2|0:0,0:0:0:0:
192,193,51184,1,0,0:0:0:0:
338,107,51304,2,0,P|355:152|344:199,1,97.9999970092774,2|0,3:2|3:2,0:0:0:0:
164,113,51544,2,0,L|184:17,1,97.9999970092774,10|0,0:0|0:0,0:0:0:0:
398,42,51784,6,0,P|303:29|251:107,2,195.999994018555,6|8|2,3:2|0:0|3:2,0:0:0:0:
463,130,52384,1,2,3:2:0:0:
318,202,52504,2,0,L|338:106,1,97.9999970092774,10|0,0:0|0:0,0:0:0:0:
498,259,52744,6,0,L|402:279,1,97.9999970092774,6|0,3:2|0:0,0:0:0:0:
262,333,52984,2,0,L|358:353,1,97.9999970092774,10|0,0:0|0:0,0:0:0:0:
402,200,53224,1,2,3:2:0:0:
233,227,53344,1,2,3:2:0:0:
409,293,53464,2,0,P|420:245|402:200,1,97.9999970092774,10|0,0:0|0:0,0:0:0:0:
259,149,53704,6,0,B|157:122|182:227|78:199,1,195.999994018555,6|10,3:2|0:0,0:0:0:0:
175,297,54064,1,0,0:0:0:0:
73,187,54184,1,2,3:2:0:0:
190,309,54304,1,0,3:2:0:0:
31,344,54424,2,0,P|14:299|25:252,1,97.9999970092774,10|0,0:0|0:0,0:0:0:0:
114,112,54664,6,0,L|18:92,1,97.9999970092774,6|0,3:2|0:0,0:0:0:0:
151,219,54904,2,0,L|247:199,1,97.9999970092774,10|0,0:0|0:0,0:0:0:0:
274,49,55144,1,2,3:2:0:0:
114,112,55264,1,2,0:0:0:0:
326,195,55384,2,0,P|343:150|332:103,1,97.9999970092774,8|0,0:0|0:0,0:0:0:0:
181,19,55624,6,0,L|213:173,1,157.500006008148,6|0,3:2|0:0,0:0:0:0:
227,187,55864,2,0,P|276:205|328:193,1,105.000004005432,10|0,0:0|0:0,0:0:0:0:
492,98,56104,6,0,L|460:252,1,157.500006008148,6|0,3:2|0:0,0:0:0:0:
447,268,56344,2,0,P|397:286|345:274,1,105.000004005432,10|0,0:0|0:0,0:0:0:0:
382,88,56584,5,14,0:0:0:0:
335,289,56704,1,2,3:2:0:0:
300,60,56824,5,14,0:0:0:0:
322,302,56944,1,2,3:2:0:0:
216,61,57064,5,14,0:0:0:0:
309,315,57184,1,0,3:2:0:0:
142,102,57304,5,14,0:0:0:0:
296,328,57424,1,0,3:2:0:0:
100,190,57544,6,0,L|464:114,1,362.25000055275,14|0,3:2|0:0,0:0:0:0:
512,170,58504,6,0,L|507:193,1,24.15000003685,8|0,0:0|0:0,0:0:0:0:
372,369,58834,6,0,L|367:345,1,24.15000003685,8|8,0:0|0:0,0:0:0:0:
296,98,59164,6,0,L|291:121,1,24.15000003685,8|0,0:0|0:0,0:0:0:0:
150,345,59464,6,0,B|303:385|266:228|422:270,1,289.8000004422,12|0,0:3|0:0,0:0:0:0:
