osu file format v14

[General]
AudioFilename: audio.mp3
AudioLeadIn: 0
PreviewTime: 36297
Countdown: 1
SampleSet: Normal
StackLeniency: 0.7
Mode: 0
LetterboxInBreaks: 0
WidescreenStoryboard: 1

[Editor]
DistanceSpacing: 1
BeatDivisor: 4
GridSize: 8
TimelineZoom: 2.4

[Metadata]
Title:Objection! 2016
TitleUnicode:Objection! 2016
Artist:Noriyuki Iwadare
ArtistUnicode:Noriyuki Iwadare
Creator:The-Master-13
Version:Easy
Source:
Tags:
BeatmapID:1305032
BeatmapSetID:618947

[Difficulty]
HPDrainRate:4
CircleSize:2
OverallDifficulty:3
ApproachRate:3
SliderMultiplier:1.4
SliderTickRate:1

[Events]
//Background and Video events
0,0,"KiIE7uo.png",0,0
//Break Periods
2,22813,29673
2,44437,52421
//Storyboard Layer 0 (Background)
//Storyboard Layer 1 (Fail)
//Storyboard Layer 2 (Pass)
//Storyboard Layer 3 (Foreground)
//Storyboard Sound Samples

[TimingPoints]
741,499.958336805266,4,1,0,100,1,0

[Colours]
Combo1 : 114,114,114
Combo2 : 0,64,128
Combo3 : 0,115,230
Combo4 : 225,225,225

[HitObjects]
240,200,3115,5,0,0:0:0:0:
240,128,3365,2,0,L|91:128,1,140
96,200,4115,1,0,0:0:0:0:
272,208,4740,1,0,0:0:0:0:
408,208,5240,5,0,0:0:0:0:
392,72,5740,1,0,0:0:0:0:
296,152,6240,1,0,0:0:0:0:
288,288,6740,2,0,L|128:288,1,140
152,144,7740,6,0,L|152:0,1,140
16,24,8740,2,0,L|16:184,1,140
16,304,9740,1,0,0:0:0:0:
120,304,10115,1,0,0:0:0:0:
224,304,10490,5,0,0:0:0:0:
328,304,10865,1,0,0:0:0:0:
320,168,11365,1,0,0:0:0:0:
176,168,11865,1,0,0:0:0:0:
32,120,12240,6,0,L|184:120,1,140
176,224,13114,1,0,0:0:0:0:
248,224,13364,2,0,L|384:224,1,105
368,328,14114,1,0,0:0:0:0:
296,336,14364,6,0,L|176:336,1,105
176,232,15114,1,0,0:0:0:0:
248,232,15364,2,0,L|360:232,1,105
360,128,16114,1,0,0:0:0:0:
288,128,16364,6,0,L|136:128,1,140
144,272,17364,1,0,0:0:0:0:
248,272,17739,2,0,L|368:272,1,105
112,136,19114,1,0,0:0:0:0:
112,208,19364,5,0,0:0:0:0:
184,208,19614,1,0,0:0:0:0:
184,280,19864,1,0,0:0:0:0:
256,280,20114,1,0,0:0:0:0:
312,112,20739,6,0,L|160:112,1,140
160,248,21739,1,0,0:0:0:0:
264,256,22114,2,0,L|264:112,1,140
128,88,31113,5,0,0:0:0:0:
128,160,31363,1,0,0:0:0:0:
128,232,31613,2,0,L|272:232,1,140
336,232,32363,1,0,0:0:0:0:
336,160,32613,6,0,L|176:160,1,140
128,160,33363,1,0,0:0:0:0:
128,264,33738,2,0,L|288:264,1,140
256,128,34738,1,0,0:0:0:0:
128,124,35238,6,0,B|128:292,1,140
256,192,36862,12,0,44237,0:0:0:0:
56,208,53861,6,0,L|144:208,1,70
200,208,54361,2,0,L|450:208,1,245
304,208,55736,2,0,L|72:208,1,210
288,288,57236,2,0,L|448:288,1,140
424,144,58236,6,0,L|272:144,1,140
288,248,59111,2,0,L|432:248,1,140
256,192,60486,12,0,66360,0:0:0:0:
200,168,66735,5,0,0:0:0:0:
200,168,67110,1,0,0:0:0:0:
192,344,67735,2,0,L|336:344,1,140
328,200,68735,2,0,L|160:200,1,140
184,344,69735,6,0,L|336:344,1,140
328,200,70735,2,0,L|184:200,1,140
112,280,71610,1,0,0:0:0:0:
184,280,71860,2,0,L|288:280,1,105
248,184,72610,5,0,0:0:0:0:
112,184,73109,1,0,0:0:0:0:
112,288,73484,2,0,L|328:288,1,210
424,288,74609,1,0,0:0:0:0:
424,152,75109,5,0,0:0:0:0:
72,160,76359,2,0,L|352:160,1,280
384,296,77859,1,0,0:0:0:0:
248,304,78359,2,0,L|0:304,1,245
256,192,79859,12,0,81109,0:0:0:0:
