osu file format v14

[General]
AudioFilename: manwhomastermindsthegame.mp3
AudioLeadIn: 0
PreviewTime: 7966
Countdown: 0
SampleSet: None
StackLeniency: 0.7
Mode: 0
LetterboxInBreaks: 0
WidescreenStoryboard: 1

[Editor]
Bookmarks: 9866,49241
DistanceSpacing: 1.48
BeatDivisor: 3
GridSize: 16
TimelineZoom: 1.9

[Metadata]
Title:Game o Ayatsurumono
TitleUnicode:ゲームをアヤツルモノ
Artist:Noriyuki Iwadare
ArtistUnicode:岩垂徳行
Creator:Voli
Version:Manipulation v2
Source:逆転検事2
Tags:ace attorney gyakuten kenji edgeworth investigations phoenix wright lawyer prosecutor clown theme electronic jazz video game vgm ost diraimur cosmolade the man who masterminds
BeatmapID:1292177
BeatmapSetID:574380

[Difficulty]
HPDrainRate:5
CircleSize:4.5
OverallDifficulty:7.8
ApproachRate:8.7
SliderMultiplier:1.6
SliderTickRate:1

[Events]
//Background and Video events
0,0,"aa2.jpg",0,0
//Break Periods
//Storyboard Layer 0 (Background)
//Storyboard Layer 1 (Fail)
//Storyboard Layer 2 (Pass)
//Storyboard Layer 3 (Foreground)
//Storyboard Sound Samples

[TimingPoints]
699,468.841570619262,4,2,0,30,1,0
4293,-100,4,2,0,37,0,0
4449,-83.3333333333333,4,2,0,45,0,0
8513,-100,4,2,0,45,0,0
15545,-83.3333333333333,4,2,0,45,0,0
15858,-100,4,2,0,45,0,0
22734,-100,4,2,0,25,0,0
22890,-100,4,2,0,35,0,0
23047,-100,4,2,0,45,0,0
23203,-83.3333333333333,4,2,0,45,0,0
26954,-83.3333333333333,4,2,0,45,0,1
27266,-100,4,2,0,45,0,1
34143,-100,4,2,0,20,0,1
34299,-100,4,2,0,35,0,1
34455,-100,4,2,0,45,0,1
41957,-100,4,2,0,45,0,0
49458,-83.3333333333333,4,2,0,45,0,0
57272,-100,4,2,0,45,0,0
57585,-125,4,2,0,35,0,0
60710,-100,4,2,0,45,0,0
61335,-125,4,2,0,35,0,0
64461,-100,4,2,0,45,0,0
64774,-125,4,2,0,35,0,0
68212,-100,4,2,0,45,0,0
69149,-125,4,2,0,45,0,0
71962,-83.3333333333333,4,2,0,45,0,0
79464,-83.3333333333333,4,2,0,45,0,1
86965,-83.3333333333333,4,2,0,45,0,0

[Colours]
Combo1 : 13,41,89
Combo2 : 233,63,67
Combo3 : 135,16,19
Combo4 : 57,112,18

[HitObjects]
256,57,699,5,4,0:0:0:0:
404,137,1167,1,0,0:0:0:0:
368,41,1636,1,0,0:0:0:0:
314,204,2105,1,0,0:0:0:0:
120,141,2574,5,0,0:0:0:0:
92,33,3043,1,0,0:0:0:0:
228,113,3512,1,0,0:0:0:0:
120,141,3980,2,0,L|110:203,1,53.3333333333333,0|8,0:0|3:0,0:0:0:0:
140,262,4293,1,0,0:0:0:0:
257,304,4449,6,0,L|397:295,1,127.99999609375,4|0,3:0|3:0,0:0:0:0:
478,319,4918,2,0,P|473:256|429:212,1,127.99999609375,8|0,3:0|3:0,0:0:0:0:
312,161,5387,2,0,B|255:131|255:131|237:69,1,127.99999609375,4|0,3:0|3:0,0:0:0:0:
147,0,5856,2,0,B|129:62|129:62|72:91,1,127.99999609375,8|0,3:0|3:0,0:0:0:0:
187,161,6325,6,0,P|200:221|183:294,1,127.99999609375,4|0,3:0|3:0,0:0:0:0:
187,161,6793,2,0,P|247:148|320:165,1,127.99999609375,8|0,3:0|3:0,0:0:0:0:
370,229,7262,5,4,3:0:0:0:
451,212,7419,1,8,0:0:0:0:
425,290,7575,1,8,3:0:0:0:
396,153,7731,5,8,0:0:0:0:
504,273,7887,1,8,0:0:0:0:
345,305,8044,2,0,L|301:318,1,31.9999990234375,8|2,3:0|0:0,0:0:0:0:
265,289,8200,6,0,L|333:268,1,63.9999980468751,6|0,0:0|0:0,0:0:0:0:
245,362,8513,2,0,P|221:350|202:331,1,53.3333333333333,4|8,3:0|0:0,0:0:0:0:
157,205,8825,2,0,P|165:230|165:257,1,53.3333333333333,0|8,3:0|0:0,0:0:0:0:
55,356,9138,2,0,B|62:321|62:321|55:296|55:296|63:252,1,106.666666666667,4|4,3:0|3:0,0:0:0:0:
36,181,9606,1,0,3:0:0:0:
122,110,9763,2,0,L|61:96,1,53.3333333333333,8|0,0:0|0:0,0:0:0:0:
156,28,10075,6,0,L|217:14,1,53.3333333333333,4|0,3:0|0:0,0:0:0:0:
294,115,10388,2,0,P|285:84|293:46,1,53.3333333333333,4|8,3:0|0:0,0:0:0:0:
357,173,10700,2,0,P|330:191|291:195,1,53.3333333333333,0|8,3:0|0:0,0:0:0:0:
206,273,11013,2,0,L|326:285,1,106.666666666667,4|4,3:0|3:0,0:0:0:0:
386,289,11482,1,0,3:0:0:0:
280,356,11638,2,0,L|175:345,1,53.3333333333333,8|0,0:0|0:0,0:0:0:0:
101,198,11951,6,0,P|87:158|109:103,1,53.3333333333333,4|0,3:0|0:0,0:0:0:0:
193,222,12263,2,0,P|206:261|184:316,1,53.3333333333333,4|8,3:0|0:0,0:0:0:0:
211,131,12576,1,4,3:0:0:0:
353,110,12732,1,0,0:0:0:0:
353,113,12810,1,0,0:0:0:0:
353,116,12888,2,0,P|389:95|409:39,1,53.3333333333333,4|0,3:0|0:0,0:0:0:0:
283,92,13201,2,0,P|283:133|321:178,1,53.3333333333333,4|0,3:0|0:0,0:0:0:0:
336,40,13514,2,0,P|299:19|241:30,1,53.3333333333333,8|0,0:0|3:0,0:0:0:0:
134,43,13826,6,0,B|96:93|124:158|124:158|14:131|14:131|18:203|18:203|165:242,1,426.666666666667,4|0,3:0|0:0,0:0:0:0:
258,266,15389,1,8,0:0:0:0:
473,208,15701,6,0,L|405:229,1,63.9999980468751,4|0,3:0|0:0,0:0:0:0:
330,283,16014,2,0,L|398:304,1,53.3333333333333,4|8,3:0|0:0,0:0:0:0:
265,317,16327,2,0,P|257:293|264:247,1,53.3333333333333
169,229,16639,2,0,P|109:211|54:234,1,106.666666666667,4|4,3:0|3:0,0:0:0:0:
115,300,17108,1,0,0:0:0:0:
12,262,17264,2,0,P|0:221|15:184,1,53.3333333333333,10|2,0:0|0:0,0:0:0:0:
44,97,17577,6,0,L|56:37,1,53.3333333333333,4|0,3:0|3:0,0:0:0:0:
167,17,17889,2,0,L|155:77,1,53.3333333333333,4|8,3:0|3:3,0:0:0:0:
220,137,18202,2,0,P|260:144|303:126,1,53.3333333333333,0|0,3:0|0:0,0:0:0:0:
375,98,18514,2,0,P|423:60|362:59,1,160,4|2,3:0|0:0,0:0:0:0:
308,115,19140,1,10,0:0:0:0:
308,191,19296,1,2,0:0:0:0:
405,248,19452,6,0,L|419:306,1,53.3333333333333,4|0,3:0|0:0,0:0:0:0:
308,191,19765,2,0,L|366:177,1,53.3333333333333,4|8,3:0|0:0,0:0:0:0:
329,268,20077,1,0,3:0:0:0:
241,298,20234,1,0,3:0:0:0:
241,298,20312,1,0,0:0:0:0:
241,298,20390,2,0,B|216:303|216:288|187:297,1,53.3333333333333,4|0,3:0|0:0,0:0:0:0:
97,306,20702,2,0,L|104:249,1,53.3333333333333,4|0,3:0|3:0,0:0:0:0:
15,141,21015,2,0,L|21:193,1,53.3333333333333,8|0,0:0|3:0,0:0:0:0:
104,115,21328,5,4,3:0:0:0:
85,42,21484,1,2,0:0:0:0:
161,54,21640,2,0,B|194:88|202:142|154:184|154:184|240:224|240:224|285:137,1,320,0|8,3:0|0:0,0:0:0:0:
376,104,22734,5,0,0:0:0:0:
386,104,22812,1,0,0:0:0:0:
397,105,22890,1,4,3:0:0:0:
407,105,22968,1,8,0:0:0:0:
418,106,23047,1,8,0:0:0:0:
429,107,23125,1,8,0:0:0:0:
439,107,23203,6,0,P|463:175|451:251,1,127.99999609375,6|0,3:0|3:0,0:0:0:0:
373,302,23672,2,0,P|309:305|250:282,1,127.99999609375,8|0,3:0|3:0,0:0:0:0:
134,220,24141,2,0,L|149:362,1,127.99999609375,4|0,3:0|3:0,0:0:0:0:
19,266,24609,2,0,L|32:138,1,127.99999609375,8|0,3:0|3:0,0:0:0:0:
97,28,25078,5,8,3:0:0:0:
160,140,25235,1,8,3:0:0:0:
32,138,25391,1,4,3:0:0:0:
192,59,25547,2,0,P|238:104|240:168,1,127.99999609375,8|0,0:0|0:0,0:0:0:0:
193,242,26016,5,4,3:0:0:0:
160,140,26172,1,8,3:0:0:0:
160,140,26250,1,8,3:0:0:0:
160,140,26329,1,8,3:0:0:0:
72,199,26485,5,4,3:0:0:0:
95,325,26641,1,8,0:0:0:0:
193,242,26797,1,4,3:0:0:0:
72,199,26954,6,0,P|37:218|18:246,1,63.9999980468751,4|0,0:0|0:0,0:0:0:0:
51,122,27266,2,0,P|82:119|113:130,1,53.3333333333333,4|8,3:0|0:0,0:0:0:0:
183,196,27579,2,0,L|250:181,1,53.3333333333333,0|0,0:0|0:0,0:0:0:0:
269,80,27891,2,0,L|397:108,1,106.666666666667,4|4,3:0|3:0,0:0:0:0:
444,125,28360,1,0,0:0:0:0:
462,230,28516,2,0,P|466:257|458:286,1,53.3333333333333,8|0,0:0|0:0,0:0:0:0:
336,260,28829,5,4,3:0:0:0:
336,260,28985,2,0,L|389:249,1,53.3333333333333,2|0,0:0|3:0,0:0:0:0:
344,350,29298,1,4,3:0:0:0:
343,350,29454,2,0,L|290:338,1,53.3333333333333,2|0,0:0|3:0,0:0:0:0:
193,280,29767,2,0,L|167:145,1,106.666666666667,4|4,3:0|3:0,0:0:0:0:
158,101,30236,1,0,0:0:0:0:
298,30,30392,1,8,0:0:0:0:
205,15,30548,1,0,0:0:0:0:
392,84,30704,6,0,P|423:65|464:66,1,53.3333333333333,4|0,3:0|0:0,0:0:0:0:
367,158,31017,2,0,P|334:139|315:103,1,53.3333333333333,4|8,3:0|0:0,0:0:0:0:
444,141,31329,2,0,P|444:177|422:212,1,53.3333333333333
283,265,31642,2,0,P|333:249|382:268,1,106.666666666667,4|4,3:0|3:0,0:0:0:0:
331,326,32111,1,0,0:0:0:0:
187,230,32267,2,0,B|135:238,1,53.3333333333333,8|0,0:0|0:0,0:0:0:0:
70,191,32580,6,0,P|56:253|110:316,1,106.666666666667,4|4,3:0|3:0,0:0:0:0:
134,238,33049,2,0,B|186:230,1,53.3333333333333,8|0,0:0|0:0,0:0:0:0:
228,146,33361,1,0,0:0:0:0:
228,146,33439,1,0,0:0:0:0:
228,146,33517,1,4,3:0:0:0:
279,266,33674,1,8,0:0:0:0:
358,162,33830,1,2,0:0:0:0:
169,101,33986,1,8,0:0:0:0:
287,191,34143,1,8,0:0:0:0:
369,236,34299,1,8,0:0:0:0:
379,234,34377,1,8,0:0:0:0:
389,230,34455,6,0,P|421:204|432:171,1,53.3333333333333,4|0,0:0|0:0,0:0:0:0:
345,111,34768,2,0,P|351:151|374:177,1,53.3333333333333,4|8,3:0|0:0,0:0:0:0:
470,132,35080,2,0,P|431:117|397:124,1,53.3333333333333,0|0,0:0|0:0,0:0:0:0:
287,191,35393,2,0,B|237:206|237:206|181:191,1,106.666666666667,4|4,3:0|3:0,0:0:0:0:
118,157,35862,1,0,0:0:0:0:
63,215,36018,2,0,B|12:231,1,53.3333333333333,8|0,0:0|0:0,0:0:0:0:
99,107,36330,6,0,P|113:135|118:164,1,53.3333333333333,4|0,3:0|0:0,0:0:0:0:
150,267,36643,2,0,B|201:283,1,53.3333333333333,4|8,3:0|0:0,0:0:0:0:
287,191,36956,2,0,B|236:207,1,53.3333333333333,0|0,3:0|3:0,0:0:0:0:
296,92,37268,2,0,B|318:58|303:7|303:7|354:66,1,160,4|2,3:0|0:0,0:0:0:0:
217,140,37893,2,0,P|189:155|147:155,1,53.3333333333333,8|0,0:0|0:0,0:0:0:0:
168,86,38206,5,4,3:0:0:0:
156,19,38362,1,2,0:0:0:0:
218,42,38518,1,0,0:0:0:0:
108,137,38675,1,8,3:0:0:0:
46,114,38831,1,2,0:0:0:0:
96,71,38987,1,0,0:0:0:0:
154,196,39144,5,4,3:0:0:0:
128,261,39300,1,2,0:0:0:0:
82,207,39456,1,4,3:0:0:0:
246,214,39612,1,0,0:0:0:0:
307,255,39769,1,10,0:0:0:0:
241,284,39925,1,0,0:0:0:0:
324,123,40081,5,4,3:0:0:0:
369,62,40237,1,10,0:0:0:0:
401,135,40394,1,8,0:0:0:0:
249,164,40550,1,8,3:0:0:0:
177,115,40706,1,10,0:0:0:0:
252,75,40863,1,4,3:0:0:0:
171,201,41019,5,4,3:0:0:0:
181,30,41175,1,10,0:0:0:0:
324,123,41331,1,4,3:0:0:0:
171,201,41488,1,8,0:0:0:0:
301,205,41644,1,8,0:0:0:0:
311,205,41722,1,8,0:0:0:0:
322,206,41800,1,8,0:0:0:0:
332,207,41878,1,8,0:0:0:0:
343,208,41957,6,0,B|399:211|418:272|341:353|341:353|341:307|320:276,1,266.666666666667,4|0,3:0|0:0,0:0:0:0:
231,203,42894,6,0,B|179:204|122:236|122:236|98:167|98:167|143:131|202:130,1,266.666666666667,4|0,3:0|0:0,0:0:0:0:
313,119,43832,6,0,B|365:120|422:152|422:152|446:83|446:83|401:47|342:46,1,266.666666666667,8|0,3:0|0:0,0:0:0:0:
244,44,44770,6,0,L|168:60,1,53.3333333333333,4|0,3:0|0:0,0:0:0:0:
117,123,45082,2,0,L|193:139,1,53.3333333333333,8|0,3:0|0:0,0:0:0:0:
77,47,45395,2,0,L|1:63,1,53.3333333333333,4|4,3:0|0:0,0:0:0:0:
28,199,45707,6,0,P|8:255|53:192,1,266.666666666667,4|0,3:2|0:0,0:0:0:0:
83,129,46645,6,0,P|166:224|113:338,1,266.666666666667,4|0,3:0|0:0,0:0:0:0:
54,239,47583,6,0,P|167:185|262:268,1,266.666666666667,8|0,3:3|0:3,0:0:0:0:
334,328,48520,6,0,L|397:317,1,53.3333333333333,4|0,3:0|0:0,0:0:0:0:
460,267,48833,1,4,3:0:0:0:
488,188,48989,2,0,L|477:125,1,53.3333333333333,0|4,3:3|3:0,0:0:0:0:
413,27,49302,1,4,0:0:0:0:
267,30,49458,6,0,B|202:39|202:39|151:76,1,127.99999609375,4|0,0:0|3:0,0:0:0:0:
105,201,49927,2,0,B|169:190|169:190|234:141,1,127.99999609375,8|0,3:0|3:0,0:0:0:0:
53,145,50396,2,0,P|29:206|90:275,1,127.99999609375,4|0,3:0|3:0,0:0:0:0:
223,266,50865,2,0,P|246:204|185:135,1,127.99999609375,8|0,3:0|3:0,0:0:0:0:
378,250,51333,6,0,B|471:244|471:244|406:208,1,127.99999609375,4|0,3:0|3:0,0:0:0:0:
282,175,51802,2,0,B|189:169|189:169|219:152,1,127.99999609375,8|0,3:0|3:0,0:0:0:0:
294,96,52271,5,4,0:3:0:0:
370,65,52427,1,8,0:0:0:0:
358,146,52584,1,8,3:0:0:0:
306,16,52740,5,8,3:0:0:0:
433,116,52896,1,0,3:0:0:0:
282,175,53052,1,8,0:0:0:0:
481,58,53209,6,0,P|507:107|480:176,1,127.99999609375,4|0,3:0|3:0,0:0:0:0:
371,221,53678,2,0,L|396:348,1,127.99999609375,8|0,3:0|3:0,0:0:0:0:
370,127,54146,2,0,L|434:117,1,63.9999980468751,4|8,3:0|0:0,0:0:0:0:
387,40,54459,1,8,3:0:0:0:
270,69,54615,2,0,L|206:58,2,63.9999980468751,8|4|4,3:0|3:0|3:0,0:0:0:0:
208,166,55084,6,0,L|20:134,1,127.99999609375,4|0,3:0|3:0,0:0:0:0:
237,246,55553,2,0,P|284:201|281:127,1,127.99999609375,8|0,3:0|3:0,0:0:0:0:
208,166,56022,5,4,3:0:0:0:
366,153,56178,1,8,0:0:0:0:
276,23,56334,1,8,3:0:0:0:
208,166,56491,5,4,3:0:0:0:
347,238,56647,1,8,0:0:0:0:
341,79,56803,1,4,3:0:0:0:
172,101,56959,6,0,P|140:137|135:180,1,63.9999980468751,4|0,0:0|0:0,0:0:0:0:
68,218,57272,2,0,L|45:152,1,53.3333333333333,10|0,0:0|0:0,0:0:0:0:
150,236,57585,2,0,L|135:276,1,42.6666666666667,0|8,0:0|3:0,0:0:0:0:
208,330,57897,2,0,P|248:345|303:326,1,85.3333333333333,8|0,3:0|0:0,0:0:0:0:
356,281,58366,2,0,L|416:288,1,42.6666666666667,10|0,0:0|0:0,0:0:0:0:
292,221,58757,5,0,0:0:0:0:
292,221,58835,2,0,L|282:157,1,42.6666666666667,8|0,3:0|0:0,0:0:0:0:
201,155,59147,2,0,L|211:91,1,42.6666666666667,0|8,0:0|3:0,0:0:0:0:
289,87,59460,2,0,L|279:23,1,42.6666666666667,0|8,0:0|3:0,0:0:0:0:
177,8,59773,1,8,0:0:0:0:
177,8,59929,1,8,0:0:0:0:
95,52,60085,1,2,0:0:0:0:
74,142,60241,5,4,3:0:0:0:
74,142,60398,2,0,L|97:218,1,42.6666666666667,4|0,3:0|3:0,0:0:0:0:
120,282,60710,6,0,B|140:346|198:340|198:340|312:327,1,213.333333333333,12|0,3:0|0:0,0:0:0:0:
303,327,61413,1,2,0:0:0:0:
303,327,61492,1,4,3:0:0:0:
283,263,61648,1,8,0:0:0:0:
283,263,61726,2,0,B|189:274|189:274|210:213|249:198,1,192,2|0,0:0|0:0,0:0:0:0:
354,146,62586,6,0,B|394:142|394:142|419:128|419:128|443:131|443:131|485:114|485:114|476:62|427:53,1,213.333333333333,4|4,3:0|3:0,0:0:0:0:
359,19,63523,1,8,0:0:0:0:
256,192,63836,1,4,3:0:0:0:
153,19,64148,2,0,L|92:31,1,42.6666666666667,4|0,3:0|0:0,0:0:0:0:
105,122,64461,6,0,L|209:101,1,106.666666666667,12|8,3:0|0:0,0:0:0:0:
289,116,64930,1,0,0:0:0:0:
289,116,65086,2,0,B|332:213|332:213|371:105,1,213.333333333333,2|8,0:0|0:0,0:0:0:0:
392,37,66024,1,4,3:0:0:0:
234,200,66336,5,4,3:0:0:0:
168,86,66649,2,0,L|97:71,1,42.6666666666667,2|4,0:0|3:0,0:0:0:0:
94,156,66961,2,0,L|52:164,1,42.6666666666667,2|4,0:0|3:0,0:0:0:0:
29,270,67274,5,8,0:0:0:0:
29,270,67430,1,8,0:0:0:0:
112,314,67587,1,2,0:0:0:0:
203,295,67743,1,4,3:0:0:0:
203,295,67899,2,0,L|244:286,1,42.6666666666667,4|8,3:0|0:0,0:0:0:0:
339,253,68212,6,0,P|388:275|459:244,2,106.666666666667,12|2|0,3:0|0:0|0:0,0:0:0:0:
413,150,69149,2,0,P|449:136|469:84,2,85.3333333333333,8|2|4,0:0|0:0|3:0,0:0:0:0:
137,83,70087,5,4,3:0:0:0:
137,83,70243,1,8,3:0:0:0:
375,83,70556,1,8,3:0:0:0:
375,83,70712,1,8,3:0:0:0:
256,240,71025,5,8,0:0:0:0:
256,148,71181,1,8,0:0:0:0:
241,247,71337,1,2,3:0:0:0:
269,140,71494,1,0,3:0:0:0:
199,248,71650,1,2,3:0:0:0:
308,139,71806,1,8,0:0:0:0:
177,318,71962,6,0,P|130:274|149:194,1,127.99999609375,4|0,3:0|3:0,0:0:0:0:
147,42,72431,2,0,P|194:86|175:166,1,127.99999609375,8|0,3:0|3:0,0:0:0:0:
310,51,72900,2,0,L|451:68,1,127.99999609375,4|0,3:0|3:0,0:0:0:0:
488,270,73369,2,0,L|503:142,1,127.99999609375,8|0,3:0|3:0,0:0:0:0:
383,166,73838,5,8,3:0:0:0:
488,270,73994,1,8,3:0:0:0:
360,304,74150,1,8,3:0:0:0:
299,184,74307,2,0,P|310:122|371:83,1,127.99999609375,8|0,0:0|0:0,0:0:0:0:
383,166,74775,5,4,3:0:0:0:
289,276,74932,1,8,3:0:0:0:
289,276,75010,1,8,3:0:0:0:
289,276,75088,1,8,3:0:0:0:
167,206,75244,5,4,3:0:0:0:
190,80,75401,1,8,0:0:0:0:
70,121,75557,1,4,3:0:0:0:
120,264,75713,6,0,P|148:278|193:277,2,63.9999980468751,8|2|8,3:0|0:0|3:0,0:0:0:0:
0,205,76182,2,0,L|22:336,1,127.99999609375,4|0,3:3|3:3,0:0:0:0:
167,206,76651,1,4,3:0:0:0:
252,110,76807,1,10,0:0:0:0:
293,228,76963,1,8,3:0:0:0:
133,110,77120,2,0,L|22:128,1,63.9999980468751,8|0,3:3|0:3,0:0:0:0:
4,204,77432,1,8,0:0:0:0:
167,206,77589,6,0,L|277:224,1,63.9999980468751,8|0,3:3|0:3,0:0:0:0:
300,301,77901,1,8,3:0:0:0:
448,220,78057,2,0,P|459:173|440:123,1,63.9999980468751,8|0,0:0|0:0,0:0:0:0:
402,60,78370,1,0,3:0:0:0:
292,126,78526,5,4,3:0:0:0:
188,237,78682,1,8,0:0:0:0:
229,135,78838,1,8,3:0:0:0:
126,220,78995,1,8,0:0:0:0:
167,118,79151,1,4,3:0:0:0:
64,230,79307,1,8,0:0:0:0:
288,243,79464,6,0,P|319:262|375:262,1,63.9999980468751,6|0,0:0|0:0,0:0:0:0:
343,91,79776,2,0,P|309:107|282:156,1,63.9999980468751,2|8,0:0|0:0,0:0:0:0:
445,215,80089,2,0,P|447:177|418:128,1,63.9999980468751,2|0,0:0|3:0,0:0:0:0:
188,237,80402,6,0,L|210:317,1,63.9999980468751,10|8,0:0|0:0,0:0:0:0:
82,188,80714,2,0,L|98:126,1,63.9999980468751,2|8,0:0|3:0,0:0:0:0:
181,12,81027,2,0,L|203:92,1,63.9999980468751,2|8,0:0|0:0,0:0:0:0:
377,283,81339,6,0,B|411:286|411:286|437:272,1,63.9999980468751,2|0,0:0|0:0,0:0:0:0:
271,160,81652,2,0,B|268:194|268:194|282:220,1,63.9999980468751,2|8,0:0|0:0,0:0:0:0:
409,78,81964,2,0,B|375:75|375:75|349:89,1,63.9999980468751,2|0,0:0|3:0,0:0:0:0:
164,244,82277,6,0,L|154:334,1,63.9999980468751,2|8,0:0|0:0,0:0:0:0:
52,114,82589,2,0,P|81:102|113:104,1,63.9999980468751,2|0,0:0|0:0,0:0:0:0:
164,244,82902,2,0,P|134:255|102:253,1,63.9999980468751,2|8,0:0|0:0,0:0:0:0:
267,90,83215,6,0,L|259:26,1,63.9999980468751,2|0,0:0|0:0,0:0:0:0:
381,111,83527,2,0,L|439:136,1,63.9999980468751,2|8,0:0|0:0,0:0:0:0:
306,201,83840,2,0,L|254:238,1,63.9999980468751,2|0,0:0|3:0,0:0:0:0:
53,48,84152,6,0,P|100:36|140:42,1,63.9999980468751,2|8,0:0|0:0,0:0:0:0:
255,150,84465,2,0,P|231:129|203:115,1,63.9999980468751,2|8,0:0|3:0,0:0:0:0:
164,244,84777,2,0,P|174:274|175:306,1,63.9999980468751,2|8,0:0|0:0,0:0:0:0:
365,162,85090,6,0,P|393:169|376:178,1,63.9999980468751,2|0,0:0|0:0,0:0:0:0:
268,260,85403,2,0,P|240:253|257:244,1,63.9999980468751,2|4,0:0|0:3,0:0:0:0:
116,160,85715,2,0,P|144:167|127:176,1,63.9999980468751,2|0,0:0|3:0,0:0:0:0:
321,47,86028,6,0,L|407:33,1,63.9999980468751,10|8,0:0|0:0,0:0:0:0:
256,160,86340,1,8,3:0:0:0:
408,120,86497,2,0,L|494:106,1,63.9999980468751,8|10,0:0|0:0,0:0:0:0:
343,233,86809,1,4,0:0:0:0:
169,87,86965,5,4,0:0:0:0:
