osu file format v14

[General]
AudioFilename: audio.mp3
AudioLeadIn: 0
PreviewTime: 92747
Countdown: 0
SampleSet: Normal
StackLeniency: 0.7
Mode: 1
LetterboxInBreaks: 0
WidescreenStoryboard: 0

[Editor]
Bookmarks: 12983,35571,46865,58159,69453,80747,93453,104747,116041,138629,149923,161218,172512,185218,196512,207806,224747,247335,258629,269923,286865,298159,310865,322159,333453,344747,358865,370159,381453,392747
DistanceSpacing: 0.5
BeatDivisor: 4
GridSize: 32
TimelineZoom: 1.7

[Metadata]
Title:The Party of Seven Witches
TitleUnicode:The Party of Seven Witches
Artist:Noriko Mitose
ArtistUnicode:みとせのりこ
Creator:Greenshell
Version:Walpurgisnacht
Source:聖エステラ学院の七人の魔女
Tags:taishi dubstep electro.muster electro.sinker muster sinker gwave astronauts アストロノーツ cent estella gakuin no shichinin majo
BeatmapID:1629702
BeatmapSetID:775540

[Difficulty]
HPDrainRate:5
CircleSize:3
OverallDifficulty:6
ApproachRate:10
SliderMultiplier:1.4
SliderTickRate:1

[Events]
//Background and Video events
0,0,"stabble.png",0,0
//Break Periods
2,116394,124512
2,224747,244512
//Storyboard Layer 0 (Background)
//Storyboard Layer 1 (Fail)
//Storyboard Layer 2 (Pass)
//Storyboard Layer 3 (Foreground)
//Storyboard Sound Samples

[TimingPoints]
10160,705.882352941176,4,1,0,40,1,0
10160,-66.6666666666667,4,1,0,40,0,0
35218,-55.5555555555556,4,1,0,50,0,0
35307,-54.054054054054,4,1,0,50,0,0
35395,-52.6315789473684,4,1,0,50,0,0
35571,352.941176470588,4,1,0,70,1,0
40600,-100,4,1,0,72,0,0
40688,-100,4,1,0,74,0,0
40776,-100,4,1,0,76,0,0
40865,-100,4,1,0,78,0,0
41218,-100,4,1,0,80,0,0
42629,-100,4,1,0,65,0,0
44041,-100,4,1,0,80,0,0
46335,-105.263157894737,4,1,0,80,0,0
46512,-111.111111111111,4,1,0,80,0,0
46688,-117.647058823529,4,1,0,80,0,0
46865,-125,4,1,0,60,0,0
58159,-111.111111111111,4,1,0,60,0,0
69276,-105.263157894737,4,1,0,60,0,0
69453,-100,4,1,0,70,0,0
86394,-100,4,1,0,75,0,0
89218,-100,4,1,0,85,0,0
89747,-97.5609756097561,4,1,0,85,0,0
89923,-95.2380952380952,4,1,0,85,0,0
90100,-93.0232558139535,4,1,0,85,0,0
90276,-90.9090909090909,4,1,0,85,0,0
90453,-88.8888888888889,4,1,0,85,0,0
90541,-87.9120879120879,4,1,0,85,0,0
90629,-86.9565217391304,4,1,0,85,0,0
90806,-85.1063829787234,4,1,0,85,0,0
90982,-83.3333333333333,4,1,0,85,0,0
91159,-81.6326530612245,4,1,0,85,0,0
91335,-80,4,1,0,85,0,0
91423,-79.2079207920792,4,1,0,85,0,0
91512,-78.4313725490196,4,1,0,85,0,0
91600,-77.6699029126214,4,1,0,85,0,0
91688,-76.9230769230769,4,1,0,85,0,0
91776,-76.1904761904762,4,1,0,85,0,0
91865,-75.4716981132076,4,1,0,85,0,0
91953,-74.7663551401869,4,1,0,85,0,0
92041,-74.0740740740741,4,1,0,85,0,0
92923,-100,4,1,0,65,0,0
93100,-98.3606557377049,4,1,0,65,0,0
93276,-96.7741935483871,4,1,0,65,0,0
93453,-95.2380952380952,4,1,0,90,0,1
103512,-93.0232558139535,4,1,0,90,0,1
103688,-90.9090909090909,4,1,0,90,0,1
103865,-88.8888888888889,4,1,0,90,0,1
103953,-87.9120879120879,4,1,0,90,0,1
104041,-86.9565217391304,4,1,0,90,0,1
104218,-85.1063829787234,4,1,0,90,0,1
104394,-83.3333333333333,4,1,0,90,0,1
104570,-81.6326530612245,4,1,0,90,0,1
104747,-80,4,1,0,90,0,1
105100,-95.2380952380952,4,1,0,90,0,1
116041,-100,4,1,0,90,0,0
116129,-166.666666666667,4,1,0,20,0,0
127335,-125,4,1,0,60,0,0
131747,-121.212121212121,4,1,0,60,0,0
131923,-117.647058823529,4,1,0,60,0,0
132100,-114.285714285714,4,1,0,60,0,0
132276,-111.111111111111,4,1,0,60,0,0
132629,-105.263157894737,4,1,0,60,0,0
132806,-102.564102564103,4,1,0,60,0,0
132982,-100,4,1,0,80,0,0
137570,-101.694915254237,4,1,0,80,0,0
137747,-103.448275862069,4,1,0,80,0,0
137923,-105.263157894737,4,1,0,80,0,0
138012,-106.666666666667,4,1,0,80,0,0
138100,-108.108108108108,4,1,0,80,0,0
138188,-109.58904109589,4,1,0,80,0,0
138276,-111.111111111111,4,1,0,80,0,0
138629,-125,4,1,0,60,0,0
149923,-111.111111111111,4,1,0,60,0,0
161041,-105.263157894737,4,1,0,60,0,0
161218,-100,4,1,0,70,0,0
178159,-100,4,1,0,75,0,0
180982,-100,4,1,0,85,0,0
181512,-97.5609756097561,4,1,0,85,0,0
181688,-95.2380952380952,4,1,0,85,0,0
181865,-93.0232558139535,4,1,0,85,0,0
182041,-90.9090909090909,4,1,0,85,0,0
182218,-88.8888888888889,4,1,0,85,0,0
182306,-87.9120879120879,4,1,0,85,0,0
182394,-86.9565217391304,4,1,0,85,0,0
182570,-85.1063829787234,4,1,0,85,0,0
182747,-83.3333333333333,4,1,0,85,0,0
182923,-81.6326530612245,4,1,0,85,0,0
183100,-80,4,1,0,85,0,0
183188,-79.2079207920792,4,1,0,85,0,0
183276,-78.4313725490196,4,1,0,85,0,0
183365,-77.6699029126214,4,1,0,85,0,0
183453,-76.9230769230769,4,1,0,85,0,0
183541,-76.1904761904762,4,1,0,85,0,0
183629,-75.4716981132076,4,1,0,85,0,0
183718,-74.7663551401869,4,1,0,85,0,0
183806,-74.0740740740741,4,1,0,85,0,0
184688,-100,4,1,0,65,0,0
184865,-98.3606557377049,4,1,0,65,0,0
185041,-96.7741935483871,4,1,0,65,0,0
185218,-95.2380952380952,4,1,0,90,0,1
195276,-93.0232558139535,4,1,0,90,0,1
195453,-90.9090909090909,4,1,0,90,0,1
195629,-88.8888888888889,4,1,0,90,0,1
195718,-87.9120879120879,4,1,0,90,0,1
195806,-86.9565217391304,4,1,0,90,0,1
195982,-85.1063829787234,4,1,0,90,0,1
196070,-84.2105263157895,4,1,0,90,0,1
196159,-83.3333333333333,4,1,0,90,0,1
196335,-81.6326530612245,4,1,0,90,0,1
196512,-80,4,1,0,90,0,1
196865,-95.2380952380952,4,1,0,90,0,1
207806,-100,4,1,0,80,0,0
219276,-100,4,1,0,70,0,0
220512,-100,4,1,0,60,0,0
221923,-100,4,1,0,50,0,0
224747,-166.666666666667,4,1,0,20,0,0
247335,-100,4,1,0,60,0,0
258629,-100,4,1,0,70,0,0
268953,-101.26582278481,4,1,0,70,0,0
269041,-102.564102564103,4,1,0,70,0,0
269218,-105.263157894737,4,1,0,70,0,0
269394,-108.108108108108,4,1,0,70,0,0
269570,-111.111111111111,4,1,0,70,0,0
269923,-125,4,1,0,50,0,0
281041,-121.212121212121,4,1,0,50,0,0
281218,-117.647058823529,4,1,0,50,0,0
283865,-114.285714285714,4,1,0,50,0,0
284041,-111.111111111111,4,1,0,60,0,0
286688,-105.263157894737,4,1,0,60,0,0
286865,-100,4,1,0,80,0,0
306629,-100,4,1,0,85,0,0
307070,-98.7654320987654,4,1,0,85,0,0
307159,-97.5609756097561,4,1,0,85,0,0
307247,-96.3855421686747,4,1,0,85,0,0
307335,-95.2380952380952,4,1,0,85,0,0
307512,-93.0232558139535,4,1,0,85,0,0
307600,-91.9540229885057,4,1,0,85,0,0
307688,-90.9090909090909,4,1,0,85,0,0
307776,-89.8876404494382,4,1,0,85,0,0
307865,-88.8888888888889,4,1,0,85,0,0
308041,-86.9565217391304,4,1,0,85,0,0
308218,-85.1063829787234,4,1,0,85,0,0
308394,-83.3333333333333,4,1,0,85,0,0
308570,-81.6326530612245,4,1,0,85,0,0
308747,-80,4,1,0,90,0,0
308835,-79.2079207920792,4,1,0,90,0,0
308923,-78.4313725490196,4,1,0,90,0,0
309012,-77.6699029126214,4,1,0,90,0,0
309100,-76.9230769230769,4,1,0,90,0,0
309188,-76.1904761904762,4,1,0,90,0,0
309276,-75.4716981132076,4,1,0,90,0,0
309365,-74.7663551401869,4,1,0,90,0,0
309453,-74.0740740740741,4,1,0,90,0,0
310335,-100,4,1,0,65,0,0
310512,-98.3606557377049,4,1,0,65,0,0
310688,-96.7741935483871,4,1,0,65,0,0
310865,-95.2380952380952,4,1,0,90,0,1
320923,-93.0232558139535,4,1,0,90,0,1
321012,-91.9540229885057,4,1,0,90,0,1
321100,-90.9090909090909,4,1,0,90,0,1
321276,-88.8888888888889,4,1,0,90,0,1
321365,-87.9120879120879,4,1,0,90,0,1
321453,-86.9565217391304,4,1,0,90,0,1
321629,-85.1063829787234,4,1,0,90,0,1
321718,-84.2105263157895,4,1,0,90,0,1
321806,-83.3333333333333,4,1,0,90,0,1
321982,-81.6326530612245,4,1,0,90,0,1
322159,-80,4,1,0,90,0,1
322512,-95.2380952380952,4,1,0,90,0,1
333100,-93.75,4,1,0,90,0,1
333276,-92.3076923076923,4,1,0,90,0,1
333453,-90.9090909090909,4,1,0,90,0,1
343512,-88.8888888888889,4,1,0,90,0,1
343600,-87.9120879120879,4,1,0,90,0,1
343688,-86.9565217391304,4,1,0,90,0,1
343865,-85.1063829787234,4,1,0,90,0,1
343953,-84.2105263157895,4,1,0,90,0,1
344041,-83.3333333333333,4,1,0,90,0,1
344218,-81.6326530612245,4,1,0,90,0,1
344306,-80.8080808080808,4,1,0,90,0,1
344394,-80,4,1,0,90,0,1
344482,-79.2079207920792,4,1,0,90,0,1
344570,-78.4313725490196,4,1,0,90,0,1
344747,-76.9230769230769,4,1,0,90,0,1
345100,-90.9090909090909,4,1,0,90,0,1
356041,-90.9090909090909,4,1,0,90,0,0
357453,-100,4,1,0,70,0,0
358865,-100,4,1,0,80,0,1
381453,-100,4,1,0,90,0,0
402747,-98.0392156862745,4,1,0,90,0,0
402865,-96.1538461538461,4,1,0,90,0,0
402982,-94.3396226415094,4,1,0,90,0,0
403100,-92.5925925925926,4,1,0,90,0,0
403218,-90.9090909090909,4,1,0,90,0,0
403335,-89.2857142857143,4,1,0,90,0,0
403453,-87.719298245614,4,1,0,90,0,0
403570,-86.2068965517241,4,1,0,90,0,0
403688,-84.7457627118644,4,1,0,90,0,0
403806,-83.3333333333333,4,1,0,90,0,0
403923,-81.9672131147541,4,1,0,90,0,0
404041,-80.6451612903226,4,1,0,90,0,0
405453,-83.3333333333333,4,1,0,80,0,0
406865,-90.9090909090909,4,1,0,70,0,0
408276,-100,4,1,0,60,0,0
409688,-111.111111111111,4,1,0,50,0,0
411100,-125,4,1,0,40,0,0
412512,-142.857142857143,4,1,0,30,0,0
413923,-166.666666666667,4,1,0,20,0,0
415335,-200,4,1,0,10,0,0
416747,-200,4,1,0,5,0,0

[HitObjects]
224,160,11924,5,0,0:0:0:0:
224,160,12277,1,0,0:0:0:0:
288,160,12630,1,8,0:0:0:0:
288,160,12983,1,8,0:0:0:0:
224,160,13336,1,0,0:0:0:0:
224,160,13689,1,0,0:0:0:0:
288,160,14042,1,8,0:0:0:0:
224,160,14395,1,0,0:0:0:0:
224,160,14748,1,0,0:0:0:0:
224,160,15101,1,0,0:0:0:0:
288,160,15454,1,8,0:0:0:0:
224,160,15807,1,0,0:0:0:0:
224,160,16865,1,0,0:0:0:0:
224,160,17218,1,0,0:0:0:0:
224,160,18277,1,0,0:0:0:0:
288,160,18454,1,8,0:0:0:0:
224,160,18630,1,0,0:0:0:0:
224,160,19689,1,0,0:0:0:0:
288,160,20042,1,8,0:0:0:0:
288,160,20395,1,8,0:0:0:0:
224,160,20748,1,0,0:0:0:0:
288,160,21101,1,8,0:0:0:0:
224,160,21454,1,0,0:0:0:0:
288,160,22865,1,8,0:0:0:0:
288,160,23218,1,8,0:0:0:0:
224,160,23571,1,0,0:0:0:0:
224,224,24277,1,4,0:0:0:0:
224,160,27101,1,0,0:0:0:0:
288,160,28159,1,8,0:0:0:0:
224,160,28512,1,0,0:0:0:0:
224,160,28865,1,0,0:0:0:0:
288,160,29218,1,8,0:0:0:0:
288,160,29571,1,8,0:0:0:0:
224,160,29924,1,0,0:0:0:0:
224,160,31336,1,0,0:0:0:0:
288,160,31689,1,8,0:0:0:0:
288,160,32042,1,8,0:0:0:0:
224,160,32395,1,0,0:0:0:0:
288,160,32748,1,8,0:0:0:0:
256,192,33101,12,0,34865,0:0:0:0:
288,160,35218,5,8,0:0:0:0:
288,160,35307,1,8,0:0:0:0:
288,160,35395,1,8,0:0:0:0:
224,224,35571,5,4,0:0:0:0:
224,160,35747,1,0,0:0:0:0:
288,160,35923,1,8,0:0:0:0:
224,224,36100,1,4,0:0:0:0:
288,160,36276,1,8,0:0:0:0:
288,160,36453,1,8,0:0:0:0:
224,160,36629,1,0,0:0:0:0:
288,160,36806,1,8,0:0:0:0:
288,160,37159,1,8,0:0:0:0:
224,160,37335,1,0,0:0:0:0:
288,160,37512,1,8,0:0:0:0:
288,160,37688,1,8,0:0:0:0:
288,160,37776,1,8,0:0:0:0:
288,160,37865,1,8,0:0:0:0:
288,160,38041,1,8,0:0:0:0:
224,160,38218,1,0,0:0:0:0:
224,160,38571,1,0,0:0:0:0:
288,160,38747,1,8,0:0:0:0:
224,160,38923,1,0,0:0:0:0:
224,160,39012,1,0,0:0:0:0:
288,160,39100,1,8,0:0:0:0:
288,160,39276,1,8,0:0:0:0:
224,160,39453,1,0,0:0:0:0:
288,160,39629,1,8,0:0:0:0:
288,160,39982,1,8,0:0:0:0:
288,160,40159,1,8,0:0:0:0:
224,160,40335,1,0,0:0:0:0:
224,160,40512,1,0,0:0:0:0:
288,160,40600,1,8,0:0:0:0:
224,160,40688,1,0,0:0:0:0:
224,160,40776,1,0,0:0:0:0:
288,160,40865,1,8,0:0:0:0:
224,224,41218,1,4,0:0:0:0:
288,160,41394,1,8,0:0:0:0:
288,160,41482,1,8,0:0:0:0:
224,160,41571,1,0,0:0:0:0:
224,160,41747,1,0,0:0:0:0:
224,160,41835,1,0,0:0:0:0:
288,160,41923,1,8,0:0:0:0:
288,160,42100,1,8,0:0:0:0:
224,160,42276,1,0,0:0:0:0:
288,160,42453,1,8,0:0:0:0:
288,160,42806,1,8,0:0:0:0:
224,160,42982,1,0,0:0:0:0:
224,160,43159,1,0,0:0:0:0:
288,160,43335,1,8,0:0:0:0:
224,160,43423,1,0,0:0:0:0:
288,160,43512,1,8,0:0:0:0:
288,160,43600,1,8,0:0:0:0:
288,160,43688,1,8,0:0:0:0:
288,160,43865,1,8,0:0:0:0:
224,224,44041,1,4,0:0:0:0:
224,160,44218,1,0,0:0:0:0:
224,160,44306,1,0,0:0:0:0:
288,160,44394,1,8,0:0:0:0:
224,160,44570,1,0,0:0:0:0:
288,160,44747,1,8,0:0:0:0:
224,160,44923,1,0,0:0:0:0:
288,160,45100,1,8,0:0:0:0:
224,160,45188,1,0,0:0:0:0:
288,160,45276,1,8,0:0:0:0:
288,160,45365,1,8,0:0:0:0:
224,160,45453,1,0,0:0:0:0:
288,160,45629,1,8,0:0:0:0:
288,160,45806,1,8,0:0:0:0:
288,160,45894,1,8,0:0:0:0:
224,160,45982,1,0,0:0:0:0:
288,160,46159,1,8,0:0:0:0:
288,160,46335,1,8,0:0:0:0:
288,160,46512,1,8,0:0:0:0:
288,160,46688,1,8,0:0:0:0:
224,224,46865,1,4,0:0:0:0:
224,160,47218,1,0,0:0:0:0:
288,160,47570,1,8,0:0:0:0:
224,160,47923,1,0,0:0:0:0:
288,160,48100,1,8,0:0:0:0:
288,160,49335,1,8,0:0:0:0:
224,160,49688,1,0,0:0:0:0:
288,160,50747,1,8,0:0:0:0:
224,160,50923,1,0,0:0:0:0:
288,160,51100,1,8,0:0:0:0:
224,160,51806,1,0,0:0:0:0:
224,224,52159,1,4,0:0:0:0:
288,224,52512,1,12,0:0:0:0:
288,160,53041,1,8,0:0:0:0:
224,160,54276,1,0,0:0:0:0:
288,160,54629,1,8,0:0:0:0:
288,160,54982,1,8,0:0:0:0:
224,160,55335,1,0,0:0:0:0:
224,224,58159,1,4,0:0:0:0:
224,160,58512,1,0,0:0:0:0:
288,160,58865,1,8,0:0:0:0:
224,160,59218,1,0,0:0:0:0:
288,160,59394,1,8,0:0:0:0:
224,160,59747,1,0,0:0:0:0:
288,160,59923,1,8,0:0:0:0:
224,160,60276,1,0,0:0:0:0:
288,160,60453,1,8,0:0:0:0:
224,160,60629,1,0,0:0:0:0:
288,160,60982,1,8,0:0:0:0:
224,160,61159,1,0,0:0:0:0:
288,160,61335,1,8,0:0:0:0:
288,160,61688,1,8,0:0:0:0:
224,160,62041,1,0,0:0:0:0:
288,160,62218,1,8,0:0:0:0:
288,160,62570,1,8,0:0:0:0:
224,160,62747,1,0,0:0:0:0:
288,160,63100,1,8,0:0:0:0:
224,160,63276,1,0,0:0:0:0:
288,160,63453,1,8,0:0:0:0:
224,160,63806,1,0,0:0:0:0:
224,160,63982,1,0,0:0:0:0:
288,160,64159,1,8,0:0:0:0:
224,160,64512,1,0,0:0:0:0:
288,160,64688,1,8,0:0:0:0:
224,160,65041,1,0,0:0:0:0:
288,160,65218,1,8,0:0:0:0:
224,160,65570,1,0,0:0:0:0:
288,160,65747,1,8,0:0:0:0:
224,160,66100,1,0,0:0:0:0:
288,160,66276,1,8,0:0:0:0:
288,160,66453,1,8,0:0:0:0:
224,160,66629,1,0,0:0:0:0:
288,160,66982,1,8,0:0:0:0:
224,160,67159,1,0,0:0:0:0:
288,160,67335,1,8,0:0:0:0:
288,160,67600,1,8,0:0:0:0:
224,160,67688,1,0,0:0:0:0:
288,160,67865,1,8,0:0:0:0:
224,160,68041,1,0,0:0:0:0:
224,160,68218,1,0,0:0:0:0:
288,160,68394,1,8,0:0:0:0:
224,160,68570,1,0,0:0:0:0:
288,160,68747,1,8,0:0:0:0:
288,160,69012,1,8,0:0:0:0:
288,160,69100,1,8,0:0:0:0:
288,160,69276,1,8,0:0:0:0:
224,224,69453,1,4,0:0:0:0:
224,160,69718,1,0,0:0:0:0:
288,160,69806,1,8,0:0:0:0:
224,160,69982,1,0,0:0:0:0:
224,160,70070,1,0,0:0:0:0:
288,160,70159,1,8,0:0:0:0:
224,160,70335,1,0,0:0:0:0:
288,160,70512,1,8,0:0:0:0:
288,160,70688,1,8,0:0:0:0:
224,160,70865,1,0,0:0:0:0:
288,160,71041,1,8,0:0:0:0:
224,160,71218,1,0,0:0:0:0:
224,160,71306,1,0,0:0:0:0:
224,160,71394,1,0,0:0:0:0:
288,160,71570,1,8,0:0:0:0:
288,160,71923,1,8,0:0:0:0:
224,160,72276,1,0,0:0:0:0:
224,160,72541,1,0,0:0:0:0:
288,160,72629,1,8,0:0:0:0:
224,160,72806,1,0,0:0:0:0:
224,160,72894,1,0,0:0:0:0:
288,160,72982,1,8,0:0:0:0:
224,160,73159,1,0,0:0:0:0:
288,160,73335,1,8,0:0:0:0:
224,160,73512,1,0,0:0:0:0:
288,160,73688,1,8,0:0:0:0:
288,160,73865,1,8,0:0:0:0:
224,160,74041,1,0,0:0:0:0:
224,160,74129,1,0,0:0:0:0:
224,160,74218,1,0,0:0:0:0:
288,160,74394,1,8,0:0:0:0:
288,160,74747,1,8,0:0:0:0:
224,160,75100,1,0,0:0:0:0:
224,160,75365,1,0,0:0:0:0:
288,160,75453,1,8,0:0:0:0:
224,160,75629,1,0,0:0:0:0:
224,160,75718,1,0,0:0:0:0:
288,160,75806,1,8,0:0:0:0:
288,160,75982,1,8,0:0:0:0:
224,160,76159,1,0,0:0:0:0:
224,160,76335,1,0,0:0:0:0:
288,160,76512,1,8,0:0:0:0:
224,160,76688,1,0,0:0:0:0:
288,160,76865,1,8,0:0:0:0:
224,160,76953,1,0,0:0:0:0:
224,160,77041,1,0,0:0:0:0:
288,160,77218,1,8,0:0:0:0:
288,160,77570,1,8,0:0:0:0:
224,160,77923,1,0,0:0:0:0:
224,160,78188,1,0,0:0:0:0:
288,160,78276,1,8,0:0:0:0:
224,160,78453,1,0,0:0:0:0:
224,160,78541,1,0,0:0:0:0:
288,160,78629,1,8,0:0:0:0:
224,160,78806,1,0,0:0:0:0:
288,160,78982,1,8,0:0:0:0:
288,160,79159,1,8,0:0:0:0:
224,160,79335,1,0,0:0:0:0:
288,160,79512,1,8,0:0:0:0:
288,160,79688,1,8,0:0:0:0:
224,160,79776,1,0,0:0:0:0:
224,160,79865,1,0,0:0:0:0:
288,160,80041,1,8,0:0:0:0:
224,160,80306,1,0,0:0:0:0:
288,160,80394,1,8,0:0:0:0:
224,160,80570,1,0,0:0:0:0:
288,160,80659,1,8,0:0:0:0:
224,160,80747,1,0,0:0:0:0:
224,160,81012,1,0,0:0:0:0:
288,160,81100,1,8,0:0:0:0:
224,160,81276,1,0,0:0:0:0:
224,160,81365,1,0,0:0:0:0:
288,160,81453,1,8,0:0:0:0:
288,160,81629,1,8,0:0:0:0:
224,160,81806,1,0,0:0:0:0:
224,160,81982,1,0,0:0:0:0:
288,160,82159,1,8,0:0:0:0:
224,160,82335,1,0,0:0:0:0:
288,160,82512,1,8,0:0:0:0:
288,160,82600,1,8,0:0:0:0:
224,160,82688,1,0,0:0:0:0:
288,160,82865,1,8,0:0:0:0:
288,160,83218,1,8,0:0:0:0:
224,160,83570,1,0,0:0:0:0:
224,160,83835,1,0,0:0:0:0:
288,160,83923,1,8,0:0:0:0:
224,160,84100,1,0,0:0:0:0:
224,160,84188,1,0,0:0:0:0:
288,160,84276,1,8,0:0:0:0:
224,160,84453,1,0,0:0:0:0:
288,160,84629,1,8,0:0:0:0:
288,160,84806,1,8,0:0:0:0:
224,160,84982,1,0,0:0:0:0:
288,160,85159,1,8,0:0:0:0:
288,160,85335,1,8,0:0:0:0:
288,160,85423,1,8,0:0:0:0:
224,160,85512,1,0,0:0:0:0:
288,160,85688,1,8,0:0:0:0:
224,160,85953,1,0,0:0:0:0:
288,160,86041,1,8,0:0:0:0:
288,160,86218,1,8,0:0:0:0:
224,160,86394,1,0,0:0:0:0:
224,160,86747,1,0,0:0:0:0:
224,160,86923,1,0,0:0:0:0:
288,160,87100,1,8,0:0:0:0:
224,160,87276,1,0,0:0:0:0:
288,160,87453,1,8,0:0:0:0:
288,160,87629,1,8,0:0:0:0:
288,160,87718,1,8,0:0:0:0:
224,160,87806,1,0,0:0:0:0:
224,160,88070,1,0,0:0:0:0:
288,160,88159,1,8,0:0:0:0:
224,160,88335,1,0,0:0:0:0:
288,160,88512,1,8,0:0:0:0:
224,160,88688,1,0,0:0:0:0:
288,160,88865,1,8,0:0:0:0:
224,160,89041,1,0,0:0:0:0:
288,160,89129,1,8,0:0:0:0:
224,160,89218,1,0,0:0:0:0:
224,160,89570,1,0,0:0:0:0:
224,160,89747,1,0,0:0:0:0:
288,160,89923,1,8,0:0:0:0:
288,160,90100,1,8,0:0:0:0:
224,160,90276,1,0,0:0:0:0:
224,160,90453,1,0,0:0:0:0:
224,160,90541,1,0,0:0:0:0:
288,160,90629,1,8,0:0:0:0:
224,160,90806,1,0,0:0:0:0:
224,160,90982,1,0,0:0:0:0:
288,160,91159,1,8,0:0:0:0:
224,160,91335,1,0,0:0:0:0:
224,160,91423,1,0,0:0:0:0:
224,160,91512,1,0,0:0:0:0:
224,160,91600,1,0,0:0:0:0:
288,160,91688,1,8,0:0:0:0:
224,160,91776,1,0,0:0:0:0:
288,160,91865,1,8,0:0:0:0:
288,160,91953,1,8,0:0:0:0:
224,160,92041,1,0,0:0:0:0:
224,160,92923,1,0,0:0:0:0:
288,160,93100,1,8,0:0:0:0:
288,160,93276,1,8,0:0:0:0:
224,224,93453,1,4,0:0:0:0:
288,160,93806,1,8,0:0:0:0:
224,160,93982,1,0,0:0:0:0:
224,160,94070,1,0,0:0:0:0:
288,160,94159,1,8,0:0:0:0:
288,160,94335,1,8,0:0:0:0:
224,160,94512,1,0,0:0:0:0:
288,160,94688,1,8,0:0:0:0:
224,160,94776,1,0,0:0:0:0:
288,160,94865,1,8,0:0:0:0:
224,160,95041,1,0,0:0:0:0:
224,160,95218,1,0,0:0:0:0:
288,160,95394,1,8,0:0:0:0:
224,160,95747,1,0,0:0:0:0:
288,160,95923,1,8,0:0:0:0:
288,160,96100,1,8,0:0:0:0:
288,160,96188,1,8,0:0:0:0:
224,160,96276,1,0,0:0:0:0:
224,160,96453,1,0,0:0:0:0:
288,160,96629,1,8,0:0:0:0:
224,160,96806,1,0,0:0:0:0:
288,160,96894,1,8,0:0:0:0:
224,160,96982,1,0,0:0:0:0:
224,160,97159,1,0,0:0:0:0:
288,160,97335,1,8,0:0:0:0:
288,160,97512,1,8,0:0:0:0:
224,160,97688,1,0,0:0:0:0:
288,160,98041,1,8,0:0:0:0:
224,160,98218,1,0,0:0:0:0:
224,160,98306,1,0,0:0:0:0:
288,160,98394,1,8,0:0:0:0:
224,160,98570,1,0,0:0:0:0:
288,160,98747,1,8,0:0:0:0:
288,160,98923,1,8,0:0:0:0:
224,224,99100,1,4,0:0:0:0:
288,160,99453,1,8,0:0:0:0:
288,160,99629,1,8,0:0:0:0:
288,160,99718,1,8,0:0:0:0:
224,160,99806,1,0,0:0:0:0:
224,160,99982,1,0,0:0:0:0:
288,160,100159,1,8,0:0:0:0:
288,160,100335,1,8,0:0:0:0:
224,160,100512,1,0,0:0:0:0:
224,160,100688,1,0,0:0:0:0:
224,160,100776,1,0,0:0:0:0:
288,160,100865,1,8,0:0:0:0:
224,160,101041,1,0,0:0:0:0:
288,160,101394,1,8,0:0:0:0:
224,160,101570,1,0,0:0:0:0:
224,160,101747,1,0,0:0:0:0:
288,160,101923,1,8,0:0:0:0:
224,160,102100,1,0,0:0:0:0:
224,160,102188,1,0,0:0:0:0:
224,160,102276,1,0,0:0:0:0:
288,160,102453,1,8,0:0:0:0:
224,160,102629,1,0,0:0:0:0:
224,160,102718,1,0,0:0:0:0:
288,160,102806,1,8,0:0:0:0:
224,160,102982,1,0,0:0:0:0:
288,160,103159,1,0,0:0:0:0:
288,160,103335,1,8,0:0:0:0:
224,160,103512,1,0,0:0:0:0:
288,160,103688,1,8,0:0:0:0:
224,160,103865,1,0,0:0:0:0:
224,160,103953,1,0,0:0:0:0:
288,160,104041,1,8,0:0:0:0:
224,160,104218,1,0,0:0:0:0:
288,160,104394,1,8,0:0:0:0:
288,160,104570,1,8,0:0:0:0:
224,224,104747,1,4,0:0:0:0:
288,160,105100,1,8,0:0:0:0:
224,160,105276,1,0,0:0:0:0:
288,160,105365,1,8,0:0:0:0:
224,160,105453,1,0,0:0:0:0:
224,160,105629,1,0,0:0:0:0:
288,160,105806,1,8,0:0:0:0:
224,160,105982,1,0,0:0:0:0:
224,160,106070,1,0,0:0:0:0:
288,160,106159,1,8,0:0:0:0:
224,160,106335,1,0,0:0:0:0:
288,160,106512,1,8,0:0:0:0:
288,160,106688,1,8,0:0:0:0:
224,160,107041,1,0,0:0:0:0:
288,160,107218,1,8,0:0:0:0:
224,160,107394,1,0,0:0:0:0:
288,160,107482,1,8,0:0:0:0:
288,160,107570,1,8,0:0:0:0:
224,160,107747,1,0,0:0:0:0:
288,160,107923,1,8,0:0:0:0:
224,160,108100,1,0,0:0:0:0:
288,160,108188,1,8,0:0:0:0:
224,160,108276,1,0,0:0:0:0:
224,160,108453,1,0,0:0:0:0:
288,160,108629,1,8,0:0:0:0:
288,160,108806,1,8,0:0:0:0:
288,160,108894,1,8,0:0:0:0:
224,160,108982,1,0,0:0:0:0:
288,160,109335,1,8,0:0:0:0:
224,160,109512,1,0,0:0:0:0:
288,160,109688,1,8,0:0:0:0:
288,160,109865,1,8,0:0:0:0:
288,160,109953,1,8,0:0:0:0:
224,160,110041,1,0,0:0:0:0:
288,160,110218,1,8,0:0:0:0:
224,224,110394,1,4,0:0:0:0:
288,160,110747,1,8,0:0:0:0:
288,160,110923,1,8,0:0:0:0:
288,160,111012,1,8,0:0:0:0:
224,160,111100,1,0,0:0:0:0:
224,160,111276,1,0,0:0:0:0:
288,160,111453,1,8,0:0:0:0:
288,160,111629,1,8,0:0:0:0:
288,224,111806,1,12,0:0:0:0:
224,160,111982,1,0,0:0:0:0:
224,160,112159,1,0,0:0:0:0:
288,160,112335,1,8,0:0:0:0:
224,160,112688,1,0,0:0:0:0:
288,160,112865,1,8,0:0:0:0:
288,160,113041,1,8,0:0:0:0:
224,224,113218,1,4,0:0:0:0:
288,160,113570,1,8,0:0:0:0:
224,160,113747,1,0,0:0:0:0:
224,160,114100,1,0,0:0:0:0:
288,160,114276,1,8,0:0:0:0:
288,224,114453,1,12,0:0:0:0:
395,77,114629,2,0,B|343:93|239:72|299:18|299:18|368:21|405:24|448:32,1,293.999991027832
224,160,115512,1,0,0:0:0:0:
288,160,115688,1,8,0:0:0:0:
224,224,116041,1,4,0:0:0:0:
224,160,127335,5,0,0:0:0:0:
288,160,128041,1,8,0:0:0:0:
224,160,128570,1,0,0:0:0:0:
224,160,128923,1,0,0:0:0:0:
224,160,129100,1,0,0:0:0:0:
288,160,129453,1,8,0:0:0:0:
288,160,129982,1,8,0:0:0:0:
224,160,130159,1,0,0:0:0:0:
288,160,130512,1,8,0:0:0:0:
224,160,130688,1,0,0:0:0:0:
288,160,130865,1,8,0:0:0:0:
288,160,131129,1,8,0:0:0:0:
288,160,131394,1,8,0:0:0:0:
224,160,131570,1,0,0:0:0:0:
288,160,131747,1,8,0:0:0:0:
288,160,131923,1,8,0:0:0:0:
224,160,132100,1,0,0:0:0:0:
288,160,132276,1,8,0:0:0:0:
224,160,132629,1,0,0:0:0:0:
288,160,132806,1,8,0:0:0:0:
224,224,132982,1,4,0:0:0:0:
224,160,133247,1,0,0:0:0:0:
288,160,133335,1,8,0:0:0:0:
224,160,133512,1,0,0:0:0:0:
288,160,133865,1,8,0:0:0:0:
288,160,133953,1,8,0:0:0:0:
224,160,134041,1,0,0:0:0:0:
224,160,134570,1,0,0:0:0:0:
288,160,134747,1,8,0:0:0:0:
224,160,135100,1,0,0:0:0:0:
288,160,135188,1,8,0:0:0:0:
224,160,135276,1,0,0:0:0:0:
224,160,135365,1,0,0:0:0:0:
288,160,135453,1,8,0:0:0:0:
288,160,135629,1,8,0:0:0:0:
224,224,135806,1,4,0:0:0:0:
224,160,136070,1,0,0:0:0:0:
288,160,136159,1,8,0:0:0:0:
224,224,136335,1,4,0:0:0:0:
288,160,136688,1,8,0:0:0:0:
288,160,136776,1,8,0:0:0:0:
224,160,136865,1,0,0:0:0:0:
224,160,137218,1,0,0:0:0:0:
288,160,137394,1,8,0:0:0:0:
288,160,137570,1,8,0:0:0:0:
224,160,137747,1,0,0:0:0:0:
288,160,137923,1,8,0:0:0:0:
288,160,138012,1,8,0:0:0:0:
224,160,138100,1,0,0:0:0:0:
224,160,138188,1,0,0:0:0:0:
288,160,138276,1,8,0:0:0:0:
224,160,138629,1,0,0:0:0:0:
224,160,141453,1,0,0:0:0:0:
224,160,142865,1,0,0:0:0:0:
224,160,143570,1,0,0:0:0:0:
288,160,144276,1,8,0:0:0:0:
288,160,146041,1,8,0:0:0:0:
224,160,146394,1,0,0:0:0:0:
224,160,146747,1,0,0:0:0:0:
288,160,147100,1,8,0:0:0:0:
256,192,148512,12,0,149570,0:0:0:0:
224,224,149923,5,4,0:0:0:0:
288,224,150747,1,12,0:0:0:0:
224,224,150982,1,4,0:0:0:0:
224,160,151688,1,0,0:0:0:0:
288,160,152041,1,8,0:0:0:0:
224,160,152747,1,0,0:0:0:0:
288,160,153453,1,8,0:0:0:0:
224,160,153806,1,0,0:0:0:0:
288,160,153982,1,8,0:0:0:0:
288,160,154335,1,8,0:0:0:0:
224,160,154512,1,0,0:0:0:0:
224,160,154688,1,0,0:0:0:0:
288,160,154865,1,8,0:0:0:0:
288,160,155218,1,8,0:0:0:0:
224,160,155394,1,0,0:0:0:0:
224,224,155570,1,4,0:0:0:0:
224,160,155747,1,0,0:0:0:0:
288,160,155923,1,8,0:0:0:0:
224,160,156276,1,0,0:0:0:0:
288,160,156453,1,8,0:0:0:0:
224,160,156806,1,0,0:0:0:0:
288,160,156982,1,8,0:0:0:0:
224,160,157335,1,0,0:0:0:0:
288,160,157512,1,8,0:0:0:0:
224,160,157688,1,0,0:0:0:0:
224,160,157865,1,0,0:0:0:0:
288,160,158041,1,8,0:0:0:0:
224,224,158394,1,4,0:0:0:0:
224,160,158747,1,0,0:0:0:0:
224,160,158923,1,0,0:0:0:0:
288,160,159100,1,8,0:0:0:0:
288,160,159365,1,8,0:0:0:0:
224,160,159453,1,0,0:0:0:0:
288,160,159629,1,8,0:0:0:0:
224,224,159806,1,4,0:0:0:0:
224,160,160070,1,0,0:0:0:0:
224,160,160335,1,0,0:0:0:0:
288,160,160512,1,8,0:0:0:0:
224,160,160688,1,0,0:0:0:0:
224,160,160776,1,0,0:0:0:0:
224,160,160865,1,0,0:0:0:0:
288,160,161041,1,8,0:0:0:0:
224,224,161218,1,4,0:0:0:0:
224,160,161482,1,0,0:0:0:0:
288,160,161570,1,8,0:0:0:0:
224,160,161747,1,0,0:0:0:0:
224,160,161835,1,0,0:0:0:0:
288,160,161923,1,8,0:0:0:0:
224,160,162100,1,0,0:0:0:0:
288,160,162276,1,8,0:0:0:0:
288,160,162453,1,8,0:0:0:0:
224,160,162629,1,0,0:0:0:0:
288,160,162806,1,8,0:0:0:0:
224,160,162982,1,0,0:0:0:0:
224,160,163070,1,0,0:0:0:0:
224,160,163159,1,0,0:0:0:0:
288,160,163335,1,8,0:0:0:0:
288,160,163688,1,8,0:0:0:0:
288,160,163865,1,8,0:0:0:0:
224,160,164041,1,0,0:0:0:0:
224,160,164306,1,0,0:0:0:0:
288,160,164394,1,8,0:0:0:0:
224,160,164570,1,0,0:0:0:0:
224,160,164659,1,0,0:0:0:0:
288,160,164747,1,8,0:0:0:0:
224,160,164923,1,0,0:0:0:0:
288,160,165100,1,8,0:0:0:0:
224,160,165276,1,0,0:0:0:0:
288,160,165453,1,8,0:0:0:0:
288,160,165629,1,8,0:0:0:0:
224,160,165806,1,0,0:0:0:0:
224,160,165894,1,0,0:0:0:0:
224,160,165982,1,0,0:0:0:0:
288,160,166159,1,8,0:0:0:0:
224,160,166423,1,0,0:0:0:0:
288,160,166512,1,8,0:0:0:0:
224,160,166688,1,0,0:0:0:0:
224,160,166865,1,0,0:0:0:0:
224,160,167129,1,0,0:0:0:0:
288,160,167218,1,8,0:0:0:0:
224,160,167394,1,0,0:0:0:0:
224,160,167482,1,0,0:0:0:0:
288,160,167570,1,8,0:0:0:0:
288,160,167747,1,8,0:0:0:0:
224,160,167923,1,0,0:0:0:0:
224,160,168100,1,0,0:0:0:0:
288,160,168276,1,8,0:0:0:0:
224,160,168453,1,0,0:0:0:0:
288,160,168629,1,8,0:0:0:0:
224,160,168718,1,0,0:0:0:0:
224,160,168806,1,0,0:0:0:0:
288,160,168982,1,8,0:0:0:0:
224,160,169247,1,0,0:0:0:0:
288,160,169335,1,8,0:0:0:0:
288,160,169512,1,8,0:0:0:0:
224,160,169688,1,0,0:0:0:0:
224,160,169953,1,0,0:0:0:0:
288,160,170041,1,8,0:0:0:0:
224,160,170218,1,0,0:0:0:0:
224,160,170306,1,0,0:0:0:0:
288,160,170394,1,8,0:0:0:0:
224,160,170570,1,0,0:0:0:0:
288,160,170747,1,8,0:0:0:0:
288,160,170923,1,8,0:0:0:0:
224,160,171100,1,0,0:0:0:0:
288,160,171276,1,8,0:0:0:0:
288,160,171453,1,8,0:0:0:0:
224,160,171541,1,0,0:0:0:0:
224,160,171629,1,0,0:0:0:0:
288,160,171806,1,8,0:0:0:0:
224,160,172070,1,0,0:0:0:0:
288,160,172159,1,8,0:0:0:0:
224,160,172335,1,0,0:0:0:0:
288,160,172423,1,8,0:0:0:0:
224,160,172512,1,0,0:0:0:0:
224,160,172776,1,0,0:0:0:0:
288,160,172865,1,8,0:0:0:0:
224,160,173041,1,0,0:0:0:0:
224,160,173129,1,0,0:0:0:0:
288,160,173218,1,8,0:0:0:0:
288,160,173394,1,8,0:0:0:0:
224,160,173570,1,0,0:0:0:0:
224,160,173747,1,0,0:0:0:0:
288,160,173923,1,8,0:0:0:0:
224,160,174100,1,0,0:0:0:0:
288,160,174276,1,8,0:0:0:0:
288,160,174365,1,8,0:0:0:0:
224,160,174453,1,0,0:0:0:0:
288,160,174629,1,8,0:0:0:0:
288,160,174982,1,8,0:0:0:0:
288,160,175159,1,8,0:0:0:0:
224,160,175335,1,0,0:0:0:0:
224,160,175600,1,0,0:0:0:0:
288,160,175688,1,8,0:0:0:0:
224,160,175865,1,0,0:0:0:0:
224,160,175953,1,0,0:0:0:0:
288,160,176041,1,8,0:0:0:0:
224,160,176218,1,0,0:0:0:0:
288,160,176394,1,8,0:0:0:0:
288,160,176570,1,8,0:0:0:0:
224,160,176747,1,0,0:0:0:0:
288,160,176923,1,8,0:0:0:0:
288,160,177100,1,8,0:0:0:0:
288,160,177188,1,8,0:0:0:0:
224,160,177276,1,0,0:0:0:0:
288,160,177453,1,8,0:0:0:0:
224,160,177718,1,0,0:0:0:0:
288,160,177806,1,8,0:0:0:0:
288,160,177982,1,8,0:0:0:0:
224,160,178159,1,0,0:0:0:0:
224,160,178512,1,0,0:0:0:0:
224,160,178688,1,0,0:0:0:0:
288,160,178865,1,8,0:0:0:0:
224,160,179041,1,0,0:0:0:0:
288,160,179218,1,8,0:0:0:0:
288,160,179394,1,8,0:0:0:0:
288,160,179482,1,8,0:0:0:0:
224,160,179570,1,0,0:0:0:0:
224,160,179835,1,0,0:0:0:0:
288,160,179923,1,8,0:0:0:0:
224,160,180100,1,0,0:0:0:0:
288,160,180276,1,8,0:0:0:0:
224,160,180453,1,0,0:0:0:0:
288,160,180629,1,8,0:0:0:0:
224,160,180806,1,0,0:0:0:0:
288,160,180894,1,8,0:0:0:0:
224,160,180982,1,0,0:0:0:0:
224,160,181335,1,0,0:0:0:0:
224,160,181512,1,0,0:0:0:0:
288,160,181688,1,8,0:0:0:0:
288,160,181865,1,8,0:0:0:0:
224,160,182041,1,0,0:0:0:0:
224,160,182218,1,0,0:0:0:0:
224,160,182306,1,0,0:0:0:0:
288,160,182394,1,8,0:0:0:0:
224,160,182570,1,0,0:0:0:0:
224,160,182747,1,0,0:0:0:0:
288,160,182923,1,8,0:0:0:0:
224,160,183100,1,0,0:0:0:0:
224,160,183188,1,0,0:0:0:0:
224,160,183276,1,0,0:0:0:0:
224,160,183365,1,0,0:0:0:0:
288,160,183453,1,8,0:0:0:0:
224,160,183541,1,0,0:0:0:0:
288,160,183629,1,8,0:0:0:0:
288,160,183718,1,8,0:0:0:0:
224,160,183806,1,0,0:0:0:0:
224,160,184688,1,0,0:0:0:0:
288,160,184865,1,8,0:0:0:0:
288,160,185041,1,8,0:0:0:0:
224,224,185218,1,4,0:0:0:0:
288,160,185570,1,8,0:0:0:0:
224,160,185747,1,0,0:0:0:0:
224,160,185835,1,0,0:0:0:0:
288,160,185923,1,8,0:0:0:0:
288,160,186100,1,8,0:0:0:0:
224,160,186276,1,0,0:0:0:0:
288,160,186453,1,8,0:0:0:0:
224,160,186541,1,0,0:0:0:0:
288,160,186629,1,8,0:0:0:0:
288,160,186718,1,8,0:0:0:0:
224,160,186806,1,0,0:0:0:0:
224,160,186982,1,0,0:0:0:0:
288,160,187159,1,8,0:0:0:0:
224,160,187512,1,0,0:0:0:0:
288,160,187688,1,8,0:0:0:0:
288,160,187865,1,8,0:0:0:0:
288,160,187953,1,8,0:0:0:0:
224,160,188041,1,0,0:0:0:0:
224,160,188218,1,0,0:0:0:0:
288,160,188394,1,8,0:0:0:0:
224,160,188570,1,0,0:0:0:0:
288,160,188659,1,8,0:0:0:0:
224,160,188747,1,0,0:0:0:0:
224,160,188835,1,0,0:0:0:0:
288,160,188923,1,8,0:0:0:0:
288,160,189100,1,8,0:0:0:0:
224,160,189276,1,0,0:0:0:0:
224,160,189453,1,0,0:0:0:0:
288,160,189806,1,8,0:0:0:0:
224,160,189982,1,0,0:0:0:0:
224,160,190070,1,0,0:0:0:0:
288,160,190159,1,8,0:0:0:0:
224,160,190335,1,0,0:0:0:0:
288,160,190512,1,8,0:0:0:0:
288,160,190688,1,8,0:0:0:0:
224,224,190865,1,4,0:0:0:0:
288,160,191218,1,8,0:0:0:0:
288,160,191394,1,8,0:0:0:0:
288,160,191482,1,8,0:0:0:0:
224,160,191570,1,0,0:0:0:0:
224,160,191659,1,0,0:0:0:0:
288,160,191747,1,8,0:0:0:0:
288,160,191923,1,8,0:0:0:0:
224,160,192100,1,0,0:0:0:0:
288,160,192276,1,8,0:0:0:0:
224,160,192453,1,0,0:0:0:0:
224,160,192541,1,0,0:0:0:0:
288,160,192629,1,8,0:0:0:0:
224,160,192806,1,0,0:0:0:0:
288,160,193159,1,8,0:0:0:0:
224,160,193335,1,0,0:0:0:0:
224,160,193512,1,0,0:0:0:0:
288,160,193688,1,8,0:0:0:0:
224,160,193865,1,0,0:0:0:0:
224,160,193953,1,0,0:0:0:0:
224,160,194041,1,0,0:0:0:0:
288,160,194218,1,8,0:0:0:0:
224,160,194394,1,0,0:0:0:0:
224,160,194482,1,0,0:0:0:0:
288,160,194570,1,8,0:0:0:0:
224,160,194747,1,0,0:0:0:0:
288,160,194923,1,0,0:0:0:0:
288,160,195100,1,8,0:0:0:0:
224,160,195276,1,0,0:0:0:0:
288,160,195453,1,8,0:0:0:0:
224,160,195629,1,0,0:0:0:0:
224,160,195718,1,0,0:0:0:0:
288,160,195806,1,8,0:0:0:0:
224,160,195982,1,0,0:0:0:0:
224,160,196070,1,0,0:0:0:0:
288,160,196159,1,8,0:0:0:0:
288,160,196335,1,8,0:0:0:0:
224,224,196512,1,4,0:0:0:0:
288,160,196865,1,8,0:0:0:0:
224,160,197041,1,0,0:0:0:0:
288,160,197129,1,8,0:0:0:0:
224,160,197218,1,0,0:0:0:0:
224,160,197306,1,0,0:0:0:0:
288,160,197394,1,8,0:0:0:0:
288,160,197570,1,8,0:0:0:0:
224,160,197747,1,0,0:0:0:0:
224,160,197835,1,0,0:0:0:0:
288,160,197923,1,8,0:0:0:0:
224,160,198100,1,0,0:0:0:0:
288,160,198276,1,8,0:0:0:0:
288,160,198453,1,8,0:0:0:0:
224,160,198806,1,0,0:0:0:0:
288,160,198982,1,8,0:0:0:0:
224,160,199159,1,0,0:0:0:0:
288,160,199247,1,8,0:0:0:0:
288,160,199335,1,8,0:0:0:0:
224,160,199512,1,0,0:0:0:0:
288,160,199688,1,8,0:0:0:0:
288,160,199865,1,8,0:0:0:0:
288,160,199953,1,8,0:0:0:0:
224,160,200041,1,0,0:0:0:0:
224,160,200129,1,0,0:0:0:0:
288,160,200218,1,8,0:0:0:0:
288,160,200394,1,8,0:0:0:0:
224,160,200570,1,0,0:0:0:0:
288,160,200659,1,8,0:0:0:0:
224,160,200747,1,0,0:0:0:0:
288,160,201100,1,8,0:0:0:0:
224,160,201276,1,0,0:0:0:0:
288,160,201453,1,8,0:0:0:0:
288,160,201629,1,8,0:0:0:0:
288,160,201718,1,8,0:0:0:0:
224,160,201806,1,0,0:0:0:0:
288,160,201982,1,8,0:0:0:0:
224,224,202159,1,4,0:0:0:0:
288,160,202512,1,8,0:0:0:0:
288,160,202688,1,8,0:0:0:0:
288,160,202776,1,8,0:0:0:0:
224,160,202865,1,0,0:0:0:0:
224,160,203041,1,0,0:0:0:0:
288,160,203218,1,8,0:0:0:0:
288,160,203394,1,8,0:0:0:0:
288,224,203570,1,12,0:0:0:0:
224,160,203747,1,0,0:0:0:0:
224,160,203923,1,0,0:0:0:0:
288,160,204100,1,8,0:0:0:0:
224,160,204453,1,0,0:0:0:0:
288,160,204629,1,8,0:0:0:0:
288,160,204806,1,8,0:0:0:0:
224,224,204982,1,4,0:0:0:0:
288,160,205335,1,8,0:0:0:0:
224,160,205512,1,0,0:0:0:0:
224,160,205865,1,0,0:0:0:0:
288,160,206041,1,8,0:0:0:0:
288,224,206218,1,12,0:0:0:0:
395,77,206394,2,0,B|343:93|239:72|299:18|299:18|368:21|405:24|448:32,1,293.999991027832
224,160,207276,1,0,0:0:0:0:
288,160,207453,1,8,0:0:0:0:
224,224,207806,1,4,0:0:0:0:
224,160,207982,1,0,0:0:0:0:
288,160,208159,1,8,0:0:0:0:
288,160,208247,1,8,0:0:0:0:
224,160,208335,1,0,0:0:0:0:
288,160,208512,1,8,0:0:0:0:
288,160,208688,1,8,0:0:0:0:
224,160,208865,1,0,0:0:0:0:
288,160,208953,1,8,0:0:0:0:
224,160,209041,1,0,0:0:0:0:
224,160,209218,1,0,0:0:0:0:
288,160,209306,1,8,0:0:0:0:
288,160,209394,1,8,0:0:0:0:
288,160,209570,1,8,0:0:0:0:
224,160,209747,1,0,0:0:0:0:
224,160,209835,1,0,0:0:0:0:
288,160,209923,1,8,0:0:0:0:
288,160,210100,1,8,0:0:0:0:
224,160,210276,1,0,0:0:0:0:
288,160,210365,1,8,0:0:0:0:
224,160,210453,1,0,0:0:0:0:
288,160,210541,1,8,0:0:0:0:
224,160,210629,1,0,0:0:0:0:
288,160,210806,1,8,0:0:0:0:
224,160,210894,1,0,0:0:0:0:
288,160,210982,1,8,0:0:0:0:
224,160,211159,1,0,0:0:0:0:
288,160,211335,1,8,0:0:0:0:
288,160,211423,1,8,0:0:0:0:
224,160,211512,1,0,0:0:0:0:
288,160,211600,1,8,0:0:0:0:
288,160,211688,1,8,0:0:0:0:
288,160,211776,1,8,0:0:0:0:
224,160,211865,1,0,0:0:0:0:
224,160,212041,1,0,0:0:0:0:
224,160,212129,1,0,0:0:0:0:
288,160,212218,1,8,0:0:0:0:
288,160,212394,1,8,0:0:0:0:
224,160,212482,1,0,0:0:0:0:
288,160,212570,1,8,0:0:0:0:
288,160,212747,1,8,0:0:0:0:
288,160,212835,1,8,0:0:0:0:
224,160,212923,1,0,0:0:0:0:
224,160,213012,1,0,0:0:0:0:
288,160,213100,1,8,0:0:0:0:
224,160,213276,1,0,0:0:0:0:
288,160,213365,1,8,0:0:0:0:
224,160,213453,1,0,0:0:0:0:
224,160,213718,1,0,0:0:0:0:
288,160,213806,1,8,0:0:0:0:
224,160,213982,1,0,0:0:0:0:
224,160,214070,1,0,0:0:0:0:
288,160,214159,1,8,0:0:0:0:
288,160,214335,1,8,0:0:0:0:
224,160,214512,1,0,0:0:0:0:
288,160,214600,1,8,0:0:0:0:
224,160,214688,1,0,0:0:0:0:
288,160,215041,1,8,0:0:0:0:
224,160,215129,1,0,0:0:0:0:
288,160,215218,1,8,0:0:0:0:
224,160,215306,1,0,0:0:0:0:
288,160,215394,1,8,0:0:0:0:
224,160,215570,1,0,0:0:0:0:
288,160,215659,1,8,0:0:0:0:
224,160,215747,1,0,0:0:0:0:
224,160,215835,1,0,0:0:0:0:
288,160,215923,1,8,0:0:0:0:
288,160,216012,1,8,0:0:0:0:
288,160,216100,1,8,0:0:0:0:
224,160,216276,1,0,0:0:0:0:
224,160,216541,1,0,0:0:0:0:
288,160,216629,1,8,0:0:0:0:
224,160,216806,1,0,0:0:0:0:
288,160,216982,1,8,0:0:0:0:
224,160,217070,1,0,0:0:0:0:
288,160,217159,1,8,0:0:0:0:
224,160,217247,1,0,0:0:0:0:
288,160,217335,1,8,0:0:0:0:
288,160,217423,1,8,0:0:0:0:
224,160,217512,1,0,0:0:0:0:
224,160,217688,1,0,0:0:0:0:
288,160,217953,1,8,0:0:0:0:
288,160,218041,1,8,0:0:0:0:
288,160,218218,1,8,0:0:0:0:
224,160,218394,1,0,0:0:0:0:
288,160,218482,1,8,0:0:0:0:
288,160,218570,1,8,0:0:0:0:
288,160,218659,1,8,0:0:0:0:
224,160,218747,1,0,0:0:0:0:
224,160,218923,1,0,0:0:0:0:
224,224,219100,1,4,0:0:0:0:
256,192,219276,12,0,223335,0:0:0:0:
224,224,247335,5,4,0:0:0:0:
224,224,248570,1,4,0:0:0:0:
288,160,249806,1,8,0:0:0:0:
288,160,249894,1,8,0:0:0:0:
224,160,249982,1,0,0:0:0:0:
224,160,250070,1,0,0:0:0:0:
288,224,250159,1,12,0:0:0:0:
288,224,251394,1,12,0:0:0:0:
224,160,252629,1,0,0:0:0:0:
224,160,252718,1,0,0:0:0:0:
224,160,252806,1,0,0:0:0:0:
224,160,252894,1,0,0:0:0:0:
288,224,252982,1,12,0:0:0:0:
288,160,253688,1,8,0:0:0:0:
288,160,253865,1,8,0:0:0:0:
288,224,254218,1,12,0:0:0:0:
288,160,255453,1,8,0:0:0:0:
288,160,255541,1,8,0:0:0:0:
288,160,255629,1,8,0:0:0:0:
288,160,255718,1,8,0:0:0:0:
224,224,255806,1,4,0:0:0:0:
224,224,257041,1,4,0:0:0:0:
224,160,258276,1,0,0:0:0:0:
224,160,258365,1,0,0:0:0:0:
288,160,258453,1,8,0:0:0:0:
288,160,258541,1,8,0:0:0:0:
224,224,258629,1,4,0:0:0:0:
224,160,258894,1,0,0:0:0:0:
288,160,258982,1,8,0:0:0:0:
224,160,259159,1,0,0:0:0:0:
224,160,259247,1,0,0:0:0:0:
288,160,259335,1,8,0:0:0:0:
288,160,259512,1,8,0:0:0:0:
224,160,259600,1,0,0:0:0:0:
288,160,259688,1,8,0:0:0:0:
224,224,259865,1,4,0:0:0:0:
288,160,260218,1,8,0:0:0:0:
224,160,260394,1,0,0:0:0:0:
224,160,260482,1,0,0:0:0:0:
224,160,260570,1,0,0:0:0:0:
288,160,260747,1,8,0:0:0:0:
288,160,261100,1,8,0:0:0:0:
288,160,261188,1,8,0:0:0:0:
224,160,261276,1,0,0:0:0:0:
288,160,261365,1,8,0:0:0:0:
224,224,261453,1,4,0:0:0:0:
288,160,261718,1,8,0:0:0:0:
224,160,261806,1,0,0:0:0:0:
224,160,261982,1,0,0:0:0:0:
224,160,262070,1,0,0:0:0:0:
288,160,262159,1,8,0:0:0:0:
224,160,262423,1,0,0:0:0:0:
288,160,262512,1,8,0:0:0:0:
224,224,262688,1,4,0:0:0:0:
288,160,263041,1,8,0:0:0:0:
224,160,263218,1,0,0:0:0:0:
224,160,263306,1,0,0:0:0:0:
224,160,263394,1,0,0:0:0:0:
288,160,263570,1,8,0:0:0:0:
288,160,263747,1,8,0:0:0:0:
224,160,263923,1,0,0:0:0:0:
224,160,264012,1,0,0:0:0:0:
288,160,264100,1,8,0:0:0:0:
224,160,264188,1,0,0:0:0:0:
288,224,264276,1,12,0:0:0:0:
288,160,264541,1,8,0:0:0:0:
224,160,264629,1,0,0:0:0:0:
224,160,264806,1,0,0:0:0:0:
224,160,264894,1,0,0:0:0:0:
288,160,264982,1,8,0:0:0:0:
224,160,265159,1,0,0:0:0:0:
288,160,265335,1,8,0:0:0:0:
224,224,265512,1,4,0:0:0:0:
288,160,265865,1,8,0:0:0:0:
224,160,266041,1,0,0:0:0:0:
224,160,266129,1,0,0:0:0:0:
224,160,266218,1,0,0:0:0:0:
288,160,266394,1,8,0:0:0:0:
288,160,266747,1,8,0:0:0:0:
288,160,266835,1,8,0:0:0:0:
224,160,266923,1,0,0:0:0:0:
224,160,267012,1,0,0:0:0:0:
288,224,267100,1,12,0:0:0:0:
288,160,267365,1,8,0:0:0:0:
224,160,267453,1,0,0:0:0:0:
224,160,267629,1,0,0:0:0:0:
224,160,267718,1,0,0:0:0:0:
288,160,267806,1,8,0:0:0:0:
224,160,267982,1,0,0:0:0:0:
288,160,268070,1,8,0:0:0:0:
288,160,268159,1,8,0:0:0:0:
288,224,268335,1,12,0:0:0:0:
288,160,268688,1,8,0:0:0:0:
224,160,268865,1,0,0:0:0:0:
224,160,268953,1,0,0:0:0:0:
224,160,269041,1,0,0:0:0:0:
288,160,269218,1,8,0:0:0:0:
224,160,269394,1,0,0:0:0:0:
288,160,269570,1,8,0:0:0:0:
224,160,269923,1,0,0:0:0:0:
224,160,270629,1,0,0:0:0:0:
288,160,271335,1,8,0:0:0:0:
288,160,272041,1,8,0:0:0:0:
224,160,272747,1,0,0:0:0:0:
288,160,273453,1,8,0:0:0:0:
224,160,273806,1,0,0:0:0:0:
224,160,274159,1,0,0:0:0:0:
224,160,274512,1,0,0:0:0:0:
288,160,274865,1,8,0:0:0:0:
224,160,275218,1,0,0:0:0:0:
288,160,275394,1,8,0:0:0:0:
224,160,275570,1,0,0:0:0:0:
288,160,276276,1,8,0:0:0:0:
224,160,276629,1,0,0:0:0:0:
224,160,276982,1,0,0:0:0:0:
224,160,277688,1,0,0:0:0:0:
224,160,278394,1,0,0:0:0:0:
224,160,278923,1,0,0:0:0:0:
288,160,279100,1,8,0:0:0:0:
224,160,279629,1,0,0:0:0:0:
224,160,280159,1,0,0:0:0:0:
288,160,280512,1,8,0:0:0:0:
224,160,280865,1,0,0:0:0:0:
288,160,281041,1,8,0:0:0:0:
224,160,281218,1,0,0:0:0:0:
224,160,281570,1,0,0:0:0:0:
288,160,281923,1,8,0:0:0:0:
288,160,282276,1,8,0:0:0:0:
224,160,282453,1,0,0:0:0:0:
224,160,282629,1,0,0:0:0:0:
224,160,282982,1,0,0:0:0:0:
288,160,283335,1,8,0:0:0:0:
288,160,283688,1,8,0:0:0:0:
288,160,283865,1,8,0:0:0:0:
224,160,284041,1,0,0:0:0:0:
224,160,284394,1,0,0:0:0:0:
224,160,284570,1,0,0:0:0:0:
288,160,284747,1,8,0:0:0:0:
288,160,285100,1,8,0:0:0:0:
224,160,285276,1,0,0:0:0:0:
288,160,285629,1,8,0:0:0:0:
224,160,285806,1,0,0:0:0:0:
224,160,285982,1,0,0:0:0:0:
224,160,286070,1,0,0:0:0:0:
288,160,286159,1,8,0:0:0:0:
288,160,286512,1,8,0:0:0:0:
288,160,286688,1,8,0:0:0:0:
224,224,286865,1,4,0:0:0:0:
224,160,287129,1,0,0:0:0:0:
288,160,287218,1,8,0:0:0:0:
224,160,287394,1,0,0:0:0:0:
224,160,287482,1,0,0:0:0:0:
288,160,287570,1,8,0:0:0:0:
224,160,287747,1,0,0:0:0:0:
288,160,287923,1,8,0:0:0:0:
224,224,288100,1,4,0:0:0:0:
288,160,288453,1,8,0:0:0:0:
224,160,288629,1,0,0:0:0:0:
224,160,288718,1,0,0:0:0:0:
224,160,288806,1,0,0:0:0:0:
288,160,288982,1,8,0:0:0:0:
288,160,289159,1,8,0:0:0:0:
288,160,289247,1,8,0:0:0:0:
288,160,289335,1,8,0:0:0:0:
224,160,289512,1,0,0:0:0:0:
288,160,289688,1,8,0:0:0:0:
288,160,289776,1,8,0:0:0:0:
224,160,289865,1,0,0:0:0:0:
288,160,289953,1,8,0:0:0:0:
224,160,290041,1,0,0:0:0:0:
224,160,290218,1,0,0:0:0:0:
224,160,290306,1,0,0:0:0:0:
288,160,290394,1,8,0:0:0:0:
288,160,290570,1,8,0:0:0:0:
224,160,290747,1,0,0:0:0:0:
288,224,290923,1,12,0:0:0:0:
288,160,291276,1,8,0:0:0:0:
224,160,291453,1,0,0:0:0:0:
224,160,291541,1,0,0:0:0:0:
224,160,291629,1,0,0:0:0:0:
288,160,291806,1,8,0:0:0:0:
224,160,291982,1,0,0:0:0:0:
288,160,292070,1,8,0:0:0:0:
224,160,292159,1,0,0:0:0:0:
288,160,292247,1,8,0:0:0:0:
224,160,292335,1,0,0:0:0:0:
224,224,292512,1,4,0:0:0:0:
224,160,292776,1,0,0:0:0:0:
288,160,292865,1,8,0:0:0:0:
224,160,293041,1,0,0:0:0:0:
224,160,293129,1,0,0:0:0:0:
288,160,293218,1,8,0:0:0:0:
288,160,293394,1,8,0:0:0:0:
288,160,293482,1,8,0:0:0:0:
224,160,293570,1,0,0:0:0:0:
224,224,293747,1,4,0:0:0:0:
288,160,294100,1,8,0:0:0:0:
288,160,294276,1,8,0:0:0:0:
224,160,294365,1,0,0:0:0:0:
224,160,294453,1,0,0:0:0:0:
288,160,294629,1,8,0:0:0:0:
224,160,294894,1,0,0:0:0:0:
288,160,295159,1,8,0:0:0:0:
224,160,295335,1,0,0:0:0:0:
288,160,295423,1,8,0:0:0:0:
288,160,295512,1,8,0:0:0:0:
224,160,295600,1,0,0:0:0:0:
288,160,295688,1,8,0:0:0:0:
288,160,295865,1,8,0:0:0:0:
224,160,295953,1,0,0:0:0:0:
288,160,296041,1,8,0:0:0:0:
288,160,296129,1,8,0:0:0:0:
224,160,296218,1,0,0:0:0:0:
224,160,296394,1,0,0:0:0:0:
288,224,296570,1,12,0:0:0:0:
224,160,296923,1,0,0:0:0:0:
288,160,297012,1,8,0:0:0:0:
288,160,297100,1,8,0:0:0:0:
224,160,297276,1,0,0:0:0:0:
288,160,297453,1,8,0:0:0:0:
288,160,297541,1,8,0:0:0:0:
224,160,297629,1,0,0:0:0:0:
224,160,297718,1,0,0:0:0:0:
224,160,297806,1,0,0:0:0:0:
288,160,297894,1,8,0:0:0:0:
224,160,297982,1,0,0:0:0:0:
224,224,298159,1,4,0:0:0:0:
224,160,298423,1,0,0:0:0:0:
288,160,298512,1,8,0:0:0:0:
224,160,298688,1,0,0:0:0:0:
224,160,298776,1,0,0:0:0:0:
288,160,298865,1,8,0:0:0:0:
224,160,298953,1,0,0:0:0:0:
288,160,299041,1,8,0:0:0:0:
288,160,299218,1,8,0:0:0:0:
224,224,299394,1,4,0:0:0:0:
288,160,299747,1,8,0:0:0:0:
288,160,299923,1,8,0:0:0:0:
288,160,300012,1,8,0:0:0:0:
224,160,300100,1,0,0:0:0:0:
224,160,300276,1,0,0:0:0:0:
288,160,300453,1,8,0:0:0:0:
224,160,300629,1,0,0:0:0:0:
288,160,300718,1,8,0:0:0:0:
224,160,300806,1,0,0:0:0:0:
224,160,300894,1,0,0:0:0:0:
288,160,300982,1,8,0:0:0:0:
224,160,301070,1,0,0:0:0:0:
288,160,301159,1,8,0:0:0:0:
224,160,301335,1,0,0:0:0:0:
224,160,301512,1,0,0:0:0:0:
224,160,301600,1,0,0:0:0:0:
288,160,301688,1,8,0:0:0:0:
288,160,301776,1,8,0:0:0:0:
288,160,301953,1,8,0:0:0:0:
224,160,302041,1,0,0:0:0:0:
288,224,302218,1,12,0:0:0:0:
288,160,302570,1,8,0:0:0:0:
288,160,302747,1,8,0:0:0:0:
288,160,302835,1,8,0:0:0:0:
224,160,302923,1,0,0:0:0:0:
288,160,303100,1,8,0:0:0:0:
224,160,303276,1,0,0:0:0:0:
224,160,303365,1,0,0:0:0:0:
288,160,303453,1,8,0:0:0:0:
288,160,303541,1,8,0:0:0:0:
224,160,303629,1,0,0:0:0:0:
224,224,303806,1,4,0:0:0:0:
224,160,304070,1,0,0:0:0:0:
288,160,304159,1,8,0:0:0:0:
224,160,304335,1,0,0:0:0:0:
224,160,304423,1,0,0:0:0:0:
288,160,304512,1,8,0:0:0:0:
224,160,304600,1,0,0:0:0:0:
288,160,304688,1,8,0:0:0:0:
288,160,304776,1,8,0:0:0:0:
224,160,304865,1,0,0:0:0:0:
224,224,305041,1,4,0:0:0:0:
288,160,305394,1,8,0:0:0:0:
224,160,305570,1,0,0:0:0:0:
288,160,305747,1,8,0:0:0:0:
224,160,305835,1,0,0:0:0:0:
288,160,305923,1,8,0:0:0:0:
224,160,306012,1,0,0:0:0:0:
288,160,306100,1,8,0:0:0:0:
288,160,306188,1,8,0:0:0:0:
224,160,306276,1,0,0:0:0:0:
224,160,306453,1,0,0:0:0:0:
288,224,306629,1,12,0:0:0:0:
224,160,306982,1,0,0:0:0:0:
224,160,307070,1,0,0:0:0:0:
288,160,307159,1,8,0:0:0:0:
224,160,307247,1,0,0:0:0:0:
224,160,307335,1,0,0:0:0:0:
224,160,307512,1,0,0:0:0:0:
224,160,307600,1,0,0:0:0:0:
288,160,307688,1,8,0:0:0:0:
288,160,307776,1,8,0:0:0:0:
224,160,307865,1,0,0:0:0:0:
288,160,308041,1,8,0:0:0:0:
224,160,308218,1,0,0:0:0:0:
224,160,308394,1,0,0:0:0:0:
288,160,308570,1,8,0:0:0:0:
224,160,308747,1,0,0:0:0:0:
224,160,308835,1,0,0:0:0:0:
224,160,308923,1,0,0:0:0:0:
288,160,309012,1,8,0:0:0:0:
288,160,309100,1,8,0:0:0:0:
288,160,309188,1,8,0:0:0:0:
288,160,309276,1,8,0:0:0:0:
288,160,309365,1,8,0:0:0:0:
224,160,309453,1,0,0:0:0:0:
224,160,310335,1,0,0:0:0:0:
288,160,310512,1,8,0:0:0:0:
288,160,310688,1,8,0:0:0:0:
224,224,310865,1,4,0:0:0:0:
288,160,311218,1,8,0:0:0:0:
224,160,311394,1,0,0:0:0:0:
224,160,311482,1,0,0:0:0:0:
288,160,311570,1,8,0:0:0:0:
288,160,311747,1,8,0:0:0:0:
224,160,311923,1,0,0:0:0:0:
224,160,312100,1,0,0:0:0:0:
224,160,312188,1,0,0:0:0:0:
288,160,312276,1,8,0:0:0:0:
224,160,312365,1,0,0:0:0:0:
288,160,312453,1,8,0:0:0:0:
224,160,312629,1,0,0:0:0:0:
288,160,312806,1,8,0:0:0:0:
224,160,312982,1,0,0:0:0:0:
288,160,313159,1,8,0:0:0:0:
288,160,313335,1,8,0:0:0:0:
288,160,313512,1,8,0:0:0:0:
288,160,313600,1,8,0:0:0:0:
224,160,313688,1,0,0:0:0:0:
224,160,313776,1,0,0:0:0:0:
224,160,313865,1,0,0:0:0:0:
288,160,314041,1,8,0:0:0:0:
224,160,314218,1,0,0:0:0:0:
288,160,314306,1,8,0:0:0:0:
224,160,314394,1,0,0:0:0:0:
224,160,314482,1,0,0:0:0:0:
288,160,314570,1,8,0:0:0:0:
288,160,314747,1,8,0:0:0:0:
224,160,314923,1,0,0:0:0:0:
224,160,315100,1,0,0:0:0:0:
288,160,315453,1,8,0:0:0:0:
224,160,315629,1,0,0:0:0:0:
224,160,315718,1,0,0:0:0:0:
288,160,315806,1,8,0:0:0:0:
224,160,315982,1,0,0:0:0:0:
288,160,316159,1,8,0:0:0:0:
288,160,316335,1,8,0:0:0:0:
224,224,316512,1,4,0:0:0:0:
288,160,316865,1,8,0:0:0:0:
288,160,317041,1,8,0:0:0:0:
288,160,317129,1,8,0:0:0:0:
224,160,317218,1,0,0:0:0:0:
224,160,317306,1,0,0:0:0:0:
288,160,317394,1,8,0:0:0:0:
288,160,317570,1,8,0:0:0:0:
224,160,317747,1,0,0:0:0:0:
224,160,317835,1,0,0:0:0:0:
288,160,317923,1,8,0:0:0:0:
288,160,318100,1,8,0:0:0:0:
224,160,318276,1,0,0:0:0:0:
288,160,318453,1,8,0:0:0:0:
288,160,318541,1,8,0:0:0:0:
224,160,318629,1,0,0:0:0:0:
224,160,318718,1,0,0:0:0:0:
288,160,318806,1,8,0:0:0:0:
288,160,318982,1,8,0:0:0:0:
224,160,319159,1,0,0:0:0:0:
288,160,319335,1,8,0:0:0:0:
224,160,319512,1,0,0:0:0:0:
224,160,319600,1,0,0:0:0:0:
224,160,319688,1,0,0:0:0:0:
288,160,319865,1,8,0:0:0:0:
224,160,320041,1,0,0:0:0:0:
224,160,320129,1,0,0:0:0:0:
288,160,320218,1,8,0:0:0:0:
224,160,320394,1,0,0:0:0:0:
288,160,320570,1,0,0:0:0:0:
288,160,320747,1,8,0:0:0:0:
224,160,320923,1,0,0:0:0:0:
224,160,321012,1,0,0:0:0:0:
288,160,321100,1,8,0:0:0:0:
224,160,321276,1,0,0:0:0:0:
224,160,321365,1,0,0:0:0:0:
288,160,321453,1,8,0:0:0:0:
224,160,321629,1,0,0:0:0:0:
224,160,321718,1,0,0:0:0:0:
288,160,321806,1,8,0:0:0:0:
288,160,321982,1,8,0:0:0:0:
224,224,322159,1,4,0:0:0:0:
288,160,322512,1,8,0:0:0:0:
224,160,322688,1,0,0:0:0:0:
288,160,322776,1,8,0:0:0:0:
224,160,322865,1,0,0:0:0:0:
288,160,323041,1,8,0:0:0:0:
224,160,323129,1,0,0:0:0:0:
288,160,323218,1,8,0:0:0:0:
288,160,323306,1,8,0:0:0:0:
224,160,323394,1,0,0:0:0:0:
288,160,323570,1,8,0:0:0:0:
288,160,323747,1,8,0:0:0:0:
224,160,323923,1,0,0:0:0:0:
224,160,324012,1,0,0:0:0:0:
288,160,324100,1,8,0:0:0:0:
224,160,324276,1,0,0:0:0:0:
288,160,324453,1,8,0:0:0:0:
288,160,324629,1,8,0:0:0:0:
224,160,324806,1,0,0:0:0:0:
288,160,324894,1,8,0:0:0:0:
288,160,324982,1,8,0:0:0:0:
224,160,325159,1,0,0:0:0:0:
288,160,325335,1,8,0:0:0:0:
288,160,325512,1,8,0:0:0:0:
288,160,325600,1,8,0:0:0:0:
224,160,325688,1,0,0:0:0:0:
224,160,325776,1,0,0:0:0:0:
288,160,325865,1,8,0:0:0:0:
224,160,326041,1,0,0:0:0:0:
224,160,326218,1,0,0:0:0:0:
288,160,326306,1,8,0:0:0:0:
224,160,326394,1,0,0:0:0:0:
288,160,326747,1,8,0:0:0:0:
224,160,326923,1,0,0:0:0:0:
288,160,327100,1,8,0:0:0:0:
288,160,327276,1,8,0:0:0:0:
288,160,327365,1,8,0:0:0:0:
224,160,327453,1,0,0:0:0:0:
288,160,327629,1,8,0:0:0:0:
224,224,327806,1,4,0:0:0:0:
288,160,328159,1,8,0:0:0:0:
288,160,328335,1,8,0:0:0:0:
288,160,328423,1,8,0:0:0:0:
224,160,328512,1,0,0:0:0:0:
224,160,328600,1,0,0:0:0:0:
288,160,328688,1,8,0:0:0:0:
288,160,328865,1,8,0:0:0:0:
224,160,329041,1,0,0:0:0:0:
288,224,329218,1,12,0:0:0:0:
224,160,329394,1,0,0:0:0:0:
224,160,329570,1,0,0:0:0:0:
288,160,329747,1,8,0:0:0:0:
224,160,330100,1,0,0:0:0:0:
288,160,330276,1,8,0:0:0:0:
288,160,330453,1,8,0:0:0:0:
224,224,330629,1,4,0:0:0:0:
288,160,330982,1,8,0:0:0:0:
224,160,331159,1,0,0:0:0:0:
224,160,331512,1,0,0:0:0:0:
288,160,331688,1,8,0:0:0:0:
288,224,331865,1,12,0:0:0:0:
395,77,332041,2,0,B|343:93|239:72|299:18|299:18|368:21|405:24|448:32,1,293.999991027832
224,160,332923,1,0,0:0:0:0:
288,160,333100,1,8,0:0:0:0:
288,160,333276,1,8,0:0:0:0:
224,224,333453,1,4,0:0:0:0:
288,160,333806,1,8,0:0:0:0:
224,160,333982,1,0,0:0:0:0:
224,160,334070,1,0,0:0:0:0:
288,160,334159,1,8,0:0:0:0:
288,160,334335,1,8,0:0:0:0:
224,160,334512,1,0,0:0:0:0:
288,160,334688,1,8,0:0:0:0:
288,160,334865,1,8,0:0:0:0:
288,160,334953,1,8,0:0:0:0:
224,160,335041,1,0,0:0:0:0:
224,160,335129,1,0,0:0:0:0:
224,160,335218,1,0,0:0:0:0:
288,160,335394,1,8,0:0:0:0:
224,160,335570,1,0,0:0:0:0:
288,160,335747,1,8,0:0:0:0:
288,160,335923,1,8,0:0:0:0:
224,160,336012,1,0,0:0:0:0:
288,160,336100,1,8,0:0:0:0:
288,160,336188,1,8,0:0:0:0:
288,160,336276,1,0,0:0:0:0:
224,160,336453,1,0,0:0:0:0:
288,160,336629,1,8,0:0:0:0:
224,160,336806,1,0,0:0:0:0:
288,160,336894,1,8,0:0:0:0:
224,160,336982,1,0,0:0:0:0:
224,160,337070,1,0,0:0:0:0:
288,160,337159,1,8,0:0:0:0:
288,160,337335,1,8,0:0:0:0:
288,160,337512,1,8,0:0:0:0:
224,160,337688,1,0,0:0:0:0:
224,160,337865,1,0,0:0:0:0:
224,160,337953,1,0,0:0:0:0:
288,160,338041,1,8,0:0:0:0:
288,160,338218,1,8,0:0:0:0:
288,160,338306,1,8,0:0:0:0:
224,160,338394,1,0,0:0:0:0:
224,160,338482,1,0,0:0:0:0:
288,160,338570,1,8,0:0:0:0:
224,160,338747,1,0,0:0:0:0:
288,160,338923,1,8,0:0:0:0:
224,224,339100,1,4,0:0:0:0:
288,160,339453,1,8,0:0:0:0:
288,160,339629,1,8,0:0:0:0:
288,160,339718,1,8,0:0:0:0:
224,160,339806,1,0,0:0:0:0:
224,160,339894,1,0,0:0:0:0:
288,160,339982,1,8,0:0:0:0:
288,160,340159,1,8,0:0:0:0:
224,160,340335,1,0,0:0:0:0:
224,160,340423,1,0,0:0:0:0:
288,160,340512,1,8,0:0:0:0:
224,160,340600,1,0,0:0:0:0:
288,160,340688,1,8,0:0:0:0:
224,160,340865,1,0,0:0:0:0:
288,160,341041,1,8,0:0:0:0:
288,160,341129,1,8,0:0:0:0:
224,160,341218,1,0,0:0:0:0:
224,160,341306,1,0,0:0:0:0:
288,160,341394,1,8,0:0:0:0:
288,160,341570,1,8,0:0:0:0:
224,160,341747,1,0,0:0:0:0:
288,160,341923,1,8,0:0:0:0:
224,160,342100,1,0,0:0:0:0:
224,160,342188,1,0,0:0:0:0:
224,160,342276,1,0,0:0:0:0:
288,160,342453,1,8,0:0:0:0:
224,160,342629,1,0,0:0:0:0:
224,160,342718,1,0,0:0:0:0:
288,160,342806,1,8,0:0:0:0:
224,160,342982,1,0,0:0:0:0:
288,160,343159,1,0,0:0:0:0:
288,160,343335,1,8,0:0:0:0:
224,160,343512,1,0,0:0:0:0:
224,160,343600,1,0,0:0:0:0:
288,160,343688,1,8,0:0:0:0:
224,160,343865,1,0,0:0:0:0:
224,160,343953,1,0,0:0:0:0:
288,160,344041,1,8,0:0:0:0:
224,160,344218,1,0,0:0:0:0:
224,160,344306,1,0,0:0:0:0:
288,160,344394,1,8,0:0:0:0:
224,160,344482,1,0,0:0:0:0:
288,160,344570,1,8,0:0:0:0:
224,224,344747,1,4,0:0:0:0:
288,160,345100,1,8,0:0:0:0:
224,160,345276,1,0,0:0:0:0:
288,160,345365,1,8,0:0:0:0:
224,160,345453,1,0,0:0:0:0:
224,160,345541,1,0,0:0:0:0:
288,160,345629,1,8,0:0:0:0:
288,160,345806,1,8,0:0:0:0:
224,160,345982,1,0,0:0:0:0:
224,160,346070,1,0,0:0:0:0:
288,160,346159,1,8,0:0:0:0:
288,160,346335,1,8,0:0:0:0:
224,160,346512,1,0,0:0:0:0:
288,160,346688,1,8,0:0:0:0:
288,160,346776,1,8,0:0:0:0:
224,160,346865,1,0,0:0:0:0:
288,160,347041,1,8,0:0:0:0:
224,160,347129,1,0,0:0:0:0:
288,160,347218,1,8,0:0:0:0:
288,160,347306,1,8,0:0:0:0:
224,160,347394,1,0,0:0:0:0:
288,160,347570,1,8,0:0:0:0:
224,160,347747,1,0,0:0:0:0:
288,160,347923,1,8,0:0:0:0:
288,160,348100,1,8,0:0:0:0:
288,160,348188,1,8,0:0:0:0:
224,160,348276,1,0,0:0:0:0:
224,160,348365,1,0,0:0:0:0:
288,160,348453,1,8,0:0:0:0:
224,160,348629,1,0,0:0:0:0:
224,160,348806,1,0,0:0:0:0:
288,160,348894,1,8,0:0:0:0:
224,160,348982,1,0,0:0:0:0:
224,160,349159,1,0,0:0:0:0:
288,160,349335,1,8,0:0:0:0:
224,160,349512,1,0,0:0:0:0:
224,160,349600,1,0,0:0:0:0:
288,160,349688,1,8,0:0:0:0:
288,160,349865,1,8,0:0:0:0:
288,160,349953,1,8,0:0:0:0:
224,160,350041,1,0,0:0:0:0:
288,160,350218,1,8,0:0:0:0:
224,224,350394,1,4,0:0:0:0:
288,160,350747,1,8,0:0:0:0:
288,160,350923,1,8,0:0:0:0:
224,160,351100,1,0,0:0:0:0:
288,160,351276,1,8,0:0:0:0:
288,160,351453,1,8,0:0:0:0:
224,160,351629,1,0,0:0:0:0:
288,160,351806,1,8,0:0:0:0:
224,160,351982,1,0,0:0:0:0:
224,160,352159,1,0,0:0:0:0:
288,160,352335,1,8,0:0:0:0:
224,160,352688,1,0,0:0:0:0:
288,160,352865,1,8,0:0:0:0:
288,160,353041,1,8,0:0:0:0:
224,224,353218,1,4,0:0:0:0:
288,160,353570,1,8,0:0:0:0:
224,160,353747,1,0,0:0:0:0:
288,160,354100,1,8,0:0:0:0:
288,160,354276,1,8,0:0:0:0:
224,160,354453,1,0,0:0:0:0:
224,160,354629,1,0,0:0:0:0:
288,160,354806,1,8,0:0:0:0:
288,160,355159,1,8,0:0:0:0:
288,160,355512,1,8,0:0:0:0:
224,160,355688,1,0,0:0:0:0:
224,160,355865,1,0,0:0:0:0:
288,160,356041,1,8,0:0:0:0:
224,160,357453,1,0,0:0:0:0:
224,160,357629,1,0,0:0:0:0:
224,160,357806,1,0,0:0:0:0:
224,160,358159,1,0,0:0:0:0:
288,160,358512,1,8,0:0:0:0:
288,160,358600,1,8,0:0:0:0:
288,160,358688,1,8,0:0:0:0:
224,224,358865,1,4,0:0:0:0:
224,160,359218,1,0,0:0:0:0:
288,160,359306,1,8,0:0:0:0:
288,160,359394,1,8,0:0:0:0:
224,160,359570,1,0,0:0:0:0:
288,160,359747,1,8,0:0:0:0:
288,160,359835,1,8,0:0:0:0:
224,160,359923,1,0,0:0:0:0:
288,160,360100,1,8,0:0:0:0:
224,160,360276,1,0,0:0:0:0:
224,160,360365,1,0,0:0:0:0:
288,160,360453,1,8,0:0:0:0:
224,160,360629,1,0,0:0:0:0:
224,160,360718,1,0,0:0:0:0:
288,160,360806,1,8,0:0:0:0:
224,160,360894,1,0,0:0:0:0:
288,160,360982,1,8,0:0:0:0:
224,160,361159,1,0,0:0:0:0:
288,160,361335,1,8,0:0:0:0:
288,160,361512,1,8,0:0:0:0:
224,160,361688,1,0,0:0:0:0:
288,160,362041,1,8,0:0:0:0:
224,160,362218,1,0,0:0:0:0:
224,160,362306,1,0,0:0:0:0:
224,160,362394,1,0,0:0:0:0:
288,160,362570,1,8,0:0:0:0:
288,160,362747,1,8,0:0:0:0:
288,160,362923,1,8,0:0:0:0:
288,160,363012,1,8,0:0:0:0:
224,160,363100,1,0,0:0:0:0:
224,160,363276,1,0,0:0:0:0:
288,160,363365,1,8,0:0:0:0:
288,160,363453,1,8,0:0:0:0:
288,160,363629,1,8,0:0:0:0:
224,160,363806,1,0,0:0:0:0:
224,160,363894,1,0,0:0:0:0:
224,160,363982,1,0,0:0:0:0:
288,160,364070,1,8,0:0:0:0:
224,160,364159,1,0,0:0:0:0:
288,160,364335,1,8,0:0:0:0:
224,160,364512,1,0,0:0:0:0:
288,160,364865,1,8,0:0:0:0:
224,160,365041,1,0,0:0:0:0:
224,160,365129,1,0,0:0:0:0:
224,160,365218,1,0,0:0:0:0:
288,160,365394,1,8,0:0:0:0:
288,160,365570,1,8,0:0:0:0:
288,160,365659,1,8,0:0:0:0:
224,160,365747,1,0,0:0:0:0:
288,160,365835,1,8,0:0:0:0:
224,160,365923,1,0,0:0:0:0:
224,160,366100,1,0,0:0:0:0:
288,160,366276,1,8,0:0:0:0:
224,160,366453,1,0,0:0:0:0:
224,160,366541,1,0,0:0:0:0:
288,160,366629,1,8,0:0:0:0:
288,160,366806,1,8,0:0:0:0:
288,160,366894,1,8,0:0:0:0:
224,160,366982,1,0,0:0:0:0:
288,160,367159,1,8,0:0:0:0:
224,160,367335,1,0,0:0:0:0:
288,160,367423,1,8,0:0:0:0:
224,160,367512,1,0,0:0:0:0:
288,160,367688,1,8,0:0:0:0:
224,160,367776,1,0,0:0:0:0:
288,160,367865,1,8,0:0:0:0:
288,160,367953,1,8,0:0:0:0:
224,160,368041,1,0,0:0:0:0:
224,160,368218,1,0,0:0:0:0:
288,160,368394,1,8,0:0:0:0:
288,160,368570,1,8,0:0:0:0:
288,160,368659,1,8,0:0:0:0:
224,160,368747,1,0,0:0:0:0:
288,160,368835,1,8,0:0:0:0:
224,160,368923,1,0,0:0:0:0:
288,160,369100,1,8,0:0:0:0:
224,160,369276,1,0,0:0:0:0:
288,160,369453,1,8,0:0:0:0:
224,160,369629,1,0,0:0:0:0:
288,160,369718,1,8,0:0:0:0:
288,160,369894,1,8,0:0:0:0:
224,160,369982,1,0,0:0:0:0:
288,224,370159,1,12,0:0:0:0:
288,160,370512,1,8,0:0:0:0:
288,160,370688,1,8,0:0:0:0:
288,160,370776,1,8,0:0:0:0:
224,160,370865,1,0,0:0:0:0:
288,160,371041,1,8,0:0:0:0:
288,160,371218,1,8,0:0:0:0:
224,160,371394,1,0,0:0:0:0:
288,160,371482,1,8,0:0:0:0:
224,160,371570,1,0,0:0:0:0:
288,160,371659,1,8,0:0:0:0:
224,160,371747,1,0,0:0:0:0:
288,160,371923,1,8,0:0:0:0:
224,160,372100,1,0,0:0:0:0:
224,160,372276,1,0,0:0:0:0:
224,160,372394,1,0,0:0:0:0:
224,160,372512,1,0,0:0:0:0:
288,160,372629,1,8,0:0:0:0:
224,160,372718,1,0,0:0:0:0:
288,160,372806,1,8,0:0:0:0:
224,160,372982,1,0,0:0:0:0:
288,160,373159,1,8,0:0:0:0:
288,160,373247,1,8,0:0:0:0:
288,160,373335,1,8,0:0:0:0:
224,160,373512,1,0,0:0:0:0:
224,160,373600,1,0,0:0:0:0:
288,160,373688,1,8,0:0:0:0:
224,160,373776,1,0,0:0:0:0:
288,160,373865,1,8,0:0:0:0:
224,160,374041,1,0,0:0:0:0:
288,160,374129,1,8,0:0:0:0:
288,160,374218,1,8,0:0:0:0:
224,160,374394,1,0,0:0:0:0:
288,160,374570,1,8,0:0:0:0:
288,160,374659,1,8,0:0:0:0:
224,160,374747,1,0,0:0:0:0:
288,160,374835,1,8,0:0:0:0:
224,160,374923,1,0,0:0:0:0:
288,160,375100,1,8,0:0:0:0:
288,160,375188,1,8,0:0:0:0:
224,160,375276,1,0,0:0:0:0:
288,160,375365,1,8,0:0:0:0:
288,160,375453,1,8,0:0:0:0:
224,160,375629,1,0,0:0:0:0:
288,160,375806,1,8,0:0:0:0:
224,160,375894,1,0,0:0:0:0:
288,160,375982,1,8,0:0:0:0:
224,160,376159,1,0,0:0:0:0:
288,160,376335,1,8,0:0:0:0:
224,160,376423,1,0,0:0:0:0:
288,160,376512,1,8,0:0:0:0:
288,160,376600,1,8,0:0:0:0:
224,160,376688,1,0,0:0:0:0:
288,160,376865,1,8,0:0:0:0:
224,160,377041,1,0,0:0:0:0:
224,224,377218,1,4,0:0:0:0:
288,160,377394,1,8,0:0:0:0:
224,160,377570,1,0,0:0:0:0:
288,160,377747,1,8,0:0:0:0:
288,160,377923,1,8,0:0:0:0:
288,160,378100,1,8,0:0:0:0:
224,160,378188,1,0,0:0:0:0:
288,160,378276,1,8,0:0:0:0:
224,160,378453,1,0,0:0:0:0:
224,224,378629,1,4,0:0:0:0:
224,160,378806,1,0,0:0:0:0:
224,160,378894,1,0,0:0:0:0:
288,160,378982,1,8,0:0:0:0:
288,160,379335,1,8,0:0:0:0:
288,160,379423,1,8,0:0:0:0:
224,160,379512,1,0,0:0:0:0:
288,160,379600,1,8,0:0:0:0:
224,160,379688,1,0,0:0:0:0:
288,224,379865,1,12,0:0:0:0:
224,160,380218,1,0,0:0:0:0:
288,160,380394,1,8,0:0:0:0:
224,160,380570,1,0,0:0:0:0:
224,160,381100,1,0,0:0:0:0:
224,224,381453,1,4,0:0:0:0:
288,160,381806,1,8,0:0:0:0:
224,160,381894,1,0,0:0:0:0:
288,160,381982,1,8,0:0:0:0:
288,160,382070,1,8,0:0:0:0:
288,160,382159,1,8,0:0:0:0:
288,160,382335,1,8,0:0:0:0:
288,160,382423,1,8,0:0:0:0:
224,160,382512,1,0,0:0:0:0:
224,160,382600,1,0,0:0:0:0:
288,160,382688,1,8,0:0:0:0:
224,160,382865,1,0,0:0:0:0:
224,160,383218,1,0,0:0:0:0:
224,160,383394,1,0,0:0:0:0:
224,160,383482,1,0,0:0:0:0:
288,160,383570,1,8,0:0:0:0:
224,160,383747,1,0,0:0:0:0:
288,160,383923,1,8,0:0:0:0:
288,160,384012,1,8,0:0:0:0:
224,160,384100,1,0,0:0:0:0:
288,160,384188,1,8,0:0:0:0:
224,160,384276,1,0,0:0:0:0:
288,160,384541,1,8,0:0:0:0:
224,160,384629,1,0,0:0:0:0:
224,160,384806,1,0,0:0:0:0:
224,160,384894,1,0,0:0:0:0:
288,160,384982,1,8,0:0:0:0:
224,160,385070,1,0,0:0:0:0:
224,160,385159,1,0,0:0:0:0:
224,160,385247,1,0,0:0:0:0:
288,160,385335,1,8,0:0:0:0:
224,160,385512,1,0,0:0:0:0:
288,160,385688,1,8,0:0:0:0:
288,160,385865,1,8,0:0:0:0:
224,160,385953,1,0,0:0:0:0:
224,160,386129,1,0,0:0:0:0:
288,160,386218,1,8,0:0:0:0:
288,160,386394,1,8,0:0:0:0:
224,160,386570,1,0,0:0:0:0:
288,160,386659,1,8,0:0:0:0:
288,160,386835,1,8,0:0:0:0:
224,160,386923,1,0,0:0:0:0:
288,160,387100,1,8,0:0:0:0:
224,160,387365,1,0,0:0:0:0:
288,160,387453,1,8,0:0:0:0:
224,160,387629,1,0,0:0:0:0:
224,160,387718,1,0,0:0:0:0:
288,160,387806,1,8,0:0:0:0:
224,160,387982,1,0,0:0:0:0:
288,160,388070,1,8,0:0:0:0:
288,160,388247,1,8,0:0:0:0:
224,160,388335,1,0,0:0:0:0:
224,160,388512,1,0,0:0:0:0:
288,160,388688,1,8,0:0:0:0:
224,160,388865,1,0,0:0:0:0:
288,160,388953,1,8,0:0:0:0:
288,160,389041,1,8,0:0:0:0:
288,160,389129,1,8,0:0:0:0:
224,160,389218,1,0,0:0:0:0:
224,160,389394,1,0,0:0:0:0:
288,160,389570,1,8,0:0:0:0:
288,160,389923,1,8,0:0:0:0:
288,160,390188,1,8,0:0:0:0:
224,160,390276,1,0,0:0:0:0:
224,160,390453,1,0,0:0:0:0:
224,160,390541,1,0,0:0:0:0:
288,160,390629,1,8,0:0:0:0:
224,160,390718,1,0,0:0:0:0:
224,160,390806,1,0,0:0:0:0:
224,160,390894,1,0,0:0:0:0:
288,160,390982,1,8,0:0:0:0:
224,160,391159,1,0,0:0:0:0:
288,160,391335,1,8,0:0:0:0:
288,160,391600,1,8,0:0:0:0:
288,160,391688,1,8,0:0:0:0:
224,160,391865,1,0,0:0:0:0:
288,160,391953,1,8,0:0:0:0:
288,160,392041,1,8,0:0:0:0:
224,160,392218,1,0,0:0:0:0:
288,160,392306,1,8,0:0:0:0:
288,160,392482,1,8,0:0:0:0:
224,160,392570,1,0,0:0:0:0:
224,224,392747,1,4,0:0:0:0:
224,160,393012,1,0,0:0:0:0:
288,160,393100,1,8,0:0:0:0:
224,160,393276,1,0,0:0:0:0:
224,160,393365,1,0,0:0:0:0:
288,160,393453,1,8,0:0:0:0:
224,160,393629,1,0,0:0:0:0:
288,160,393718,1,8,0:0:0:0:
224,160,393806,1,0,0:0:0:0:
288,160,393894,1,8,0:0:0:0:
224,160,393982,1,0,0:0:0:0:
288,160,394159,1,8,0:0:0:0:
224,160,394276,1,0,0:0:0:0:
288,160,394394,1,8,0:0:0:0:
288,160,394512,1,8,0:0:0:0:
224,160,394629,1,0,0:0:0:0:
224,160,394747,1,0,0:0:0:0:
288,160,394865,1,8,0:0:0:0:
288,160,395041,1,8,0:0:0:0:
224,160,395218,1,0,0:0:0:0:
288,160,395306,1,8,0:0:0:0:
224,160,395394,1,0,0:0:0:0:
288,160,395482,1,8,0:0:0:0:
224,160,395570,1,0,0:0:0:0:
288,160,395835,1,8,0:0:0:0:
224,160,395923,1,0,0:0:0:0:
224,160,396100,1,0,0:0:0:0:
224,160,396188,1,0,0:0:0:0:
288,160,396276,1,8,0:0:0:0:
224,160,396365,1,0,0:0:0:0:
224,160,396453,1,0,0:0:0:0:
224,160,396541,1,0,0:0:0:0:
288,160,396629,1,8,0:0:0:0:
224,160,396806,1,0,0:0:0:0:
288,160,396982,1,8,0:0:0:0:
224,160,397247,1,0,0:0:0:0:
288,160,397335,1,8,0:0:0:0:
224,160,397512,1,0,0:0:0:0:
224,160,397600,1,0,0:0:0:0:
288,160,397688,1,8,0:0:0:0:
224,160,397865,1,0,0:0:0:0:
224,160,398041,1,0,0:0:0:0:
288,160,398129,1,8,0:0:0:0:
288,160,398218,1,8,0:0:0:0:
288,160,398306,1,8,0:0:0:0:
224,160,398394,1,0,0:0:0:0:
288,160,398659,1,8,0:0:0:0:
224,160,398747,1,0,0:0:0:0:
224,160,398923,1,0,0:0:0:0:
224,160,399012,1,0,0:0:0:0:
288,160,399100,1,8,0:0:0:0:
224,160,399276,1,0,0:0:0:0:
288,160,399365,1,8,0:0:0:0:
288,160,399541,1,8,0:0:0:0:
224,160,399629,1,0,0:0:0:0:
224,160,399806,1,0,0:0:0:0:
288,160,399982,1,8,0:0:0:0:
224,160,400159,1,0,0:0:0:0:
224,160,400247,1,0,0:0:0:0:
224,160,400335,1,0,0:0:0:0:
224,160,400423,1,0,0:0:0:0:
288,160,400512,1,8,0:0:0:0:
288,160,400688,1,8,0:0:0:0:
224,160,400865,1,0,0:0:0:0:
288,160,401041,1,8,0:0:0:0:
288,160,401218,1,8,0:0:0:0:
288,160,401394,1,8,0:0:0:0:
224,160,401482,1,0,0:0:0:0:
224,160,401659,1,0,0:0:0:0:
288,160,401747,1,8,0:0:0:0:
224,160,401923,1,0,0:0:0:0:
288,160,402100,1,8,0:0:0:0:
288,160,402188,1,8,0:0:0:0:
224,160,402276,1,0,0:0:0:0:
224,160,402365,1,0,0:0:0:0:
288,160,402453,1,8,0:0:0:0:
288,160,402629,1,8,0:0:0:0:
224,160,402747,1,0,0:0:0:0:
288,160,402865,1,8,0:0:0:0:
288,160,402982,1,8,0:0:0:0:
288,160,403100,1,8,0:0:0:0:
224,160,403218,1,0,0:0:0:0:
288,160,403335,1,8,0:0:0:0:
224,160,403453,1,0,0:0:0:0:
288,160,403570,1,8,0:0:0:0:
224,160,403688,1,0,0:0:0:0:
224,160,403806,1,0,0:0:0:0:
224,160,403923,1,0,0:0:0:0:
288,224,404041,1,12,0:0:0:0:
256,192,404218,12,0,418159,0:0:0:0:
