osu file format v14

[General]
AudioFilename: audio.mp3
AudioLeadIn: 0
PreviewTime: 33025
Countdown: 0
SampleSet: Soft
StackLeniency: 0.7
Mode: 0
LetterboxInBreaks: 0
StoryFireInFront: 0
EpilepsyWarning: 1
WidescreenStoryboard: 1

[Editor]
Bookmarks: 737,17008,33279,49550,65821,73957,82092,85143,86160,102431,118703,122770,126838,130906,139042,147177,155313,174408,177595,181880
DistanceSpacing: 1
BeatDivisor: 4
GridSize: 32
TimelineZoom: 1

[Metadata]
Title:Over the Skyblue
TitleUnicode:Over the Skyblue
Artist:Noriko Mitose
ArtistUnicode:みとせのりこ
Creator:Daoski
Version:Normal
Source:あの晴れわたる空より高く
Tags:taishi kskb440 & kato.yosihal el dorado electro.muster chill ano harewataru sora yori takaku ed ending
BeatmapID:1971376
BeatmapSetID:943935

[Difficulty]
HPDrainRate:3
CircleSize:3.5
OverallDifficulty:4
ApproachRate:5
SliderMultiplier:1.28
SliderTickRate:2

[Events]
//Background and Video events
0,0,"bg.png",0,0
//Break Periods
2,66021,72757
2,127038,129198
//Storyboard Layer 0 (Background)
//Storyboard Layer 1 (Fail)
//Storyboard Layer 2 (Pass)
//Storyboard Layer 3 (Foreground)
Sprite,Foreground,Centre,"sb\ring.png",0,0 M,0,175391,,320,440 C,0,175391,,207,207,207 S,2,175391,176391,0.24,1.44 P,0,175391,176391,A F,2,175891,176391,1,0
Sprite,Foreground,Centre,"sb\ring.png",240,353 C,0,176072,,160,160,160 S,2,176072,177072,0.24,1.44 P,0,176072,177072,A F,2,176572,177072,1,0
Sprite,Foreground,Centre,"sb\ring.png",0,0 M,0,177595,,64,435 C,0,177595,,207,207,207 S,2,177595,178595,0.24,1.44 P,0,177595,178595,A F,2,178095,178595,1,0
Sprite,Foreground,Centre,"sb\star.png",136,260 F,2,130398,,1 S,2,130398,,1.2,0.6 C,0,130398,,9,122,206 P,0,130398,,A
Sprite,Foreground,Centre,"sb\star.png",0,0 C,0,130906,,9,122,206 M,0,130906,130969,203,338,214.927,329.9766 F,2,130906,131668,1 S,2,130906,131668,1.2,0.6 P,0,130906,131668,A M,0,130969,131033,214.927,329.9766,227.5639,323.1532 M,0,131033,131096,227.5639,323.1532,240.9235,317.8477 M,0,131096,131160,240.9235,317.8477,254.8898,314.4564 M,0,131160,131223,254.8898,314.4564,269.1186,312.5497 M,0,131223,131287,269.1186,312.5497,283.481,312.3176 M,0,131287,131350,283.481,312.3176,297.7868,313.7663 M,0,131350,131414,297.7868,313.7663,311.7357,317.2316 M,0,131414,131478,311.7357,317.2316,325.2436,322.0971 M,0,131478,131541,325.2436,322.0971,338.0998,328.5112 M,0,131541,131605,338.0998,328.5112,350.1324,336.3925 M,0,131605,131668,350.1324,336.3925,360.8892,345.9265
Sprite,Foreground,Centre,"sb\star.png",0,0 C,0,131923,,9,122,206 M,0,131923,131986,395,384,409.1386,381.2687 F,2,131923,132304,1 S,2,131923,132304,1.2,0.6 P,0,131923,132304,A M,0,131986,132050,409.1386,381.2687,423.2772,378.5374 M,0,132050,132113,423.2772,378.5374,437.4158,375.806 M,0,132113,132177,437.4158,375.806,451.5544,373.0747 M,0,132177,132240,451.5544,373.0747,465.693,370.3434 M,0,132240,132304,465.693,370.3434,479.8316,367.6121
Sprite,Foreground,Centre,"sb\star.png",0,0 C,0,132686,,9,122,206 M,0,132686,132749,538,316,543.7396,302.8365 F,2,132686,133194,1 S,2,132686,133194,1.2,0.6 P,0,132686,133194,A M,0,132749,132813,543.7396,302.8365,547.7649,289.0767 M,0,132813,132876,547.7649,289.0767,549.6812,274.856 M,0,132876,132940,549.6812,274.856,549.4403,260.4899 M,0,132940,133003,549.4403,260.4899,546.6467,246.4062 M,0,133003,133067,546.6467,246.4062,542.0216,232.841 M,0,133067,133130,542.0216,232.841,535.4089,220.1156 M,0,133130,133194,535.4089,220.1156,527.0157,208.4522
Sprite,Foreground,Centre,"sb\star.png",0,0 C,0,133448,,9,122,206 M,0,133448,133511,491,171,477.339,175.5537 F,2,133448,133702,1 S,2,133448,133702,1.2,0.6 P,0,133448,133702,A M,0,133511,133575,477.339,175.5537,463.6779,180.1074 M,0,133575,133638,463.6779,180.1074,450.0169,184.661 M,0,133638,133702,450.0169,184.661,436.3558,189.2147
Sprite,Foreground,Centre,"sb\star.png",0,0 C,0,133957,,9,122,206 M,0,133957,134020,411,234,397.339,229.4463 F,2,133957,134211,1 S,2,133957,134211,1.2,0.6 P,0,133957,134211,A M,0,134020,134084,397.339,229.4463,383.6779,224.8926 M,0,134084,134147,383.6779,224.8926,370.0169,220.339 M,0,134147,134211,370.0169,220.339,356.3558,215.7853
Sprite,Foreground,Centre,"sb\star.png",0,0 C,0,134465,,9,122,206 M,0,134465,134528,334,168,320.339,172.5537 F,2,134465,134719,1 S,2,134465,134719,1.2,0.6 P,0,134465,134719,A M,0,134528,134592,320.339,172.5537,306.6779,177.1074 M,0,134592,134655,306.6779,177.1074,293.0169,181.661 M,0,134655,134719,293.0169,181.661,279.3558,186.2147
Sprite,Foreground,Centre,"sb\star.png",0,0 C,0,134974,,62,158,217 M,0,134974,135037,261,235,250.973,245.2913 F,2,134974,135736,1 S,2,134974,135736,1.2,0.6 P,0,134974,135736,A M,0,135037,135101,250.973,245.2913,239.9001,254.4216 M,0,135101,135164,239.9001,254.4216,227.7163,262.0351 M,0,135164,135228,227.7163,262.0351,214.505,267.676 M,0,135228,135291,214.505,267.676,200.7386,271.7083 M,0,135291,135355,200.7386,271.7083,186.5548,273.9092 M,0,135355,135418,186.5548,273.9092,172.1886,274.2383 M,0,135418,135482,172.1886,274.2383,157.9514,272.3214 M,0,135482,135546,157.9514,272.3214,144.0541,268.763 M,0,135546,135609,144.0541,268.763,130.7314,263.4161 M,0,135609,135673,130.7314,263.4161,118.2062,256.3655 M,0,135673,135736,118.2062,256.3655,106.7695,247.639
Sprite,Foreground,Centre,"sb\star.png",0,0 C,0,135991,,62,158,217 M,0,135991,136054,64,217,67.17689,231.0452 F,2,135991,136372,1 S,2,135991,136372,1.2,0.6 P,0,135991,136372,A M,0,136054,136118,67.17689,231.0452,70.35378,245.0904 M,0,136118,136181,70.35378,245.0904,73.53066,259.1356 M,0,136181,136245,73.53066,259.1356,76.70755,273.1808 M,0,136245,136308,76.70755,273.1808,79.88445,287.226 M,0,136308,136372,79.88445,287.226,83,301
Sprite,Foreground,Centre,"sb\star.png",0,0 C,0,136753,,62,158,217 M,0,136753,136816,138,356,151.9789,359.3887 F,2,136753,137261,1 S,2,136753,137261,1.2,0.6 P,0,136753,137261,A M,0,136816,136880,151.9789,359.3887,166.168,361.6985 M,0,136880,136943,166.168,361.6985,180.5195,362.6873 M,0,136943,137007,180.5195,362.6873,194.888,362.0536 M,0,137007,137070,194.888,362.0536,209.1477,360.2549 M,0,137070,137134,209.1477,360.2549,223.1869,357.1441 M,0,137134,137197,223.1869,357.1441,236.8894,352.7449 M,0,137197,137261,236.8894,352.7449,250.0565,346.9329
Sprite,Foreground,Centre,"sb\star.png",0,0 C,0,137516,,62,158,217 M,0,137516,137579,295,322,291.7279,336.0233 F,2,137516,137770,1 S,2,137516,137770,1.2,0.6 P,0,137516,137770,A M,0,137579,137643,291.7279,336.0233,288.4558,350.0466 M,0,137643,137706,288.4558,350.0466,285.1837,364.0699 M,0,137706,137770,285.1837,364.0699,281.9116,378.0933
Sprite,Foreground,Centre,"sb\star.png",0,0 C,0,138025,,62,158,217 M,0,138025,138088,311,420,323.8801,426.2259 F,2,138025,138279,1 S,2,138025,138279,1.2,0.6 P,0,138025,138279,A M,0,138088,138152,323.8801,426.2259,337.5786,430.3517 M,0,138152,138215,337.5786,430.3517,351.8691,430.7121 M,0,138215,138279,351.8691,430.7121,366.0563,428.8189
Sprite,Foreground,Centre,"sb\star.png",409,405 F,2,138533,,1 S,2,138533,,1.2,0.6 C,0,138533,,9,122,206 P,0,138533,,A
Sprite,Foreground,Centre,"sb\star.png",0,0 C,0,139042,,9,122,206 M,0,139042,139105,510,428,506.2111,414.1074 F,2,139042,139804,1 S,2,139042,139804,1.2,0.6 P,0,139042,139804,A M,0,139105,139169,506.2111,414.1074,502.4222,400.2148 M,0,139169,139232,502.4222,400.2148,498.6333,386.3222 M,0,139232,139296,498.6333,386.3222,495.2329,372.4566 M,0,139296,139359,495.2329,372.4566,500.9053,359.2209 M,0,139359,139423,500.9053,359.2209,506.5778,345.9852 M,0,139423,139486,506.5778,345.9852,512.2502,332.7495 M,0,139486,139550,512.2502,332.7495,514.7424,319.284 M,0,139550,139614,514.7424,319.284,511.032,305.3702 M,0,139614,139677,511.032,305.3702,507.3217,291.4564 M,0,139677,139741,507.3217,291.4564,503.6114,277.5426 M,0,139741,139804,503.6114,277.5426,500,264
Sprite,Foreground,Centre,"sb\star.png",0,0 C,0,140059,,9,122,206 M,0,140059,140122,513,213,500.7787,220.4763 F,2,140059,140440,1 S,2,140059,140440,1.2,0.6 P,0,140059,140440,A M,0,140122,140186,500.7787,220.4763,487.5754,225.9711 M,0,140186,140249,487.5754,225.9711,473.5085,228.8794 M,0,140249,140313,473.5085,228.8794,459.1965,228.2367 M,0,140313,140376,459.1965,228.2367,445.1816,225.3953 M,0,140376,140440,445.1816,225.3953,432,220
Sprite,Foreground,Centre,"sb\star.png",0,0 C,0,140821,,9,122,206 M,0,140821,140884,384,158,371.2741,151.3387 F,2,140821,141329,1 S,2,140821,141329,1.2,0.6 P,0,140821,141329,A M,0,140884,140948,371.2741,151.3387,357.8739,146.2214 M,0,140948,141011,357.8739,146.2214,343.8718,143.0344 M,0,141011,141075,343.8718,143.0344,329.5369,142.1874 M,0,141075,141138,329.5369,142.1874,315.236,143.1908 M,0,141138,141202,315.236,143.1908,301.2098,146.195 M,0,141202,141265,301.2098,146.195,287.7298,151.1462 M,0,141265,141329,287.7298,151.1462,275.0636,157.9623
Sprite,Foreground,Centre,"sb\star.png",0,0 C,0,141584,,9,122,206 M,0,141584,141647,235,192,240.2192,205.4209 F,2,141584,141838,1 S,2,141584,141838,1.2,0.6 P,0,141584,141838,A M,0,141647,141711,240.2192,205.4209,245.4384,218.8417 M,0,141711,141774,245.4384,218.8417,250.6577,232.2626 M,0,141774,141838,250.6577,232.2626,255.8769,245.6835
Sprite,Foreground,Centre,"sb\star.png",0,0 C,0,142092,,9,122,206 M,0,142092,142155,301,269,295.7808,282.4209 F,2,142092,142346,1 S,2,142092,142346,1.2,0.6 P,0,142092,142346,A M,0,142155,142219,295.7808,282.4209,290.5616,295.8417 M,0,142219,142282,290.5616,295.8417,285.3423,309.2626 M,0,142282,142346,285.3423,309.2626,280.1231,322.6835
Sprite,Foreground,Centre,"sb\star.png",0,0 C,0,142601,,9,122,206 M,0,142601,142664,237,351,242.2192,364.4209 F,2,142601,142855,1 S,2,142601,142855,1.2,0.6 P,0,142601,142855,A M,0,142664,142728,242.2192,364.4209,247.4384,377.8417 M,0,142728,142791,247.4384,377.8417,252.6577,391.2626 M,0,142791,142855,252.6577,391.2626,257.8769,404.6835
Sprite,Foreground,Centre,"sb\star.png",0,0 C,0,143109,,62,158,217 M,0,143109,143172,301,432,290.9434,421.7294 F,2,143109,143871,1 S,2,143109,143871,1.2,0.6 P,0,143109,143871,A M,0,143172,143236,290.9434,421.7294,279.9376,412.5045 M,0,143236,143299,279.9376,412.5045,267.9096,404.6363 M,0,143299,143363,267.9096,404.6363,254.9044,398.5201 M,0,143363,143426,254.9044,398.5201,241.3349,393.8368 M,0,143426,143490,241.3349,393.8368,227.3008,390.7859 M,0,143490,143553,227.3008,390.7859,212.9915,389.4117 M,0,143553,143617,212.9915,389.4117,198.6343,390.0634 M,0,143617,143681,198.6343,390.0634,184.4426,392.2257 M,0,143681,143744,184.4426,392.2257,170.5976,396.0498 M,0,143744,143808,170.5976,396.0498,157.288,401.4867 M,0,143808,143871,157.288,401.4867,144.748,408.542
Sprite,Foreground,Centre,"sb\star.png",0,0 C,0,144126,,62,158,217 M,0,144126,144189,102,439,105.8294,425.1185 F,2,144126,144507,1 S,2,144126,144507,1.2,0.6 P,0,144126,144507,A M,0,144189,144253,105.8294,425.1185,109.6588,411.237 M,0,144253,144316,109.6588,411.237,113.4881,397.3555 M,0,144316,144380,113.4881,397.3555,117.3175,383.474 M,0,144380,144443,117.3175,383.474,121.1469,369.5925 M,0,144443,144507,121.1469,369.5925,124.9763,355.7111
Sprite,Foreground,Centre,"sb\star.png",0,0 C,0,144889,,62,158,217 M,0,144889,144952,90,284,82.50874,271.7601 F,2,144889,145397,1 S,2,144889,145397,1.2,0.6 P,0,144889,145397,A M,0,144952,145016,82.50874,271.7601,76.74066,258.6472 M,0,145016,145079,76.74066,258.6472,73.16891,244.7463 M,0,145079,145143,73.16891,244.7463,72.37427,230.4224 M,0,145143,145206,72.37427,230.4224,73.65456,216.1647 M,0,145206,145270,73.65456,216.1647,77.23383,202.2857 M,0,145270,145333,77.23383,202.2857,83.0298,189.1425 M,0,145333,145397,83.0298,189.1425,91.07365,177.2255
Sprite,Foreground,Centre,"sb\star.png",0,0 C,0,145652,,62,158,217 M,0,145652,145715,130,141,143.661,145.5537 F,2,145652,145906,1 S,2,145652,145906,1.2,0.6 P,0,145652,145906,A M,0,145715,145779,143.661,145.5537,157.3221,150.1074 M,0,145779,145842,157.3221,150.1074,170.9831,154.661 M,0,145842,145906,170.9831,154.661,184,159
Sprite,Foreground,Centre,"sb\star.png",0,0 C,0,146160,,62,158,217 M,0,146160,146223,223,124,236.661,119.4463 F,2,146160,146414,1 S,2,146160,146414,1.2,0.6 P,0,146160,146414,A M,0,146223,146287,236.661,119.4463,250.3221,114.8926 M,0,146287,146350,250.3221,114.8926,263.9831,110.339 M,0,146350,146414,263.9831,110.339,277,106
Sprite,Foreground,Centre,"sb\star.png",314,141 F,2,146669,,1 S,2,146669,,1.2,0.6 C,0,146669,,9,122,206 P,0,146669,,A
Sprite,Foreground,Centre,"sb\star.png",0,0 C,0,147177,,9,122,206 M,0,147177,147240,394,76,405.7053,67.67778 F,2,147177,147939,1 S,2,147177,147939,1.2,0.6 P,0,147177,147939,A M,0,147240,147304,405.7053,67.67778,418.3393,60.89743 M,0,147304,147367,418.3393,60.89743,431.8481,56.06116 M,0,147367,147431,431.8481,56.06116,445.9393,53.27809 M,0,147431,147494,445.9393,53.27809,460.2946,52.95007 M,0,147494,147558,460.2946,52.95007,474.5385,54.55098 M,0,147558,147621,474.5385,54.55098,488.3926,58.2464 M,0,147621,147685,488.3926,58.2464,501.5552,63.95841 M,0,147685,147749,501.5552,63.95841,513.7383,71.56659 M,0,147749,147812,513.7383,71.56659,524.434,81.14712 M,0,147812,147876,524.434,81.14712,533.7296,92.05765 M,0,147876,147939,533.7296,92.05765,541.4885,104.1438
Sprite,Foreground,Centre,"sb\star.png",0,0 C,0,148194,,9,122,206 M,0,148194,148257,557,153,553.0871,166.8582 F,2,148194,148575,1 S,2,148194,148575,1.2,0.6 P,0,148194,148575,A M,0,148257,148321,553.0871,166.8582,549.1742,180.7164 M,0,148321,148384,549.1742,180.7164,545.2613,194.5746 M,0,148384,148448,545.2613,194.5746,541.3484,208.4327 M,0,148448,148511,541.3484,208.4327,537.4355,222.2909 M,0,148511,148575,537.4355,222.2909,533.5226,236.1491
Sprite,Foreground,Centre,"sb\star.png",0,0 C,0,148957,,9,122,206 M,0,148957,149020,573,303,561.0078,295.103 F,2,148957,149465,1 S,2,148957,149465,1.2,0.6 P,0,148957,149465,A M,0,149020,149084,561.0078,295.103,548.1648,288.7256 M,0,149084,149147,548.1648,288.7256,534.5015,284.2939 M,0,149147,149211,534.5015,284.2939,520.2734,282.3845 M,0,149211,149274,520.2734,282.3845,505.9421,282.3198 M,0,149274,149338,505.9421,282.3198,491.738,284.3604 M,0,149338,149401,491.738,284.3604,477.9576,288.4725 M,0,149401,149465,477.9576,288.4725,465.0644,294.8442
Sprite,Foreground,Centre,"sb\star.png",0,0 C,0,149720,,9,122,206 M,0,149720,149783,427,330,413.2422,325.7476 F,2,149720,149974,1 S,2,149720,149974,1.2,0.6 P,0,149720,149974,A M,0,149783,149847,413.2422,325.7476,399.4844,321.4952 M,0,149847,149910,399.4844,321.4952,385.7266,317.2428 M,0,149910,149974,385.7266,317.2428,372,313
Sprite,Foreground,Centre,"sb\star.png",0,0 C,0,150228,,9,122,206 M,0,150228,150291,344,269,329.8987,271.9175 F,2,150228,150482,1 S,2,150228,150482,1.2,0.6 P,0,150228,150482,A M,0,150291,150355,329.8987,271.9175,315.7973,274.835 M,0,150355,150418,315.7973,274.835,301.696,277.7526 M,0,150418,150482,301.696,277.7526,287.5946,280.6701
Sprite,Foreground,Centre,"sb\star.png",0,0 C,0,150736,,9,122,206 M,0,150736,150799,255,321,240.8987,318.0825 F,2,150736,150990,1 S,2,150736,150990,1.2,0.6 P,0,150736,150990,A M,0,150799,150863,240.8987,318.0825,226.7973,315.1649 M,0,150863,150926,226.7973,315.1649,212.696,312.2474 M,0,150926,150990,212.696,312.2474,198.5946,309.3299
Sprite,Foreground,Centre,"sb\star.png",0,0 C,0,151245,,62,158,217 M,0,151245,151308,174,263,163.9742,252.7151 F,2,151245,152007,1 S,2,151245,152007,1.2,0.6 P,0,151245,152007,A M,0,151308,151372,163.9742,252.7151,155.2451,241.334 M,0,151372,151435,155.2451,241.334,148.2092,228.8158 M,0,151435,151499,148.2092,228.8158,143.3519,215.3031 M,0,151499,151562,143.3519,215.3031,140.2879,201.2995 M,0,151562,151626,140.2879,201.2995,139.2387,186.9939 M,0,151626,151689,139.2387,186.9939,140.2293,172.6666 M,0,151689,151753,140.2293,172.6666,143.5984,158.7081 M,0,151753,151817,143.5984,158.7081,148.7243,145.3206 M,0,151817,151880,148.7243,145.3206,155.7004,132.7861 M,0,151880,151944,155.7004,132.7861,164.394,121.3529 M,0,151944,152007,164.394,121.3529,174.6739,111.2928
Sprite,Foreground,Centre,"sb\star.png",0,0 C,0,152262,,62,158,217 M,0,152262,152325,216,78,230.034,81.2262 F,2,152262,152643,1 S,2,152262,152643,1.2,0.6 P,0,152262,152643,A M,0,152325,152389,230.034,81.2262,244.0679,84.45239 M,0,152389,152452,244.0679,84.45239,258.1018,87.67859 M,0,152452,152516,258.1018,87.67859,272.1358,90.90478 M,0,152516,152579,272.1358,90.90478,286.1697,94.13097 M,0,152579,152643,286.1697,94.13097,300.2037,97.35717
Sprite,Foreground,Centre,"sb\star.png",0,0 C,0,153025,,62,158,217 M,0,153025,153088,372,68,363.0733,79.21712 F,2,153025,153533,1 S,2,153025,153533,1.2,0.6 P,0,153025,153533,A M,0,153088,153152,363.0733,79.21712,355.9023,91.60081 M,0,153152,153215,355.9023,91.60081,351.0532,105.1171 M,0,153215,153279,351.0532,105.1171,349.4236,119.3577 M,0,153279,153342,349.4236,119.3577,349.9505,133.6522 M,0,153342,153406,349.9505,133.6522,353.0432,147.6647 M,0,153406,153469,353.0432,147.6647,359.2034,160.6048 M,0,153469,153533,359.2034,160.6048,367.0972,172.5723
Sprite,Foreground,Centre,"sb\star.png",399,213 F,2,153787,,1 S,2,153787,,1.2,0.6 C,0,153787,,62,158,217 P,0,153787,,A
Sprite,Foreground,Centre,"sb\star.png",478,280 F,2,154296,,1 S,2,154296,,1.2,0.6 C,0,154296,,62,158,217 P,0,154296,,A
Sprite,Foreground,Centre,"sb\star.png",0,0 C,0,154550,,62,158,217 M,0,154550,154613,440,316,443.6535,329.9288 F,2,154550,155058,1 S,2,154550,155058,1.2,0.6 P,0,154550,155058,A M,0,154613,154677,443.6535,329.9288,447.3069,343.8577 M,0,154677,154740,447.3069,343.8577,450.9604,357.7865 M,0,154740,154804,450.9604,357.7865,454.6139,371.7153 M,0,154804,154867,454.6139,371.7153,450.9604,357.7865 M,0,154867,154931,450.9604,357.7865,447.3069,343.8576 M,0,154931,154994,447.3069,343.8576,443.6535,329.9288 M,0,154994,155058,443.6535,329.9288,440,316
Sprite,Foreground,Centre,"sb\star.png",0,0 C,0,155313,,9,122,206 M,0,155313,155379,387,299,373.9272,293.0545 F,2,155313,155848,1 S,2,155313,155848,1.2,0.6 P,0,155313,155848,A M,0,155379,155446,373.9272,293.0545,360.2552,288.7249 M,0,155446,155513,360.2552,288.7249,346.0829,286.4095 M,0,155513,155580,346.0829,286.4095,331.726,286.5522 M,0,155580,155647,331.726,286.5522,317.5346,288.5588 M,0,155647,155714,317.5346,288.5588,303.7697,292.594 M,0,155714,155781,303.7697,292.594,290.7117,298.5814 M,0,155781,155848,290.7117,298.5814,278.7001,306.4921
Sprite,Foreground,Centre,"sb\star.png",238,338 F,2,156116,,1 S,2,156116,,1.2,0.6 C,0,156116,,9,122,206 P,0,156116,,A
Sprite,Foreground,Centre,"sb\star.png",0,0 C,0,156384,,9,122,206 M,0,156384,156450,196,306,198.6273,291.8417 F,2,156384,156785,1 S,2,156384,156785,1.2,0.6 P,0,156384,156785,A M,0,156450,156517,198.6273,291.8417,201.2546,277.6834 M,0,156517,156584,201.2546,277.6834,203.8819,263.5251 M,0,156584,156651,203.8819,263.5251,206.5092,249.3668 M,0,156651,156718,206.5092,249.3668,209.1366,235.2085 M,0,156718,156785,209.1366,235.2085,211.7639,221.0502
Sprite,Foreground,Centre,"sb\star.png",0,0 C,0,157188,,9,122,206 M,0,157188,157254,254,156,241.4325,162.9388 F,2,157188,157723,1 S,2,157188,157723,1.2,0.6 P,0,157188,157723,A M,0,157254,157321,241.4325,162.9388,228.0893,168.1665 M,0,157321,157388,228.0893,168.1665,214.0753,171.2478 M,0,157388,157455,214.0753,171.2478,199.7251,172.101 M,0,157455,157522,199.7251,172.101,185.499,170.1815 M,0,157522,157589,185.499,170.1815,171.6777,166.4012 M,0,157589,157656,171.6777,166.4012,158.6021,160.5 M,0,157656,157723,158.6021,160.5,147,153
Sprite,Foreground,Centre,"sb\star.png",0,0 C,0,157991,,9,122,206 M,0,157991,158057,98,136,99.45689,150.3261 F,2,157991,158258,1 S,2,157991,158258,1.2,0.6 P,0,157991,158258,A M,0,158057,158124,99.45689,150.3261,100.9138,164.6522 M,0,158124,158191,100.9138,164.6522,102.3707,178.9783 M,0,158191,158258,102.3707,178.9783,103.8276,193.3044
Sprite,Foreground,Centre,"sb\star.png",131,239 F,2,158527,,1 S,2,158527,,1.2,0.6 C,0,158527,,9,122,206 P,0,158527,,A
Sprite,Foreground,Centre,"sb\star.png",0,0 C,0,158929,,9,122,206 M,0,158929,158995,82,299,78.73545,312.9795 F,2,158929,159330,1 S,2,158929,159330,1.2,0.6 P,0,158929,159330,A M,0,158995,159062,78.73545,312.9795,77.37317,327.2433 M,0,159062,159129,77.37317,327.2433,78.29721,341.5562 M,0,159129,159196,78.29721,341.5562,81.49081,355.5604 M,0,159196,159263,81.49081,355.5604,87.25936,368.703 M,0,159263,159330,87.25936,368.703,94.60054,381.0379
Sprite,Foreground,Centre,"sb\star.png",0,0 C,0,159598,,62,158,217 M,0,159598,159668,133,411,147.1426,408.2893 F,2,159598,160164,1 S,2,159598,160164,1.2,0.6 P,0,159598,160164,A M,0,159668,159739,147.1426,408.2893,161.2851,405.5787 M,0,159739,159810,161.2851,405.5787,175.4277,402.868 M,0,159810,159881,175.4277,402.868,189.5703,400.1573 M,0,159881,159951,189.5703,400.1573,203.7129,397.4467 M,0,159951,160022,203.7129,397.4467,217.8554,394.7361 M,0,160022,160093,217.8554,394.7361,231.998,392.0254 M,0,160093,160164,231.998,392.0254,246.1406,389.3147
Sprite,Foreground,Centre,"sb\star.png",291,414 F,2,160447,,1 S,2,160447,,1.2,0.6 C,0,160447,,62,158,217 P,0,160447,,A
Sprite,Foreground,Centre,"sb\star.png",0,0 C,0,160730,,62,158,217 M,0,160730,160800,330,380,342.1314,372.3404 F,2,160730,161154,1 S,2,160730,161154,1.2,0.6 P,0,160730,161154,A M,0,160800,160871,342.1314,372.3404,355.137,366.3224 M,0,160871,160942,355.137,366.3224,369.0607,362.8984 M,0,160942,161013,369.0607,362.8984,383.3067,361.5839 M,0,161013,161083,383.3067,361.5839,397.6065,362.5607 M,0,161083,161154,397.6065,362.5607,411.5934,365.8809
Sprite,Foreground,Centre,"sb\star.png",0,0 C,0,161579,,62,158,217 M,0,161579,161649,464,423,454.7,412.0107 F,2,161579,162994,1 S,2,161579,162994,1.2,0.6 P,0,161579,162994,A M,0,161649,161720,454.7,412.0107,446.3457,400.2877 M,0,161720,161791,446.3457,400.2877,439.1198,387.8388 M,0,161791,161862,439.1198,387.8388,433.2072,374.7162 M,0,161862,161932,433.2072,374.7162,428.7691,361.0253 M,0,161932,162003,428.7691,361.0253,425.9163,346.9188 M,0,162003,162074,425.9163,346.9188,424.6786,332.5797 M,0,162074,162145,424.6786,332.5797,425.0072,318.1902 M,0,162145,162215,425.0072,318.1902,426.789,303.9066 M,0,162215,162286,426.789,303.9066,429.8719,289.8452 M,0,162286,162357,429.8719,289.8452,434.0905,276.0807 M,0,162357,162428,434.0905,276.0807,439.2889,262.6547 M,0,162428,162498,439.2889,262.6547,444.4295,249.2094 M,0,162498,162569,444.4295,249.2094,448.1413,235.3039 M,0,162569,162640,448.1413,235.3039,450.14,221.0535 M,0,162640,162711,450.14,221.0535,450.1755,206.666 M,0,162711,162781,450.1755,206.666,448.1049,192.4292 M,0,162781,162852,448.1049,192.4292,443.9534,178.654 M,0,162852,162923,443.9534,178.654,437.9143,165.5934 M,0,162923,162994,437.9143,165.5934,430.2795,153.3939
Sprite,Foreground,Centre,"sb\star.png",0,0 C,0,163271,,62,158,217 M,0,163271,163340,389,122,392.9255,108.1454 F,2,163271,163826,1 S,2,163271,163826,1.2,0.6 P,0,163271,163826,A M,0,163340,163409,392.9255,108.1454,396.851,94.29075 M,0,163409,163479,396.851,94.29075,400.7764,80.43613 M,0,163479,163548,400.7764,80.43613,404.7019,66.5815 M,0,163548,163618,404.7019,66.5815,400.7764,80.43613 M,0,163618,163687,400.7764,80.43613,396.851,94.29076 M,0,163687,163757,396.851,94.29076,392.9255,108.1454 M,0,163757,163826,392.9255,108.1454,389,122
Sprite,Foreground,Centre,"sb\star.png",0,0 C,0,164105,,9,122,206 M,0,164105,164174,334,142,320.3954,150.3178 F,2,164105,164660,1 S,2,164105,164660,1.2,0.6 P,0,164105,164660,A M,0,164174,164243,320.3954,150.3178,305.6627,156.3144 M,0,164243,164313,305.6627,156.3144,290.0756,159.4855 M,0,164313,164382,290.0756,159.4855,274.1708,159.7217 M,0,164382,164452,274.1708,159.7217,258.496,157.015 M,0,164452,164521,258.496,157.015,243.591,151.4584 M,0,164521,164591,243.591,151.4584,229.9692,143.2431 M,0,164591,164660,229.9692,143.2431,217.8614,132.8675
Sprite,Foreground,Centre,"sb\star.png",171,98 F,2,164938,,1 S,2,164938,,1.2,0.6 C,0,164938,,9,122,206 P,0,164938,,A
Sprite,Foreground,Centre,"sb\star.png",0,0 C,0,165216,,9,122,206 M,0,165216,165285,119,124,122.6484,137.9302 F,2,165216,165632,1 S,2,165216,165632,1.2,0.6 P,0,165216,165632,A M,0,165285,165354,122.6484,137.9302,126.2968,151.8603 M,0,165354,165424,126.2968,151.8603,129.9451,165.7905 M,0,165424,165493,129.9451,165.7905,133.5935,179.7206 M,0,165493,165563,133.5935,179.7206,137.2419,193.6508 M,0,165563,165632,137.2419,193.6508,140.8903,207.581
Sprite,Foreground,Centre,"sb\star.png",0,0 C,0,166049,,9,122,206 M,0,166049,166118,117,281,128.9511,273.0681 F,2,166049,166604,1 S,2,166049,166604,1.2,0.6 P,0,166049,166604,A M,0,166118,166187,128.9511,273.0681,141.8851,266.9312 M,0,166187,166257,141.8851,266.9312,155.7128,263.103 M,0,166257,166326,155.7128,263.103,170.0255,262.234 M,0,166326,166396,170.0255,262.234,184.2692,263.5529 M,0,166396,166465,184.2692,263.5529,198.0951,267.3079 M,0,166465,166535,198.0951,267.3079,211.1027,273.4028 M,0,166535,166604,211.1027,273.4028,222.484,282.1297
Sprite,Foreground,Centre,"sb\star.png",0,0 C,0,166882,,9,122,206 M,0,166882,166951,259,320,273.1478,317.3168 F,2,166882,167159,1 S,2,166882,167159,1.2,0.6 P,0,166882,167159,A M,0,166951,167020,273.1478,317.3168,287.2956,314.6336 M,0,167020,167090,287.2956,314.6336,301.4434,311.9504 M,0,167090,167159,301.4434,311.9504,315.5912,309.2672
Sprite,Foreground,Centre,"sb\star.png",348,266 F,2,167438,,1 S,2,167438,,1.2,0.6 C,0,167438,,9,122,206 P,0,167438,,A
Sprite,Foreground,Centre,"sb\star.png",0,0 C,0,167897,,9,122,206 M,0,167897,167973,418,298,427.5456,308.6994 F,2,167897,168356,1 S,2,167897,168356,1.2,0.6 P,0,167897,168356,A M,0,167973,168050,427.5456,308.6994,435.3478,320.6909 M,0,168050,168126,435.3478,320.6909,440.8538,333.9278 M,0,168126,168203,440.8538,333.9278,443.387,348.0345 M,0,168203,168279,443.387,348.0345,443.5685,362.3262 M,0,168279,168356,443.5685,362.3262,441.1496,376.4308
Sprite,Foreground,Centre,"sb\star.png",426,420 F,2,168662,,1 S,2,168662,,1.2,0.6 C,0,168662,,62,158,217 P,0,168662,,A
Sprite,Foreground,Centre,"sb\star.png",527,369 F,2,169343,,1 S,2,169343,,1.2,0.6 C,0,169343,,62,158,217 P,0,169343,,A
Sprite,Foreground,Centre,"sb\star.png",532,254 F,2,170025,,1 S,2,170025,,1.2,0.6 C,0,170025,,62,158,217 P,0,170025,,A
Sprite,Foreground,Centre,"sb\star.png",0,0 C,0,170707,,62,158,217 M,0,170707,170790,437,191,425.1169,183.0202 F,2,170707,171706,1 S,2,170707,171706,1.2,0.6 P,0,170707,171706,A M,0,170790,170873,425.1169,183.0202,414.873,173.0862 M,0,170873,170957,414.873,173.0862,406.9671,161.1535 M,0,170957,171040,406.9671,161.1535,402.3643,147.6086 M,0,171040,171123,402.3643,147.6086,400.4566,133.4859 M,0,171123,171207,400.4566,133.4859,401.6148,119.2539 M,0,171207,171290,401.6148,119.2539,405.8065,105.5516 M,0,171290,171373,405.8065,105.5516,413.4005,93.42503 M,0,171373,171457,413.4005,93.42503,423.0936,82.97124 M,0,171457,171540,423.0936,82.97124,434.8256,74.81279 M,0,171540,171623,434.8256,74.81279,448.0839,69.33381 M,0,171623,171706,448.0839,69.33381,462.277,67.14137
Sprite,Foreground,Centre,"sb\star.png",0,0 C,0,172040,,9,122,206 M,0,172040,172138,501,86,496.7177,99.74852 F,2,172040,174408,1 S,2,172040,174408,1.2,0.6 P,0,172040,174408,A M,0,172138,172237,496.7177,99.74852,492.4354,113.497 M,0,172237,172336,492.4354,113.497,488.153,127.2455 M,0,172336,172434,488.153,127.2455,483.8707,140.9941 M,0,172434,172533,483.8707,140.9941,479.5884,154.7426 M,0,172533,172632,479.5884,154.7426,475.3061,168.4911 M,0,172632,172730,475.3061,168.4911,471.0237,182.2396 M,0,172730,172829,471.0237,182.2396,466.7414,195.9881 M,0,172829,172928,466.7414,195.9881,462.4591,209.7366 M,0,172928,173026,462.4591,209.7366,458.1768,223.4852 M,0,173026,173125,458.1768,223.4852,453.8944,237.2337 M,0,173125,173224,453.8944,237.2337,449.6121,250.9822 M,0,173224,173322,449.6121,250.9822,445.3298,264.7307 M,0,173322,173421,445.3298,264.7307,449.3689,277.3516 M,0,173421,173520,449.3689,277.3516,457.1558,289.4645 M,0,173520,173618,457.1558,289.4645,464.9427,301.5775 M,0,173618,173717,464.9427,301.5775,472.7296,313.6905 M,0,173717,173816,472.7296,313.6905,480.5165,325.8034 M,0,173816,173915,480.5165,325.8034,488.3034,337.9164 M,0,173915,174013,488.3034,337.9164,484.5191,351.3224 M,0,174013,174112,484.5191,351.3224,479.598,364.8554 M,0,174112,174211,479.598,364.8554,474.6769,378.3885 M,0,174211,174309,474.6769,378.3885,469.7558,391.9215 M,0,174309,174408,469.7558,391.9215,465,405
Sprite,Foreground,Centre,"sb\star.png",307,199 F,2,121245,,1 S,2,121245,,1.2,0.6 C,0,121245,,9,122,206 P,0,121245,,A
Sprite,Foreground,Centre,"sb\star.png",234,124 F,2,121753,,1 S,2,121753,,1.2,0.6 C,0,121753,,9,122,206 P,0,121753,,A
Sprite,Foreground,Centre,"sb\star.png",130,136 F,2,122262,,1 S,2,122262,,1.2,0.6 C,0,122262,,9,122,206 P,0,122262,,A
Sprite,Foreground,Centre,"sb\star.png",64,56 F,2,122770,,1 S,2,122770,,1.2,0.6 C,0,122770,,62,158,217 P,0,122770,,A
Sprite,Foreground,Centre,"sb\light.png",0,0 C,0,86160,,254,204,54 M,0,86160,86223,240,331,252.4518,323.8594 F,2,86160,86668,1 S,2,86160,86668,0.5,0.25 P,0,86160,86668,A M,0,86223,86287,252.4518,323.8594,265.6986,318.3902 M,0,86287,86350,265.6986,318.3902,279.6612,315.0441 M,0,86350,86414,279.6612,315.0441,293.9966,314.3951 M,0,86414,86477,293.9966,314.3951,308.2575,315.7194 M,0,86477,86541,308.2575,315.7194,322.1568,319.2518 M,0,86541,86604,322.1568,319.2518,335.3659,324.9186 M,0,86604,86668,335.3659,324.9186,347.3852,332.812
Sprite,Foreground,Centre,"sb\light.png",387,365 F,2,86923,,1 S,2,86923,,0.5,0.25 C,0,86923,,254,204,54 P,0,86923,,A
Sprite,Foreground,Centre,"sb\light.png",0,0 C,0,87177,,254,204,54 M,0,87177,87240,436,349,439.1769,334.9548 F,2,87177,87558,1 S,2,87177,87558,0.5,0.25 P,0,87177,87558,A M,0,87240,87304,439.1769,334.9548,442.3538,320.9096 M,0,87304,87367,442.3538,320.9096,445.5307,306.8644 M,0,87367,87431,445.5307,306.8644,448.7076,292.8192 M,0,87431,87494,448.7076,292.8192,451.8844,278.774 M,0,87494,87558,451.8844,278.774,455,265
Sprite,Foreground,Centre,"sb\light.png",0,0 C,0,87940,,254,204,54 M,0,87940,88003,502,203,490.9543,212.1466 F,2,87940,88448,1 S,2,87940,88448,0.5,0.25 P,0,87940,88448,A M,0,88003,88067,490.9543,212.1466,478.6626,219.465 M,0,88067,88130,478.6626,219.465,465.222,224.4176 M,0,88130,88194,465.222,224.4176,451.0746,226.8312 M,0,88194,88257,451.0746,226.8312,436.7545,226.125 M,0,88257,88321,436.7545,226.125,422.7753,223.1196 M,0,88321,88384,422.7753,223.1196,409.5698,217.6031 M,0,88384,88448,409.5698,217.6031,397.5004,209.8333
Sprite,Foreground,Centre,"sb\light.png",0,0 C,0,88703,,254,204,54 M,0,88703,88766,363,170,348.9373,173.0986 F,2,88703,88957,1 S,2,88703,88957,0.5,0.25 P,0,88703,88957,A M,0,88766,88830,348.9373,173.0986,334.8746,176.1971 M,0,88830,88893,334.8746,176.1971,320.812,179.2957 M,0,88893,88957,320.812,179.2957,306.7493,182.3942
Sprite,Foreground,Centre,"sb\light.png",275,223 F,2,89211,,1 S,2,89211,,0.5,0.25 C,0,89211,,254,204,54 P,0,89211,,A
Sprite,Foreground,Centre,"sb\light.png",202,195 F,2,89592,,1 S,2,89592,,0.5,0.25 C,0,89592,,254,204,54 P,0,89592,,A
Sprite,Foreground,Centre,"sb\light.png",0,0 C,0,89974,,245,160,3 M,0,89974,90037,138,239,128.8126,250.0344 F,2,89974,90482,1 S,2,89974,90482,0.5,0.25 P,0,89974,90482,A M,0,90037,90101,128.8126,250.0344,121.0346,262.0812 M,0,90101,90164,121.0346,262.0812,115.0949,275.162 M,0,90164,90228,115.0949,275.162,111.6228,289.0915 M,0,90228,90291,111.6228,289.0915,109.9502,303.326 M,0,90291,90355,109.9502,303.326,110.3816,317.673 M,0,90355,90418,110.3816,317.673,113.314,331.7238 M,0,90418,90482,113.314,331.7238,117.8623,345.3407
Sprite,Foreground,Centre,"sb\light.png",0,0 C,0,90736,,245,160,3 M,0,90736,90799,140,391,154.303,389.3313 F,2,90736,90990,1 S,2,90736,90990,0.5,0.25 P,0,90736,90990,A M,0,90799,90863,154.303,389.3313,168.606,387.6626 M,0,90863,90926,168.606,387.6626,182.909,385.994 M,0,90926,90990,182.909,385.994,197.212,384.3253
Sprite,Foreground,Centre,"sb\light.png",229,343 F,2,91245,,1 S,2,91245,,0.5,0.25 C,0,91245,,245,160,3 P,0,91245,,A
Sprite,Foreground,Centre,"sb\light.png",288,392 F,2,91626,,1 S,2,91626,,0.5,0.25 C,0,91626,,245,160,3 P,0,91626,,A
Sprite,Foreground,Centre,"sb\light.png",0,0 C,0,92008,,245,160,3 M,0,92008,92071,357,356,370.5942,351.2663 F,2,92008,93279,1 S,2,92008,93279,0.5,0.25 P,0,92008,93279,A M,0,92071,92135,370.5942,351.2663,384.5879,347.8978 M,0,92135,92198,384.5879,347.8978,398.8658,346.0899 M,0,92198,92262,398.8658,346.0899,413.2563,345.9956 M,0,92262,92325,413.2563,345.9956,427.5474,347.6847 M,0,92325,92389,427.5474,347.6847,441.5214,351.1245 M,0,92389,92452,441.5214,351.1245,454.9965,356.1798 M,0,92452,92516,454.9965,356.1798,467.8503,362.6574 M,0,92516,92580,467.8503,362.6574,480.0244,370.3393 M,0,92580,92643,480.0244,370.3393,487.0342,374.4483 M,0,92643,92707,487.0342,374.4483,478.8281,362.6206 M,0,92707,92770,478.8281,362.6206,471.7274,350.0996 M,0,92770,92834,471.7274,350.0996,465.9484,336.9179 M,0,92834,92897,465.9484,336.9179,461.7039,323.1665 M,0,92897,92961,461.7039,323.1665,459.1612,309.0023 M,0,92961,93024,459.1612,309.0023,458.4064,294.6315 M,0,93024,93088,458.4064,294.6315,459.4148,280.2756 M,0,93088,93152,459.4148,280.2756,462.067,266.1295 M,0,93152,93215,462.067,266.1295,466.1819,252.336 M,0,93215,93279,466.1819,252.336,471.5533,238.9802
Sprite,Foreground,Centre,"sb\light.png",0,0 C,0,93533,,245,160,3 M,0,93533,93596,507,202,520.6107,206.7019 F,2,93533,94041,1 S,2,93533,94041,0.5,0.25 P,0,93533,94041,A M,0,93596,93660,520.6107,206.7019,534.2214,211.4038 M,0,93660,93723,534.2214,211.4038,547.8322,216.1057 M,0,93723,93787,547.8322,216.1057,561.443,220.8076 M,0,93787,93850,561.443,220.8076,547.8322,216.1057 M,0,93850,93914,547.8322,216.1057,534.2214,211.4038 M,0,93914,93977,534.2214,211.4038,520.6107,206.7019 M,0,93977,94041,520.6107,206.7019,507,202
Sprite,Foreground,Centre,"sb\light.png",0,0 C,0,94296,,254,204,54 M,0,94296,94359,488,153,474.3807,148.4454 F,2,94296,94804,1 S,2,94296,94804,0.5,0.25 P,0,94296,94804,A M,0,94359,94423,474.3807,148.4454,460.3335,145.5582 M,0,94423,94486,460.3335,145.5582,445.995,144.7303 M,0,94486,94550,445.995,144.7303,431.7361,146.4075 M,0,94550,94613,431.7361,146.4075,417.8351,149.8984 M,0,94613,94677,417.8351,149.8984,404.5708,155.3666 M,0,94677,94740,404.5708,155.3666,392.2146,162.7076 M,0,94740,94804,392.2146,162.7076,381.1721,171.9226
Sprite,Foreground,Centre,"sb\light.png",343,208 F,2,95059,,1 S,2,95059,,0.5,0.25 C,0,95059,,254,204,54 P,0,95059,,A
Sprite,Foreground,Centre,"sb\light.png",0,0 C,0,95313,,254,204,54 M,0,95313,95376,298,182,283.9316,185.0724 F,2,95313,95694,1 S,2,95313,95694,0.5,0.25 P,0,95313,95694,A M,0,95376,95440,283.9316,185.0724,269.8632,188.1448 M,0,95440,95503,269.8632,188.1448,255.7948,191.2172 M,0,95503,95567,255.7948,191.2172,241.7263,194.2896 M,0,95567,95630,241.7263,194.2896,227.6579,197.3621 M,0,95630,95694,227.6579,197.3621,213.5895,200.4345
Sprite,Foreground,Centre,"sb\light.png",0,0 C,0,96075,,254,204,54 M,0,96075,96138,150,155,158.9052,166.2423 F,2,96075,96583,1 S,2,96075,96583,0.5,0.25 P,0,96075,96583,A M,0,96138,96202,158.9052,166.2423,166.0552,178.6403 M,0,96202,96265,166.0552,178.6403,170.92,192.1316 M,0,96265,96329,170.92,192.1316,172.8485,206.3376 M,0,96329,96392,172.8485,206.3376,172.5045,220.6328 M,0,96392,96456,172.5045,220.6328,169.6458,234.6624 M,0,96456,96519,169.6458,234.6624,164.3483,247.9999 M,0,96519,96583,164.3483,247.9999,156.6288,260.125
Sprite,Foreground,Centre,"sb\light.png",0,0 C,0,96838,,254,204,54 M,0,96838,96901,127,303,131.202,316.7733 F,2,96838,97092,1 S,2,96838,97092,0.5,0.25 P,0,96838,97092,A M,0,96901,96965,131.202,316.7733,135.404,330.5465 M,0,96965,97028,135.404,330.5465,139.606,344.3198 M,0,97028,97092,139.606,344.3198,143.8081,358.0931
Sprite,Foreground,Centre,"sb\light.png",193,374 F,2,97347,,1 S,2,97347,,0.5,0.25 C,0,97347,,254,204,54 P,0,97347,,A
Sprite,Foreground,Centre,"sb\light.png",258,331 F,2,97728,,1 S,2,97728,,0.5,0.25 C,0,97728,,254,204,54 P,0,97728,,A
Sprite,Foreground,Centre,"sb\light.png",0,0 C,0,98109,,245,160,3 M,0,98109,98172,311,387,322.7829,395.2131 F,2,98109,98617,1 S,2,98109,98617,0.5,0.25 P,0,98109,98617,A M,0,98172,98236,322.7829,395.2131,335.4406,401.9575 M,0,98236,98299,335.4406,401.9575,348.946,406.8341 M,0,98299,98363,348.946,406.8341,363.0741,409.3978 M,0,98363,98426,363.0741,409.3978,377.3915,410.0919 M,0,98426,98490,377.3915,410.0919,391.67,408.7376 M,0,98490,98553,391.67,408.7376,405.6255,405.3577 M,0,98553,98617,405.6255,405.3577,418.9777,400.01
Sprite,Foreground,Centre,"sb\light.png",0,0 C,0,98872,,245,160,3 M,0,98872,98935,462,371,458.044,357.1541 F,2,98872,99126,1 S,2,98872,99126,0.5,0.25 P,0,98872,99126,A M,0,98935,98999,458.044,357.1541,454.088,343.3081 M,0,98999,99062,454.088,343.3081,450.132,329.4622 M,0,99062,99126,450.132,329.4622,446.1761,315.6162
Sprite,Foreground,Centre,"sb\light.png",478,274 F,2,99381,,1 S,2,99381,,0.5,0.25 C,0,99381,,245,160,3 P,0,99381,,A
Sprite,Foreground,Centre,"sb\light.png",510,203 F,2,99762,,1 S,2,99762,,0.5,0.25 C,0,99762,,245,160,3 P,0,99762,,A
Sprite,Foreground,Centre,"sb\light.png",0,0 C,0,100143,,245,160,3 M,0,100143,100206,446,158,432.7328,163.5845 F,2,100143,101414,1 S,2,100143,101414,0.5,0.25 P,0,100143,101414,A M,0,100206,100270,432.7328,163.5845,418.985,167.8486 M,0,100270,100333,418.985,167.8486,404.8727,170.6791 M,0,100333,100397,404.8727,170.6791,390.5416,172.0162 M,0,100397,100460,390.5416,172.0162,376.1487,171.8633 M,0,100460,100524,376.1487,171.8633,361.8412,170.2846 M,0,100524,100587,361.8412,170.2846,347.7399,167.3901 M,0,100587,100651,347.7399,167.3901,333.9326,163.3148 M,0,100651,100715,333.9326,163.3148,320.4735,158.2039 M,0,100715,100778,320.4735,158.2039,307.3901,152.1945 M,0,100778,100842,307.3901,152.1945,294.473,145.8358 M,0,100842,100905,294.473,145.8358,281.1282,140.4349 M,0,100905,100969,281.1282,140.4349,267.3765,136.1794 M,0,100969,101032,267.3765,136.1794,253.2824,133.2579 M,0,101032,101096,253.2824,133.2579,238.9586,131.8532 M,0,101096,101159,238.9586,131.8532,224.5694,132.106 M,0,101159,101223,224.5694,132.106,210.3148,134.0835 M,0,101223,101287,210.3148,134.0835,196.4005,137.7591 M,0,101287,101350,196.4005,137.7591,183.0014,143.0133 M,0,101350,101414,183.0014,143.0133,170.2364,149.6643
Sprite,Foreground,Centre,"sb\light.png",0,0 C,0,101669,,245,160,3 M,0,101669,101732,138,190,123.8987,187.0825 F,2,101669,102177,1 S,2,101669,102177,0.5,0.25 P,0,101669,102177,A M,0,101732,101796,123.8987,187.0825,109.7973,184.165 M,0,101796,101859,109.7973,184.165,95.69595,181.2474 M,0,101859,101923,95.69595,181.2474,81.5946,178.3299 M,0,101923,101986,81.5946,178.3299,95.69595,181.2474 M,0,101986,102050,95.69595,181.2474,109.7973,184.165 M,0,102050,102113,109.7973,184.165,123.8987,187.0825 M,0,102113,102177,123.8987,187.0825,138,190
Sprite,Foreground,Centre,"sb\light.png",0,0 C,0,102431,,254,204,54 M,0,102431,102494,159,237,167.535,248.5276 F,2,102431,102939,1 S,2,102431,102939,0.5,0.25 P,0,102431,102939,A M,0,102494,102558,167.535,248.5276,174.3502,261.1192 M,0,102558,102621,174.3502,261.1192,178.925,274.7249 M,0,102621,102685,178.925,274.7249,180.5237,288.9752 M,0,102685,102748,180.5237,288.9752,179.9978,303.2735 M,0,102748,102812,179.9978,303.2735,177.0311,317.3003 M,0,102812,102875,177.0311,317.3003,171.2653,330.4265 M,0,102875,102939,171.2653,330.4265,163.7701,342.6525
Sprite,Foreground,Centre,"sb\light.png",137,387 F,2,103194,,1 S,2,103194,,0.5,0.25 C,0,103194,,254,204,54 P,0,103194,,A
Sprite,Foreground,Centre,"sb\light.png",0,0 C,0,103448,,254,204,54 M,0,103448,103511,165,430,179.0172,426.7018 F,2,103448,103829,1 S,2,103448,103829,0.5,0.25 P,0,103448,103829,A M,0,103511,103575,179.0172,426.7018,193.0344,423.4037 M,0,103575,103638,193.0344,423.4037,207.0516,420.1055 M,0,103638,103702,207.0516,420.1055,221.0688,416.8073 M,0,103702,103765,221.0688,416.8073,235.086,413.5092 M,0,103765,103829,235.086,413.5092,249.1032,410.211
Sprite,Foreground,Centre,"sb\light.png",0,0 C,0,104211,,254,204,54 M,0,104211,104274,323,432,336.2819,437.4525 F,2,104211,104719,1 S,2,104211,104719,0.5,0.25 P,0,104211,104719,A M,0,104274,104338,336.2819,437.4525,350.1302,441.1498 M,0,104338,104401,350.1302,441.1498,364.3986,442.6812 M,0,104401,104465,364.3986,442.6812,378.7584,442.0038 M,0,104465,104528,378.7584,442.0038,392.7154,438.6403 M,0,104528,104592,392.7154,438.6403,406.0914,433.4952 M,0,104592,104655,406.0914,433.4952,418.5334,426.3518 M,0,104655,104719,418.5334,426.3518,429.7732,417.3889
Sprite,Foreground,Centre,"sb\light.png",0,0 C,0,104974,,254,204,54 M,0,104974,105037,467,381,481.1975,383.4064 F,2,104974,105228,1 S,2,104974,105228,0.5,0.25 P,0,104974,105228,A M,0,105037,105101,481.1975,383.4064,495.395,385.8127 M,0,105101,105164,495.395,385.8127,509.5925,388.2191 M,0,105164,105228,509.5925,388.2191,523.79,390.6254
Sprite,Foreground,Centre,"sb\light.png",556,350 F,2,105482,,1 S,2,105482,,0.5,0.25 C,0,105482,,254,204,54 P,0,105482,,A
Sprite,Foreground,Centre,"sb\light.png",528,277 F,2,105864,,1 S,2,105864,,0.5,0.25 C,0,105864,,254,204,54 P,0,105864,,A
Sprite,Foreground,Centre,"sb\light.png",0,0 C,0,106245,,245,160,3 M,0,106245,106308,452,294,439.3963,300.8867 F,2,106245,106753,1 S,2,106245,106753,0.5,0.25 P,0,106245,106753,A M,0,106308,106372,439.3963,300.8867,426.0739,306.1953 M,0,106372,106435,426.0739,306.1953,412.1104,309.5303 M,0,106435,106499,412.1104,309.5303,397.7894,310.8178 M,0,106499,106562,397.7894,310.8178,383.4839,309.5493 M,0,106562,106626,383.4839,309.5493,369.4631,306.5432 M,0,106626,106689,369.4631,306.5432,356.0095,301.5416 M,0,106689,106753,356.0095,301.5416,343.3995,294.6412
Sprite,Foreground,Centre,"sb\light.png",0,0 C,0,107008,,245,160,3 M,0,107008,107071,303,261,306.3246,246.989 F,2,107008,107262,1 S,2,107008,107262,0.5,0.25 P,0,107008,107262,A M,0,107071,107135,306.3246,246.989,309.6493,232.9781 M,0,107135,107198,309.6493,232.9781,312.9739,218.9671 M,0,107198,107262,312.9739,218.9671,316.2985,204.9562
Sprite,Foreground,Centre,"sb\light.png",289,160 F,2,107516,,1 S,2,107516,,0.5,0.25 C,0,107516,,245,160,3 P,0,107516,,A
Sprite,Foreground,Centre,"sb\light.png",354,118 F,2,107898,,1 S,2,107898,,0.5,0.25 C,0,107898,,245,160,3 P,0,107898,,A
Sprite,Foreground,Centre,"sb\light.png",0,0 C,0,108279,,245,160,3 M,0,108279,108342,418,161,415.4305,175.1689 F,2,108279,109550,1 S,2,108279,109550,0.5,0.25 P,0,108279,109550,A M,0,108342,108406,415.4305,175.1689,412.861,189.3378 M,0,108406,108469,412.861,189.3378,410.2915,203.5067 M,0,108469,108533,410.2915,203.5067,407.722,217.6756 M,0,108533,108596,407.722,217.6756,405.1526,231.8445 M,0,108596,108660,405.1526,231.8445,402.5831,246.0134 M,0,108660,108723,402.5831,246.0134,400.0136,260.1823 M,0,108723,108787,400.0136,260.1823,397.4441,274.3512 M,0,108787,108851,397.4441,274.3512,394.8746,288.5201 M,0,108851,108914,394.8746,288.5201,392.3051,302.689 M,0,108914,108978,392.3051,302.689,389.7356,316.8579 M,0,108978,109041,389.7356,316.8579,387.1661,331.0268 M,0,109041,109105,387.1661,331.0268,384.5966,345.1957 M,0,109105,109168,384.5966,345.1957,387.0847,350.3889 M,0,109168,109232,387.0847,350.3889,397.8733,340.8512 M,0,109232,109295,397.8733,340.8512,408.6618,331.3135 M,0,109295,109359,408.6618,331.3135,419.4503,321.7758 M,0,109359,109423,419.4503,321.7758,430.2389,312.2381 M,0,109423,109486,430.2389,312.2381,441.0274,302.7004 M,0,109486,109550,441.0274,302.7004,451.8159,293.1627
Sprite,Foreground,Centre,"sb\light.png",0,0 C,0,109804,,245,160,3 M,0,109804,109867,500,275,502.2574,260.778 F,2,109804,110312,1 S,2,109804,110312,0.5,0.25 P,0,109804,110312,A M,0,109867,109931,502.2574,260.778,504.5149,246.5561 M,0,109931,109994,504.5149,246.5561,506.7724,232.3341 M,0,109994,110058,506.7724,232.3341,509.0298,218.1122 M,0,110058,110121,509.0298,218.1122,506.7724,232.3342 M,0,110121,110185,506.7724,232.3342,504.5149,246.5561 M,0,110185,110248,504.5149,246.5561,502.2574,260.778 M,0,110248,110312,502.2574,260.778,500,275
Sprite,Foreground,Centre,"sb\light.png",0,0 C,0,110567,,254,204,54 M,0,110567,110630,542,305,548.6813,317.6898 F,2,110567,111075,1 S,2,110567,111075,0.5,0.25 P,0,110567,111075,A M,0,110630,110694,548.6813,317.6898,553.4078,331.1973 M,0,110694,110757,553.4078,331.1973,555.6666,345.3583 M,0,110757,110821,555.6666,345.3583,554.8915,359.6728 M,0,110821,110884,554.8915,359.6728,551.845,373.6422 M,0,110884,110948,551.845,373.6422,546.3619,386.8662 M,0,110948,111011,546.3619,386.8662,538.6007,398.9344 M,0,111011,111075,538.6007,398.9344,528.6936,409.3483
Sprite,Foreground,Centre,"sb\light.png",484,437 F,2,111330,,1 S,2,111330,,0.5,0.25 C,0,111330,,254,204,54 P,0,111330,,A
Sprite,Foreground,Centre,"sb\light.png",0,0 C,0,111584,,254,204,54 M,0,111584,111647,451,396,437.0999,399.7612 F,2,111584,111965,1 S,2,111584,111965,0.5,0.25 P,0,111584,111965,A M,0,111647,111711,437.0999,399.7612,423.1998,403.5224 M,0,111711,111774,423.1998,403.5224,409.2997,407.2836 M,0,111774,111838,409.2997,407.2836,395.3995,411.0448 M,0,111838,111901,395.3995,411.0448,381.4994,414.806 M,0,111901,111965,381.4994,414.806,367.5993,418.5673
Sprite,Foreground,Centre,"sb\light.png",0,0 C,0,112347,,254,204,54 M,0,112347,112410,307,368,295.1121,359.9865 F,2,112347,112855,1 S,2,112347,112855,0.5,0.25 P,0,112347,112855,A M,0,112410,112474,295.1121,359.9865,282.2062,353.8016 M,0,112474,112537,282.2062,353.8016,268.3578,350.0019 M,0,112537,112601,268.3578,350.0019,254.0343,349.4417 M,0,112601,112664,254.0343,349.4417,239.8164,351.0218 M,0,112664,112728,239.8164,351.0218,226.0644,355.1216 M,0,112728,112791,226.0644,355.1216,213.5905,362.1803 M,0,112791,112855,213.5905,362.1803,202.2011,370.8888
Sprite,Foreground,Centre,"sb\light.png",164,406 F,2,113109,,1 S,2,113109,,0.5,0.25 C,0,113109,,254,204,54 P,0,113109,,A
Sprite,Foreground,Centre,"sb\light.png",90,333 F,2,113618,,1 S,2,113618,,0.5,0.25 C,0,113618,,254,204,54 P,0,113618,,A
Sprite,Foreground,Centre,"sb\light.png",0,0 C,0,113872,,254,204,54 M,0,113872,113935,111,285,124.9701,288.4925 F,2,113872,114380,1 S,2,113872,114380,0.5,0.25 P,0,113872,114380,A M,0,113935,113999,124.9701,288.4925,138.9401,291.985 M,0,113999,114062,138.9401,291.985,152.9102,295.4775 M,0,114062,114126,152.9102,295.4775,166.8802,298.97 M,0,114126,114189,166.8802,298.97,152.9102,295.4775 M,0,114189,114253,152.9102,295.4775,138.9401,291.985 M,0,114253,114316,138.9401,291.985,124.97,288.4925 M,0,114316,114380,124.97,288.4925,111,285
Sprite,Foreground,Centre,"sb\light.png",0,0 C,0,114635,,245,160,3 M,0,114635,114698,80,243,73.51454,230.1994 F,2,114635,115143,1 S,2,114635,115143,0.5,0.25 P,0,114635,115143,A M,0,114698,114762,73.51454,230.1994,68.74754,216.6854 M,0,114762,114825,68.74754,216.6854,66.17493,202.5481 M,0,114825,114889,66.17493,202.5481,66.51805,188.2039 M,0,114889,114952,66.51805,188.2039,68.75064,174.053 M,0,114952,115016,68.75064,174.053,73.20812,160.3997 M,0,115016,115079,73.20812,160.3997,80.29683,147.9263 M,0,115079,115143,80.29683,147.9263,88.85367,136.4056
Sprite,Foreground,Centre,"sb\light.png",115,91 F,2,115398,,1 S,2,115398,,0.5,0.25 C,0,115398,,245,160,3 P,0,115398,,A
Sprite,Foreground,Centre,"sb\light.png",0,0 C,0,115652,,245,160,3 M,0,115652,115715,162,110,176.0757,106.9609 F,2,115652,116033,1 S,2,115652,116033,0.5,0.25 P,0,115652,116033,A M,0,115715,115779,176.0757,106.9609,190.1513,103.9219 M,0,115779,115842,190.1513,103.9219,204.227,100.8828 M,0,115842,115906,204.227,100.8828,218.3026,97.84375 M,0,115906,115969,218.3026,97.84375,232.3783,94.80469 M,0,115969,116033,232.3783,94.80469,246.4539,91.76563
Sprite,Foreground,Centre,"sb\light.png",0,0 C,0,116414,,245,160,3 M,0,116414,116477,315,126,327.9024,132.3035 F,2,116414,116922,1 S,2,116414,116922,0.5,0.25 P,0,116414,116922,A M,0,116477,116541,327.9024,132.3035,341.457,136.9815 M,0,116541,116604,341.457,136.9815,355.571,139.6245 M,0,116604,116668,355.571,139.6245,369.9262,139.7662 M,0,116668,116731,369.9262,139.7662,384.1491,138.0144 M,0,116731,116795,384.1491,138.0144,397.9734,134.1928 M,0,116795,116858,397.9734,134.1928,411.1082,128.3756 M,0,116858,116922,411.1082,128.3756,423.1918,120.5765
Sprite,Foreground,Centre,"sb\light.png",459,83 F,2,117177,,1 S,2,117177,,0.5,0.25 C,0,117177,,245,160,3 P,0,117177,,A
Sprite,Foreground,Centre,"sb\light.png",539,148 F,2,117686,,1 S,2,117686,,0.5,0.25 C,0,117686,,245,160,3 P,0,117686,,A
Sprite,Foreground,Centre,"sb\light.png",0,0 C,0,117940,,245,160,3 M,0,117940,118003,508,189,494.1286,192.8658 F,2,117940,118448,1 S,2,117940,118448,0.5,0.25 P,0,117940,118448,A M,0,118003,118067,494.1286,192.8658,480.2572,196.7316 M,0,118067,118130,480.2572,196.7316,466.3858,200.5974 M,0,118130,118194,466.3858,200.5974,452.5144,204.4632 M,0,118194,118257,452.5144,204.4632,466.3858,200.5974 M,0,118257,118321,466.3858,200.5974,480.2572,196.7316 M,0,118321,118384,480.2572,196.7316,494.1286,192.8658 M,0,118384,118448,494.1286,192.8658,508,189
Sprite,Foreground,Centre,"sb\light.png",0,0 C,0,118703,,254,204,54 M,0,118703,118766,536,232,544.5484,243.5102 F,2,118703,119211,1 S,2,118703,119211,0.5,0.25 P,0,118703,119211,A M,0,118766,118830,544.5484,243.5102,551.2533,256.1481 M,0,118830,118893,551.2533,256.1481,555.561,269.8273 M,0,118893,118957,555.561,269.8273,556.7643,284.1087 M,0,118957,119020,556.7643,284.1087,555.6545,298.3591 M,0,119020,119084,555.6545,298.3591,551.969,312.1945 M,0,119084,119147,551.969,312.1945,545.8124,325.1674 M,0,119147,119211,545.8124,325.1674,537.1599,336.6429
Sprite,Foreground,Centre,"sb\light.png",505,378 F,2,119465,,1 S,2,119465,,0.5,0.25 C,0,119465,,254,204,54 P,0,119465,,A
Sprite,Foreground,Centre,"sb\light.png",0,0 C,0,119720,,254,204,54 M,0,119720,119783,458,354,443.9504,357.1572 F,2,119720,120101,1 S,2,119720,120101,0.5,0.25 P,0,119720,120101,A M,0,119783,119847,443.9504,357.1572,429.9008,360.3145 M,0,119847,119910,429.9008,360.3145,415.8511,363.4716 M,0,119910,119974,415.8511,363.4716,401.8015,366.6289 M,0,119974,120037,401.8015,366.6289,387.7519,369.7861 M,0,120037,120101,387.7519,369.7861,373.7022,372.9433
Sprite,Foreground,Centre,"sb\light.png",0,0 C,0,120482,,254,204,54 M,0,120482,120545,299,348,288.8899,337.8242 F,2,120482,120990,1 S,2,120482,120990,0.5,0.25 P,0,120482,120990,A M,0,120545,120609,288.8899,337.8242,280.4538,326.2656 M,0,120609,120672,280.4538,326.2656,274.2166,313.3694 M,0,120672,120736,274.2166,313.3694,270.3839,299.5421 M,0,120736,120799,270.3839,299.5421,269.5176,285.2281 M,0,120799,120863,269.5176,285.2281,270.965,270.999 M,0,120863,120926,270.965,270.999,274.9385,257.2503 M,0,120926,120990,274.9385,257.2503,281.1991,244.3354
Sprite,Foreground,Centre,"sb\ring.png",0,0 C,0,33279,,62,158,217 M,0,33279,33342,258,331,269.0397,321.8168 F,2,33279,33787,1 S,2,33279,33787,1,0.5 P,0,33279,33787,A M,0,33342,33406,269.0397,321.8168,281.116,314.0887 M,0,33406,33469,281.116,314.0887,294.2225,308.2357 M,0,33469,33533,294.2225,308.2357,308.0779,304.3915 M,0,33533,33596,308.0779,304.3915,322.3842,303.1587 M,0,33596,33660,322.3842,303.1587,336.709,303.7303 M,0,33660,33723,336.709,303.7303,350.8048,306.4288 M,0,33723,33787,350.8048,306.4288,364,311
Sprite,Foreground,Centre,"sb\ring.png",0,0 C,0,34296,,62,158,217 M,0,34296,34359,440,382,436.5075,395.9701 F,2,34296,34804,1 S,2,34296,34804,1,0.5 P,0,34296,34804,A M,0,34359,34423,436.5075,395.9701,433.015,409.9401 M,0,34423,34486,433.015,409.9401,429.5225,423.9102 M,0,34486,34550,429.5225,423.9102,426.0299,437.8802 M,0,34550,34613,426.0299,437.8802,429.5225,423.9102 M,0,34613,34677,429.5225,423.9102,433.015,409.9401 M,0,34677,34740,433.015,409.9401,436.5075,395.9701 M,0,34740,34804,436.5075,395.9701,440,382
Sprite,Foreground,Centre,"sb\ring.png",0,0 C,0,35059,,62,158,217 M,0,35059,35122,489,367,496.0232,354.4751 F,2,35059,35567,1 S,2,35059,35567,1,0.5 P,0,35059,35567,A M,0,35122,35186,496.0232,354.4751,501.4516,341.2039 M,0,35186,35249,501.4516,341.2039,504.8697,327.2581 M,0,35249,35313,504.8697,327.2581,505.7981,312.9326 M,0,35313,35376,505.7981,312.9326,504.8149,298.6367 M,0,35376,35440,504.8149,298.6367,501.7339,284.6299 M,0,35440,35503,501.7339,284.6299,496.6142,271.2096 M,0,35503,35567,496.6142,271.2096,489.4647,258.7307
Sprite,Foreground,Centre,"sb\ring.png",451,222 F,2,35821,,1 S,2,35821,,1,0.5 C,0,35821,,62,158,217 P,0,35821,,A
Sprite,Foreground,Centre,"sb\ring.png",513,138 F,2,36330,,1 S,2,36330,,1,0.5 C,0,36330,,62,158,217 P,0,36330,,A
Sprite,Foreground,Centre,"sb\ring.png",0,0 C,0,36584,,62,158,217 M,0,36584,36647,469,110,473.2524,96.2422 F,2,36584,37092,1 S,2,36584,37092,1,0.5 P,0,36584,37092,A M,0,36647,36711,473.2524,96.2422,477.5048,82.48441 M,0,36711,36774,477.5048,82.48441,481.7572,68.72661 M,0,36774,36838,481.7572,68.72661,486,55 M,0,36838,36901,486,55,481.7572,68.72661 M,0,36901,36965,481.7572,68.72661,477.5048,82.48441 M,0,36965,37028,477.5048,82.48441,473.2524,96.2422 M,0,37028,37092,473.2524,96.2422,469,110
Sprite,Foreground,Centre,"sb\ring.png",0,0 C,0,37347,,9,122,206 M,0,37347,37410,426,139,414.9262,148.1363 F,2,37347,37855,1 S,2,37347,37855,1,0.5 P,0,37347,37855,A M,0,37410,37474,414.9262,148.1363,402.7961,155.7716 M,0,37474,37537,402.7961,155.7716,389.6174,161.4619 M,0,37537,37601,389.6174,161.4619,375.6266,164.6604 M,0,37601,37664,375.6266,164.6604,361.3553,165.8836 M,0,37664,37728,361.3553,165.8836,347.0528,164.9004 M,0,37728,37791,347.0528,164.9004,333.0482,161.7268 M,0,37791,37855,333.0482,161.7268,319.7183,156.3316
Sprite,Foreground,Centre,"sb\ring.png",0,0 C,0,38364,,9,122,206 M,0,38364,38427,229,111,232.2212,96.9649 F,2,38364,38872,1 S,2,38364,38872,1,0.5 P,0,38364,38872,A M,0,38427,38491,232.2212,96.9649,235.4423,82.92979 M,0,38491,38554,235.4423,82.92979,238.6635,68.8947 M,0,38554,38618,238.6635,68.8947,241.8847,54.8596 M,0,38618,38681,241.8847,54.8596,238.6635,68.8947 M,0,38681,38745,238.6635,68.8947,235.4423,82.9298 M,0,38745,38808,235.4423,82.9298,232.2212,96.9649 M,0,38808,38872,232.2212,96.9649,229,111
Sprite,Foreground,Centre,"sb\ring.png",0,0 C,0,39126,,9,122,206 M,0,39126,39189,186,140,177.4419,151.5065 F,2,39126,39634,1 S,2,39126,39634,1,0.5 P,0,39126,39634,A M,0,39189,39253,177.4419,151.5065,170.8132,164.1805 M,0,39253,39316,170.8132,164.1805,166.6504,177.8811 M,0,39316,39380,166.6504,177.8811,165.1046,192.1408 M,0,39380,39443,165.1046,192.1408,166.664,206.3912 M,0,39443,39507,166.664,206.3912,170.5847,220.138 M,0,39507,39570,170.5847,220.138,176.9951,232.9246 M,0,39570,39634,176.9951,232.9246,185.5701,244.4278
Sprite,Foreground,Centre,"sb\ring.png",220,282 F,2,39889,,1 S,2,39889,,1,0.5 C,0,39889,,9,122,206 P,0,39889,,A
Sprite,Foreground,Centre,"sb\ring.png",320,248 F,2,40398,,1 S,2,40398,,1,0.5 C,0,40398,,9,122,206 P,0,40398,,A
Sprite,Foreground,Centre,"sb\ring.png",0,0 C,0,40906,,9,122,206 M,0,40906,40969,394,319,389.1713,332.5663 F,2,40906,41160,1 S,2,40906,41160,1,0.5 P,0,40906,41160,A M,0,40969,41033,389.1713,332.5663,384.3427,346.1326 M,0,41033,41096,384.3427,346.1326,379.514,359.6988 M,0,41096,41160,379.514,359.6988,374.6853,373.2651
Sprite,Foreground,Centre,"sb\ring.png",0,0 C,0,41414,,62,158,217 M,0,41414,41477,331,401,342.9915,393.1255 F,2,41414,41922,1 S,2,41414,41922,1,0.5 P,0,41414,41922,A M,0,41477,41541,342.9915,393.1255,355.9599,387.0609 M,0,41541,41604,355.9599,387.0609,369.8002,383.3059 M,0,41604,41668,369.8002,383.3059,384.1117,382.4024 M,0,41668,41731,384.1117,382.4024,398.3521,383.7546 M,0,41731,41795,398.3521,383.7546,412.1613,387.5334 M,0,41795,41858,412.1613,387.5334,425.1394,393.637 M,0,41858,41922,425.1394,393.637,436.8921,401.9155
Sprite,Foreground,Centre,"sb\ring.png",0,0 C,0,42431,,62,158,217 M,0,42431,42494,520,340,534.0514,343.1494 F,2,42431,42939,1 S,2,42431,42939,1,0.5 P,0,42431,42939,A M,0,42494,42558,534.0514,343.1494,548.1028,346.2989 M,0,42558,42621,548.1028,346.2989,562.1541,349.4483 M,0,42621,42685,562.1541,349.4483,576.2054,352.5978 M,0,42685,42748,576.2054,352.5978,562.1541,349.4483 M,0,42748,42812,562.1541,349.4483,548.1027,346.2989 M,0,42812,42875,548.1027,346.2989,534.0514,343.1494 M,0,42875,42939,534.0514,343.1494,520,340
Sprite,Foreground,Centre,"sb\ring.png",0,0 C,0,43194,,62,158,217 M,0,43194,43257,485,300,476.0751,288.7884 F,2,43194,43702,1 S,2,43194,43702,1,0.5 P,0,43194,43702,A M,0,43257,43321,476.0751,288.7884,469.0868,276.3195 M,0,43321,43384,469.0868,276.3195,464.6306,262.7018 M,0,43384,43448,464.6306,262.7018,463.4124,248.4305 M,0,43448,43511,463.4124,248.4305,464.7002,234.2103 M,0,43511,43575,464.7002,234.2103,468.7177,220.4871 M,0,43575,43638,468.7177,220.4871,475.331,207.7663 M,0,43638,43702,475.331,207.7663,484.4152,196.6338
Sprite,Foreground,Centre,"sb\ring.png",516,155 F,2,43957,,1 S,2,43957,,1,0.5 C,0,43957,,62,158,217 P,0,43957,,A
Sprite,Foreground,Centre,"sb\ring.png",427,101 F,2,44465,,1 S,2,44465,,1,0.5 C,0,44465,,62,158,217 P,0,44465,,A
Sprite,Foreground,Centre,"sb\ring.png",0,0 C,0,44720,,62,158,217 M,0,44720,44783,379,123,376.7071,137.2163 F,2,44720,45228,1 S,2,44720,45228,1,0.5 P,0,44720,45228,A M,0,44783,44847,376.7071,137.2163,374.4141,151.4325 M,0,44847,44910,374.4141,151.4325,372.1212,165.6488 M,0,44910,44974,372.1212,165.6488,369.8282,179.8651 M,0,44974,45037,369.8282,179.8651,372.1212,165.6488 M,0,45037,45101,372.1212,165.6488,374.4141,151.4325 M,0,45101,45164,374.4141,151.4325,376.7071,137.2163 M,0,45164,45228,376.7071,137.2163,379,123
Sprite,Foreground,Centre,"sb\ring.png",0,0 C,0,45482,,9,122,206 M,0,45482,45545,339,90,325.9251,84.08034 F,2,45482,45990,1 S,2,45482,45990,1,0.5 P,0,45482,45990,A M,0,45545,45609,325.9251,84.08034,312.1945,79.99423 M,0,45609,45672,312.1945,79.99423,297.9645,78.18375 M,0,45672,45736,297.9645,78.18375,283.6008,78.70436 M,0,45736,45799,283.6008,78.70436,269.6485,82.06612 M,0,45799,45863,269.6485,82.06612,256.3174,87.30481 M,0,45863,45926,256.3174,87.30481,243.9958,94.64247 M,0,45926,45990,243.9958,94.64247,233.0055,103.8972
Sprite,Foreground,Centre,"sb\ring.png",0,0 C,0,46499,,9,122,206 M,0,46499,46562,152,169,138.2412,164.7509 F,2,46499,47007,1 S,2,46499,47007,1,0.5 P,0,46499,47007,A M,0,46562,46626,138.2412,164.7509,124.4823,160.5019 M,0,46626,46689,124.4823,160.5019,110.7235,156.2528 M,0,46689,46753,110.7235,156.2528,96.96466,152.0038 M,0,46753,46816,96.96466,152.0038,110.7235,156.2528 M,0,46816,46880,110.7235,156.2528,124.4823,160.5019 M,0,46880,46943,124.4823,160.5019,138.2412,164.7509 M,0,46943,47007,138.2412,164.7509,152,169
Sprite,Foreground,Centre,"sb\ring.png",0,0 C,0,47262,,9,122,206 M,0,47262,47325,173,216,178.4143,229.2995 F,2,47262,47770,1 S,2,47262,47770,1,0.5 P,0,47262,47770,A M,0,47325,47389,178.4143,229.2995,182.173,243.1376 M,0,47389,47452,182.173,243.1376,183.8686,257.3996 M,0,47452,47516,183.8686,257.3996,183.011,271.7299 M,0,47516,47579,183.011,271.7299,180.3103,285.8044 M,0,47579,47643,180.3103,285.8044,175.574,299.3475 M,0,47643,47706,175.574,299.3475,168.8931,312.0759 M,0,47706,47770,168.8931,312.0759,160.2173,323.5463
Sprite,Foreground,Centre,"sb\ring.png",126,362 F,2,48025,,1 S,2,48025,,1,0.5 C,0,48025,,9,122,206 P,0,48025,,A
Sprite,Foreground,Centre,"sb\ring.png",210,422 F,2,48533,,1 S,2,48533,,1,0.5 C,0,48533,,9,122,206 P,0,48533,,A
Sprite,Foreground,Centre,"sb\ring.png",0,0 C,0,49042,,9,122,206 M,0,49042,49105,289,354,303.0935,356.9551 F,2,49042,49296,1 S,2,49042,49296,1,0.5 P,0,49042,49296,A M,0,49105,49169,303.0935,356.9551,317.187,359.9102 M,0,49169,49232,317.187,359.9102,331.2806,362.8653 M,0,49232,49296,331.2806,362.8653,345.3741,365.8204
Sprite,Foreground,Centre,"sb\ring.png",0,0 C,0,49550,,163,186,228 M,0,49550,49613,385,398,375.7267,387.0657 F,2,49550,50058,1 S,2,49550,50058,1,0.5 P,0,49550,50058,A M,0,49613,49677,375.7267,387.0657,368.3463,374.8195 M,0,49677,49740,368.3463,374.8195,363.4208,361.3773 M,0,49740,49804,363.4208,361.3773,361.1357,347.2177 M,0,49804,49867,361.1357,347.2177,362.0439,332.914 M,0,49867,49931,362.0439,332.914,365.3695,319.0163 M,0,49931,49994,365.3695,319.0163,371.2788,305.9937 M,0,49994,50058,371.2788,305.9937,379.5658,294.3153
Sprite,Foreground,Centre,"sb\ring.png",0,0 C,0,50567,,163,186,228 M,0,50567,50630,459,228,473.027,231.2563 F,2,50567,51075,1 S,2,50567,51075,1,0.5 P,0,50567,51075,A M,0,50630,50694,473.027,231.2563,487.054,234.5125 M,0,50694,50757,487.054,234.5125,501.081,237.7688 M,0,50757,50821,501.081,237.7688,515,241 M,0,50821,50884,515,241,501.081,237.7688 M,0,50884,50948,501.081,237.7688,487.054,234.5125 M,0,50948,51011,487.054,234.5125,473.027,231.2563 M,0,51011,51075,473.027,231.2563,459,228
Sprite,Foreground,Centre,"sb\ring.png",0,0 C,0,51330,,163,186,228 M,0,51330,51393,425,188,411.6476,182.7135 F,2,51330,51838,1 S,2,51330,51838,1,0.5 P,0,51330,51838,A M,0,51393,51457,411.6476,182.7135,397.7784,179.0642 M,0,51457,51520,397.7784,179.0642,383.5068,177.4499 M,0,51520,51584,383.5068,177.4499,369.1768,178.3364 M,0,51584,51647,369.1768,178.3364,355.1026,181.0478 M,0,51647,51711,355.1026,181.0478,341.5522,185.7638 M,0,51711,51774,341.5522,185.7638,328.8009,192.396 M,0,51774,51838,328.8009,192.396,317.2547,200.9715
Sprite,Foreground,Centre,"sb\ring.png",284,241 F,2,52092,,1 S,2,52092,,1,0.5 C,0,52092,,163,186,228 P,0,52092,,A
Sprite,Foreground,Centre,"sb\ring.png",194,168 F,2,52601,,1 S,2,52601,,1,0.5 C,0,52601,,163,186,228 P,0,52601,,A
Sprite,Foreground,Centre,"sb\ring.png",0,0 C,0,52855,,163,186,228 M,0,52855,52918,146,201,146.8845,215.3728 F,2,52855,53363,1 S,2,52855,53363,1,0.5 P,0,52855,53363,A M,0,52918,52982,146.8845,215.3728,147.769,229.7456 M,0,52982,53045,147.769,229.7456,148.6534,244.1184 M,0,53045,53109,148.6534,244.1184,149.5379,258.4912 M,0,53109,53172,149.5379,258.4912,148.6534,244.1184 M,0,53172,53236,148.6534,244.1184,147.769,229.7456 M,0,53236,53299,147.769,229.7456,146.8845,215.3728 M,0,53299,53363,146.8845,215.3728,146,201
Sprite,Foreground,Centre,"sb\ring.png",0,0 C,0,53618,,114,151,207 M,0,53618,53681,95,173,88.57737,160.1886 F,2,53618,54126,1 S,2,53618,54126,1,0.5 P,0,53618,54126,A M,0,53681,53745,88.57737,160.1886,84.29479,146.5502 M,0,53745,53808,84.29479,146.5502,82.70837,132.3091 M,0,53808,53872,82.70837,132.3091,84.40246,118.0854 M,0,53872,53935,84.40246,118.0854,88.52599,104.4138 M,0,53935,53999,88.52599,104.4138,95.20741,91.77032 M,0,53999,54062,95.20741,91.77032,104.2172,80.61721 M,0,54062,54126,104.2172,80.61721,115.3186,71.49433
Sprite,Foreground,Centre,"sb\ring.png",0,0 C,0,54635,,114,151,207 M,0,54635,54698,225,105,221.8282,119.0463 F,2,54635,55143,1 S,2,54635,55143,1,0.5 P,0,54635,55143,A M,0,54698,54762,221.8282,119.0463,218.6565,133.0927 M,0,54762,54825,218.6565,133.0927,215.4847,147.1391 M,0,54825,54889,215.4847,147.1391,212.313,161.1854 M,0,54889,54952,212.313,161.1854,215.4847,147.139 M,0,54952,55016,215.4847,147.139,218.6565,133.0927 M,0,55016,55079,218.6565,133.0927,221.8282,119.0463 M,0,55079,55143,221.8282,119.0463,225,105
Sprite,Foreground,Centre,"sb\ring.png",0,0 C,0,55398,,114,151,207 M,0,55398,55461,274,75,286.6722,68.25542 F,2,55398,55906,1 S,2,55398,55906,1,0.5 P,0,55398,55906,A M,0,55461,55525,286.6722,68.25542,300.0958,63.23937 M,0,55525,55588,300.0958,63.23937,314.1586,60.38842 M,0,55588,55652,314.1586,60.38842,328.5224,59.77974 M,0,55652,55715,328.5224,59.77974,342.71,61.96376 M,0,55715,55779,342.71,61.96376,356.459,65.99901 M,0,55779,55842,356.459,65.99901,369.4203,72.14945 M,0,55842,55906,369.4203,72.14945,381,80
Sprite,Foreground,Centre,"sb\ring.png",423,119 F,2,56160,,1 S,2,56160,,1,0.5 C,0,56160,,114,151,207 P,0,56160,,A
Sprite,Foreground,Centre,"sb\ring.png",343,202 F,2,56669,,1 S,2,56669,,1,0.5 C,0,56669,,114,151,207 P,0,56669,,A
Sprite,Foreground,Centre,"sb\ring.png",0,0 C,0,57177,,114,151,207 M,0,57177,57240,407,297,402.7177,310.7485 F,2,57177,57431,1 S,2,57177,57431,1,0.5 P,0,57177,57431,A M,0,57240,57304,402.7177,310.7485,398.4354,324.497 M,0,57304,57367,398.4354,324.497,394.153,338.2455 M,0,57367,57431,394.153,338.2455,389.8707,351.9941
Sprite,Foreground,Centre,"sb\ring.png",0,0 C,0,57686,,163,186,228 M,0,57686,57749,439,382,427.568,373.3347 F,2,57686,58194,1 S,2,57686,58194,1,0.5 P,0,57686,58194,A M,0,57749,57813,427.568,373.3347,415.077,366.3284 M,0,57813,57876,415.077,366.3284,401.5541,361.4933 M,0,57876,57940,401.5541,361.4933,387.336,359.609 M,0,57940,58003,387.336,359.609,373.0221,359.7595 M,0,58003,58067,373.0221,359.7595,358.9004,362.3038 M,0,58067,58130,358.9004,362.3038,345.6104,367.6904 M,0,58130,58194,345.6104,367.6904,333.1325,374.7649
Sprite,Foreground,Centre,"sb\ring.png",0,0 C,0,58703,,163,186,228 M,0,58703,58766,229,425,215.0903,421.2742 F,2,58703,59211,1 S,2,58703,59211,1,0.5 P,0,58703,59211,A M,0,58766,58830,215.0903,421.2742,201.1807,417.5484 M,0,58830,58893,201.1807,417.5484,187.271,413.8226 M,0,58893,58957,187.271,413.8226,173.3614,410.0968 M,0,58957,59020,173.3614,410.0968,159.4517,406.371 M,0,59020,59084,159.4517,406.371,145.5421,402.6452 M,0,59084,59147,145.5421,402.6452,131.6324,398.9194 M,0,59147,59211,131.6324,398.9194,117.7228,395.1936
Sprite,Foreground,Centre,"sb\ring.png",0,0 C,0,59465,,163,186,228 M,0,59465,59528,71,432,80.55107,421.2902 F,2,59465,59973,1 S,2,59465,59973,1,0.5 P,0,59465,59973,A M,0,59528,59592,80.55107,421.2902,88.56609,409.4165 M,0,59592,59655,88.56609,409.4165,94.56224,396.3746 M,0,59655,59719,94.56224,396.3746,97.87763,382.4171 M,0,59719,59782,97.87763,382.4171,99.15805,368.1588 M,0,59782,59846,99.15805,368.1588,98.10957,353.8612 M,0,59846,59909,98.10957,353.8612,94.74831,339.8893 M,0,59909,59973,94.74831,339.8893,88.90041,326.7546
Sprite,Foreground,Centre,"sb\ring.png",66,273 F,2,60228,,1 S,2,60228,,1,0.5 C,0,60228,,163,186,228 P,0,60228,,A
Sprite,Foreground,Centre,"sb\ring.png",151,195 F,2,60736,,1 S,2,60736,,1,0.5 C,0,60736,,163,186,228 P,0,60736,,A
Sprite,Foreground,Centre,"sb\ring.png",0,0 C,0,60991,,163,186,228 M,0,60991,61054,124,143,109.9486,146.1494 F,2,60991,61499,1 S,2,60991,61499,1,0.5 P,0,60991,61499,A M,0,61054,61118,109.9486,146.1494,95.89726,149.2989 M,0,61118,61181,95.89726,149.2989,81.84589,152.4483 M,0,61181,61245,81.84589,152.4483,67.79453,155.5978 M,0,61245,61308,67.79453,155.5978,81.84589,152.4483 M,0,61308,61372,81.84589,152.4483,95.89726,149.2989 M,0,61372,61435,95.89726,149.2989,109.9486,146.1494 M,0,61435,61499,109.9486,146.1494,124,143
Sprite,Foreground,Centre,"sb\ring.png",0,0 C,0,61753,,114,151,207 M,0,61753,61816,148,90,160.7935,83.45223 F,2,61753,62261,1 S,2,61753,62261,1,0.5 P,0,61753,62261,A M,0,61816,61880,160.7935,83.45223,174.1719,78.24049 M,0,61880,61943,174.1719,78.24049,188.1026,74.70197 M,0,61943,62007,188.1026,74.70197,202.399,73.25607 M,0,62007,62070,202.399,73.25607,216.7503,73.37502 M,0,62070,62134,216.7503,73.37502,230.9895,75.25097 M,0,62134,62197,230.9895,75.25097,244.9094,78.86084 M,0,62197,62261,244.9094,78.86084,258.1131,84.53309
Sprite,Foreground,Centre,"sb\ring.png",0,0 C,0,62770,,114,151,207 M,0,62770,62833,359,139,364.3884,125.6462 F,2,62770,63278,1 S,2,62770,63278,1,0.5 P,0,62770,63278,A M,0,62833,62897,364.3884,125.6462,369.7768,112.2923 M,0,62897,62960,369.7768,112.2923,375.1652,98.93846 M,0,62960,63024,375.1652,98.93846,380.5536,85.58463 M,0,63024,63087,380.5536,85.58463,375.1652,98.93846 M,0,63087,63151,375.1652,98.93846,369.7768,112.2923 M,0,63151,63214,369.7768,112.2923,364.3884,125.6462 M,0,63214,63278,364.3884,125.6462,359,139
Sprite,Foreground,Centre,"sb\ring.png",0,0 C,0,63533,,114,151,207 M,0,63533,63596,313,163,306.2961,175.6927 F,2,63533,64041,1 S,2,63533,64041,1,0.5 P,0,63533,64041,A M,0,63596,63660,306.2961,175.6927,301.2282,189.1027 M,0,63660,63723,301.2282,189.1027,298.2474,203.1598 M,0,63723,63787,298.2474,203.1598,298.0262,217.5107 M,0,63787,63850,298.0262,217.5107,299.6395,231.7502 M,0,63850,63914,299.6395,231.7502,303.4029,245.6095 M,0,63914,63977,303.4029,245.6095,309.7109,258.4997 M,0,63977,64041,309.7109,258.4997,317.6453,270.4283
Sprite,Foreground,Centre,"sb\ring.png",348,312 F,2,64296,,1 S,2,64296,,1,0.5 C,0,64296,,114,151,207 P,0,64296,,A
Sprite,Foreground,Centre,"sb\ring.png",287,396 F,2,64804,,1 S,2,64804,,1,0.5 C,0,64804,,114,151,207 P,0,64804,,A
Sprite,Foreground,Centre,"sb\ring.png",0,0 C,0,65313,,114,151,207 M,0,65313,65376,195,346,181.045,349.5522 F,2,65313,65567,1 S,2,65313,65567,1,0.5 P,0,65313,65567,A M,0,65376,65440,181.045,349.5522,167.09,353.1044 M,0,65440,65503,167.09,353.1044,153.135,356.6566 M,0,65503,65567,153.135,356.6566,140,360
Sprite,Foreground,Centre,"sb\ring.png",104,398 F,2,65821,,1 S,2,65821,,1,0.5 C,0,65821,,207,207,207 P,0,65821,,A
Sprite,Foreground,Centre,"sb\ring.png",0,0 C,0,73957,,160,160,160 M,0,73957,74020,224,312,236.3731,304.7028 F,2,73957,74465,1 S,2,73957,74465,1,0.5 P,0,73957,74465,A M,0,74020,74084,236.3731,304.7028,249.4813,298.8718 M,0,74084,74147,249.4813,298.8718,263.2841,294.8929 M,0,74147,74211,263.2841,294.8929,277.5491,293.2326 M,0,74211,74274,277.5491,293.2326,291.8876,293.3433 M,0,74274,74338,291.8876,293.3433,306.0863,295.4249 M,0,74338,74401,306.0863,295.4249,319.884,299.4444 M,0,74401,74465,319.884,299.4444,332.9501,305.4594
Sprite,Foreground,Centre,"sb\ring.png",0,0 C,0,74974,,160,160,160 M,0,74974,75037,407,378,402.8171,391.7791 F,2,74974,75482,1 S,2,74974,75482,1,0.5 P,0,74974,75482,A M,0,75037,75101,402.8171,391.7791,398.6341,405.5582 M,0,75101,75164,398.6341,405.5582,394.4512,419.3372 M,0,75164,75228,394.4512,419.3372,390.2682,433.1163 M,0,75228,75291,390.2682,433.1163,394.4512,419.3372 M,0,75291,75355,394.4512,419.3372,398.6341,405.5582 M,0,75355,75418,398.6341,405.5582,402.8171,391.7791 M,0,75418,75482,402.8171,391.7791,407,378
Sprite,Foreground,Centre,"sb\ring.png",443,341 F,2,75736,,1 S,2,75736,,1,0.5 C,0,75736,,160,160,160 P,0,75736,,A
Sprite,Foreground,Centre,"sb\ring.png",0,0 C,0,75991,,160,160,160 M,0,75991,76054,422,293,414.0554,281.073 F,2,75991,76499,1 S,2,75991,76499,1,0.5 P,0,75991,76499,A M,0,76054,76118,414.0554,281.073,408.093,268.0776 M,0,76118,76181,408.093,268.0776,404.6964,254.146 M,0,76181,76245,404.6964,254.146,404.6215,239.8207 M,0,76245,76308,404.6215,239.8207,406.9231,225.7226 M,0,76308,76372,406.9231,225.7226,411.8691,212.2879 M,0,76372,76435,411.8691,212.2879,419.3042,199.993 M,0,76435,76499,419.3042,199.993,429.2382,189.6108
Sprite,Foreground,Centre,"sb\ring.png",0,0 C,0,77008,,160,160,160 M,0,77008,77071,477,97,462.9163,100.0014 F,2,77008,77262,1 S,2,77008,77262,1,0.5 P,0,77008,77262,A M,0,77071,77135,462.9163,100.0014,448.8326,103.0029 M,0,77135,77198,448.8326,103.0029,434.7488,106.0043 M,0,77198,77262,434.7488,106.0043,420.6651,109.0058
Sprite,Foreground,Centre,"sb\ring.png",0,0 C,0,77516,,160,160,160 M,0,77516,77579,385,70,370.9163,73.00145 F,2,77516,77770,1 S,2,77516,77770,1,0.5 P,0,77516,77770,A M,0,77579,77643,370.9163,73.00145,356.8326,76.0029 M,0,77643,77706,356.8326,76.0029,342.7488,79.00435 M,0,77706,77770,342.7488,79.00435,328.6651,82.0058
Sprite,Foreground,Centre,"sb\ring.png",0,0 C,0,78025,,207,207,207 M,0,78025,78088,301,126,289.3804,134.4304 F,2,78025,78533,1 S,2,78025,78533,1,0.5 P,0,78025,78533,A M,0,78088,78152,289.3804,134.4304,276.7978,141.2939 M,0,78152,78215,276.7978,141.2939,263.2871,146.1448 M,0,78215,78279,263.2871,146.1448,249.1202,148.4387 M,0,78279,78342,249.1202,148.4387,234.8003,148.746 M,0,78342,78406,234.8003,148.746,220.5903,146.8427 M,0,78406,78469,220.5903,146.8427,206.8192,142.766 M,0,78469,78533,206.8192,142.766,193.8839,136.4839
Sprite,Foreground,Centre,"sb\ring.png",0,0 C,0,79042,,207,207,207 M,0,79042,79105,99,94,101.5652,108.1697 F,2,79042,79550,1 S,2,79042,79550,1,0.5 P,0,79042,79550,A M,0,79105,79169,101.5652,108.1697,104.1304,122.3394 M,0,79169,79232,104.1304,122.3394,106.6956,136.509 M,0,79232,79296,106.6956,136.509,109.2608,150.6787 M,0,79296,79359,109.2608,150.6787,111.826,164.8484 M,0,79359,79423,111.826,164.8484,114.3912,179.0181 M,0,79423,79486,114.3912,179.0181,116.9564,193.1877 M,0,79486,79550,116.9564,193.1877,119.5216,207.3574
Sprite,Foreground,Centre,"sb\ring.png",95,253 F,2,79804,,1 S,2,79804,,1,0.5 C,0,79804,,207,207,207 P,0,79804,,A
Sprite,Foreground,Centre,"sb\ring.png",0,0 C,0,80059,,207,207,207 M,0,80059,80122,120,298,132.7258,304.6635 F,2,80059,80567,1 S,2,80059,80567,1,0.5 P,0,80059,80567,A M,0,80122,80186,132.7258,304.6635,146.0889,309.8948 M,0,80186,80249,146.0889,309.8948,160.0552,313.3062 M,0,80249,80313,160.0552,313.3062,174.3838,314.3069 M,0,80313,80376,174.3838,314.3069,188.7175,313.696 M,0,80376,80440,188.7175,313.696,202.8656,311.1778 M,0,80440,80503,202.8656,311.1778,216.3918,306.3489 M,0,80503,80567,216.3918,306.3489,229.3503,300.1502
Sprite,Foreground,Centre,"sb\ring.png",320,248 F,2,81075,,1 S,2,81075,,1,0.5 C,0,81075,,207,207,207 P,0,81075,,A
//Storyboard Layer 4 (Overlay)
//Storyboard Sound Samples

[TimingPoints]
737,508.474576271186,4,2,1,40,1,0
737,-111.111111111111,4,2,1,40,0,0
17008,-100,4,2,1,50,0,0
33279,-111.111111111111,4,2,1,60,0,0
35313,-111.111111111111,4,2,2,60,0,0
35567,-111.111111111111,4,2,1,60,0,0
39381,-111.111111111111,4,2,2,60,0,0
39635,-111.111111111111,4,2,1,60,0,0
43448,-111.111111111111,4,2,2,60,0,0
43702,-111.111111111111,4,2,1,60,0,0
47516,-111.111111111111,4,2,2,60,0,0
47770,-111.111111111111,4,2,1,60,0,0
51584,-111.111111111111,4,2,2,60,0,0
51838,-111.111111111111,4,2,1,60,0,0
55652,-111.111111111111,4,2,2,60,0,0
55906,-111.111111111111,4,2,1,60,0,0
59720,-111.111111111111,4,2,2,60,0,0
59974,-111.111111111111,4,2,1,60,0,0
63787,-111.111111111111,4,2,2,60,0,0
64041,-111.111111111111,4,2,1,60,0,0
65821,-111.111111111111,4,2,1,50,0,0
73957,-111.111111111111,4,2,1,60,0,0
82092,-111.111111111111,4,2,1,20,0,0
82601,-111.111111111111,4,2,1,30,0,0
83109,-111.111111111111,4,2,1,40,0,0
83618,-111.111111111111,4,2,1,50,0,0
83872,-111.111111111111,4,2,1,60,0,0
84126,-111.111111111111,4,2,1,65,0,0
84381,-111.111111111111,4,2,1,70,0,0
84635,-111.111111111111,4,2,1,75,0,0
84762,-111.111111111111,4,2,1,80,0,0
84889,-111.111111111111,4,2,1,85,0,0
85016,-111.111111111111,4,2,1,90,0,0
85143,-111.111111111111,4,2,1,5,0,0
85398,-111.111111111111,4,2,1,60,0,0
86160,-111.111111111111,4,2,1,80,0,1
88194,-111.111111111111,4,2,2,80,0,1
88448,-111.111111111111,4,2,1,80,0,1
90228,-111.111111111111,4,2,2,80,0,1
90482,-111.111111111111,4,2,1,80,0,1
92262,-111.111111111111,4,2,2,80,0,1
92389,-111.111111111111,4,2,1,80,0,1
92770,-111.111111111111,4,2,3,80,0,1
92897,-111.111111111111,4,2,1,80,0,1
94042,-111.111111111111,4,2,1,40,0,1
94296,-111.111111111111,4,2,1,80,0,1
96330,-111.111111111111,4,2,2,80,0,1
96584,-111.111111111111,4,2,1,80,0,1
98364,-111.111111111111,4,2,2,80,0,1
98618,-111.111111111111,4,2,1,80,0,1
100398,-111.111111111111,4,2,2,80,0,1
100525,-111.111111111111,4,2,1,80,0,1
100906,-111.111111111111,4,2,3,80,0,1
101033,-111.111111111111,4,2,1,80,0,1
102177,-111.111111111111,4,2,1,40,0,1
102431,-111.111111111111,4,2,1,80,0,1
104465,-111.111111111111,4,2,2,80,0,1
104719,-111.111111111111,4,2,1,80,0,1
106499,-111.111111111111,4,2,2,80,0,1
106753,-111.111111111111,4,2,1,80,0,1
108533,-111.111111111111,4,2,2,80,0,1
108660,-111.111111111111,4,2,1,80,0,1
109042,-111.111111111111,4,2,3,80,0,1
109169,-111.111111111111,4,2,1,80,0,1
110313,-111.111111111111,4,2,1,40,0,1
110567,-111.111111111111,4,2,1,80,0,1
112601,-111.111111111111,4,2,2,80,0,1
112855,-111.111111111111,4,2,1,80,0,1
114381,-111.111111111111,4,2,1,40,0,1
114635,-111.111111111111,4,2,1,80,0,1
116669,-111.111111111111,4,2,2,80,0,1
116923,-111.111111111111,4,2,1,80,0,1
118448,-111.111111111111,4,2,1,40,0,1
118703,-111.111111111111,4,2,1,60,0,0
122262,-111.111111111111,4,2,32,60,0,0
122770,-111.111111111111,4,2,30,80,0,0
126838,-111.111111111111,4,2,35,60,0,0
130398,-111.111111111111,4,2,37,60,0,0
130906,-111.111111111111,4,2,30,50,0,0
132686,-111.111111111111,4,2,31,50,0,0
132940,-111.111111111111,4,2,33,50,0,0
133194,-111.111111111111,4,2,30,50,0,0
133448,-111.111111111111,4,2,31,50,0,0
133703,-111.111111111111,4,2,30,50,0,0
133957,-111.111111111111,4,2,32,50,0,0
134211,-111.111111111111,4,2,33,50,0,0
134465,-111.111111111111,4,2,34,50,0,0
134720,-111.111111111111,4,2,35,50,0,0
134974,-111.111111111111,4,2,31,50,0,0
137008,-111.111111111111,4,2,36,50,0,0
137262,-111.111111111111,4,2,1,50,0,0
138533,-111.111111111111,4,2,32,50,0,0
139042,-111.111111111111,4,2,30,50,0,0
140821,-111.111111111111,4,2,31,50,0,0
141075,-111.111111111111,4,2,30,50,0,0
141330,-111.111111111111,4,2,30,50,0,0
141584,-111.111111111111,4,2,31,50,0,0
141838,-111.111111111111,4,2,30,50,0,0
142092,-111.111111111111,4,2,32,50,0,0
142347,-111.111111111111,4,2,33,50,0,0
142601,-111.111111111111,4,2,36,50,0,0
142855,-111.111111111111,4,2,37,50,0,0
143109,-111.111111111111,4,2,35,50,0,0
145143,-111.111111111111,4,2,38,50,0,0
145398,-111.111111111111,4,2,1,50,0,0
146669,-111.111111111111,4,2,37,50,0,0
147177,-111.111111111111,4,2,30,50,0,0
148957,-111.111111111111,4,2,31,50,0,0
149211,-111.111111111111,4,2,33,50,0,0
149465,-111.111111111111,4,2,30,50,0,0
149720,-111.111111111111,4,2,31,50,0,0
149974,-111.111111111111,4,2,30,50,0,0
150228,-111.111111111111,4,2,32,50,0,0
150482,-111.111111111111,4,2,33,50,0,0
150736,-111.111111111111,4,2,31,50,0,0
150991,-111.111111111111,4,2,38,50,0,0
151245,-111.111111111111,4,2,31,50,0,0
153279,-111.111111111111,4,2,36,50,0,0
153533,-111.111111111111,4,2,1,50,0,0
155313,535.714285714286,4,2,60,30,1,0
155313,-111.111111111111,4,2,60,30,0,0
155580,-111.111111111111,4,2,1,30,0,0
159598,566.037735849057,4,2,61,30,1,0
159598,-111.111111111111,4,2,61,30,0,0
159881,-111.111111111111,4,2,1,30,0,0
162994,555.555555555556,4,2,1,30,1,0
162994,-111.111111111111,4,2,1,30,0,0
164105,-100,4,2,60,30,0,0
164382,-111.111111111111,4,2,1,30,0,0
167438,612.244897959184,4,2,1,30,1,0
167438,-111.111111111111,4,2,1,30,0,0
168662,681.818181818182,4,2,62,20,1,0
168662,-111.111111111111,4,2,62,20,0,0
169343,-100,4,2,63,20,0,0
170025,-100,4,2,64,20,0,0
170707,666.666666666667,4,2,1,20,1,0
170707,-111.111111111111,4,2,1,20,0,0
172040,789.473684210526,4,2,1,10,1,0
172040,-111.111111111111,4,2,1,10,0,0
174408,983.606557377049,4,2,66,10,1,0
174408,-111.111111111111,4,2,66,10,0,0
175391,681.818181818182,4,2,67,10,1,0
175391,-111.111111111111,4,2,67,10,0,0
176072,600,4,2,60,10,1,0
176072,-111.111111111111,4,2,60,10,0,0
176672,923.076923076923,4,2,68,10,1,0
176672,-111.111111111111,4,2,68,10,0,0
177595,1071.42857142857,4,2,1,40,1,0
177595,-100,4,2,69,10,0,0
177862,-100,4,2,99,5,0,0

[Colours]
Combo1 : 245,160,3
Combo2 : 62,158,217
Combo3 : 9,122,206
Combo4 : 163,186,228
Combo5 : 114,151,207
Combo6 : 207,207,207
Combo7 : 160,160,160
Combo8 : 254,204,54

[HitObjects]
256,192,29211,12,0,32008,0:0:0:0:
194,275,33279,6,0,P|241:249|300:255,1,115.199996484375,4|0,1:2|1:0,0:0:0:0:
376,326,34296,2,0,L|362:382,2,57.5999982421876,0|0|0,1:0|0:0|1:0,0:0:0:0:
425,311,35059,2,0,P|442:251|425:202,1,115.199996484375,0|0,0:0|0:0,0:0:0:0:
387,166,35821,1,0,1:0:0:0:
449,82,36330,1,0,1:0:0:0:
405,54,36584,2,0,L|422:-1,2,57.5999982421876,0|0|0,0:0|1:0|0:0,0:0:0:0:
362,83,37347,6,0,P|317:108|255:100,1,115.199996484375,0|0,1:0|1:0,0:0:0:0:
165,55,38364,2,0,L|179:-6,2,57.5999982421876,0|0|0,1:0|0:0|1:0,0:0:0:0:
122,84,39126,2,0,P|101:134|125:192,1,115.199996484375,0|0,0:0|0:0,0:0:0:0:
156,226,39889,1,0,1:0:0:0:
256,192,40398,1,0,1:0:0:0:
330,263,40906,2,0,L|309:322,1,57.5999982421876,0|0,1:0|0:0,0:0:0:0:
267,345,41414,102,0,P|321:326|373:346,1,115.199996484375,0|0,1:0|1:0,0:0:0:0:
456,284,42431,2,0,L|514:297,2,57.5999982421876,0|0|0,1:0|0:0|1:0,0:0:0:0:
421,244,43194,2,0,P|399:195|421:140,1,115.199996484375,0|0,0:0|0:0,0:0:0:0:
452,99,43957,1,0,1:0:0:0:
363,45,44465,1,0,1:0:0:0:
315,67,44720,2,0,L|305:129,2,57.5999982421876,0|0|0,0:0|1:0|0:0,0:0:0:0:
275,34,45482,6,0,P|234:22|159:60,1,115.199996484375,0|0,1:0|1:0,0:0:0:0:
88,113,46499,2,0,L|20:92,2,57.5999982421876,0|0|0,1:0|0:0|1:0,0:0:0:0:
109,160,47262,2,0,P|120:207|95:269,1,115.199996484375,0|0,0:0|0:0,0:0:0:0:
62,306,48025,1,0,1:0:0:0:
146,366,48533,1,0,1:0:0:0:
225,298,49042,2,0,L|287:311,1,57.5999982421876,0|0,1:0|0:0,0:0:0:0:
321,342,49550,6,0,P|298:300|325:229,1,115.199996484375,4|8,1:2|1:2,0:0:0:0:
395,172,50567,2,0,L|451:185,2,57.5999982421876,0|0|8,1:0|0:0|1:0,0:0:0:0:
361,132,51330,2,0,P|305:122|252:146,1,115.199996484375,0|0,0:0|0:0,0:0:0:0:
220,185,52092,1,8,1:2:0:0:
130,112,52601,1,0,1:0:0:0:
82,145,52855,2,0,L|86:210,2,57.5999982421876,0|8|0,0:0|1:0|0:0,0:0:0:0:
31,117,53618,6,0,P|19:68|52:15,1,115.199996484375,0|8,1:0|1:2,0:0:0:0:
161,49,54635,2,0,L|147:111,2,57.5999982421876,0|0|8,1:0|0:0|1:0,0:0:0:0:
210,19,55398,2,0,P|268:4|317:24,1,115.199996484375,0|0,0:0|0:0,0:0:0:0:
359,63,56160,1,8,1:2:0:0:
279,146,56669,1,0,1:0:0:0:
343,241,57177,2,0,L|324:302,1,57.5999982421876,8|0,1:0|0:0,0:0:0:0:
375,326,57686,102,0,P|318:303|266:321,1,115.199996484375,0|8,1:0|1:2,0:0:0:0:
165,369,58703,2,0,L|53:339,1,115.199996484375,0|8,1:0|1:0,0:0:0:0:
7,376,59465,2,0,P|34:328|24:269,1,115.199996484375
2,217,60228,1,8,1:2:0:0:
87,139,60736,1,0,1:0:0:0:
60,87,60991,2,0,L|2:100,2,57.5999982421876,0|8|0,0:0|1:0|0:0,0:0:0:0:
84,34,61753,6,0,P|122:19|203:33,1,115.199996484375,0|8,1:0|1:2,0:0:0:0:
295,83,62770,2,0,L|318:26,2,57.5999982421876,0|0|8,1:0|0:0|1:0,0:0:0:0:
249,107,63533,2,0,P|234:149|262:224,1,115.199996484375,0|0,0:0|0:0,0:0:0:0:
284,256,64296,1,8,1:2:0:0:
223,340,64804,1,0,1:0:0:0:
131,290,65313,2,0,L|76:304,1,57.5999982421876,8|0,1:0|0:0,0:0:0:0:
40,342,65821,5,4,0:0:0:0:
160,256,73957,6,0,P|212:237|270:250,1,115.199996484375,2|0,1:3|0:0,0:0:0:0:
343,322,74974,2,0,L|326:378,2,57.5999982421876,2|0|0,0:3|0:0|0:0,0:0:0:0:
379,285,75736,1,0,1:0:0:0:
358,237,75991,2,0,P|340:187|367:132,1,115.199996484375,2|0,1:3|0:0,0:0:0:0:
413,41,77008,2,0,L|352:54,1,57.5999982421876,2|0,0:3|0:0,0:0:0:0:
321,14,77516,2,0,L|260:27,1,57.5999982421876,0|0,0:0|0:0,0:0:0:0:
237,70,78025,102,0,P|183:93|129:80,1,115.199996484375,2|0,1:3|0:0,0:0:0:0:
35,38,79042,2,0,L|56:154,1,115.199996484375,2|0,0:3|0:0,0:0:0:0:
31,197,79804,1,0,1:0:0:0:
56,242,80059,2,0,P|94:257|169:242,1,115.199996484375,2|0,1:3|0:0,0:0:0:0:
256,192,81075,1,2,0:3:0:0:
256,192,82092,12,0,85143,0:0:0:0:
176,275,86160,22,0,P|228:258|285:278,1,115.199996484375,4|8,1:0|1:2,0:0:0:0:
323,309,86923,1,0,0:0:0:0:
372,293,87177,2,0,L|391:209,1,86.3999973632813,0|0,1:0|0:0,0:0:0:0:
438,147,87940,2,0,P|395:170|329:150,1,115.199996484375
299,114,88703,2,0,L|240:127,1,57.5999982421876,8|0,1:2|0:0,0:0:0:0:
211,167,89211,1,0,1:0:0:0:
138,139,89592,1,0,0:0:0:0:
74,183,89974,6,0,P|46:242|55:292,1,115.199996484375
76,335,90736,2,0,L|136:328,1,57.5999982421876,8|0,1:2|0:0,0:0:0:0:
165,287,91245,1,0,1:0:0:0:
224,336,91626,1,0,0:0:0:0:
293,300,92008,2,0,B|363:272|425:321|425:321|374:256|408:182,1,287.999991210938,0|0,0:0|1:0,0:0:0:0:
443,146,93533,2,0,L|498:165,2,57.5999982421876,2|8|2,0:3|1:0|0:3,0:0:0:0:
424,97,94296,102,0,P|368:90|316:117,1,115.199996484375,0|8,1:0|1:2,0:0:0:0:
279,152,95059,1,0,0:0:0:0:
234,126,95313,2,0,L|147:145,1,86.3999973632813,0|0,1:0|0:0,0:0:0:0:
86,99,96075,2,0,P|109:147|92:205,1,115.199996484375
63,247,96838,2,0,L|81:306,1,57.5999982421876,8|0,1:2|0:0,0:0:0:0:
129,318,97347,1,0,1:0:0:0:
194,275,97728,1,0,0:0:0:0:
247,331,98109,6,0,P|294:353|355:344,1,115.199996484375
398,315,98872,2,0,L|382:259,1,57.5999982421876,8|0,1:2|0:0,0:0:0:0:
414,218,99381,1,0,1:0:0:0:
446,147,99762,1,0,0:0:0:0:
382,102,100143,2,0,B|317:133|243:96|243:96|168:56|104:95,1,287.999991210938,0|0,0:0|1:0,0:0:0:0:
74,134,101669,2,0,L|16:122,2,57.5999982421876,2|8|2,0:3|1:0|0:3,0:0:0:0:
95,181,102431,102,0,P|117:239|98:289,1,115.199996484375,6|8,1:2|1:2,0:0:0:0:
73,331,103194,1,0,0:0:0:0:
101,374,103448,2,0,L|186:354,1,86.3999973632813,0|0,1:0|0:0,0:0:0:0:
259,376,104211,2,0,P|315:386|371:356,1,115.199996484375
403,325,104974,2,0,L|462:335,1,57.5999982421876,8|0,1:2|0:0,0:0:0:0:
492,294,105482,1,0,1:0:0:0:
464,221,105864,1,0,0:0:0:0:
388,238,106245,6,0,P|346:254|267:229,1,115.199996484375,2|0,0:0|0:0,0:0:0:0:
239,205,107008,2,0,L|253:146,1,57.5999982421876,8|0,1:2|0:0,0:0:0:0:
225,104,107516,1,0,1:0:0:0:
290,62,107898,1,0,0:0:0:0:
354,105,108279,2,0,B|319:298|319:298|388:237,1,287.999991210938,0|0,0:0|1:0,0:0:0:0:
436,219,109804,2,0,L|446:156,2,57.5999982421876,2|8|2,0:3|1:0|0:3,0:0:0:0:
478,249,110567,102,0,P|491:306|464:354,1,115.199996484375,0|8,1:0|1:2,0:0:0:0:
420,381,111330,1,0,0:0:0:0:
387,340,111584,2,0,L|302:363,1,86.3999973632813,0|0,1:0|0:0,0:0:0:0:
243,312,112347,2,0,P|194:293|135:318,1,115.199996484375,2|0,0:0|0:0,0:0:0:0:
100,350,113109,1,8,1:2:0:0:
26,277,113618,1,0,1:0:0:0:
47,229,113872,2,0,L|107:244,2,57.5999982421876,2|8|2,0:3|1:0|0:3,0:0:0:0:
16,187,114635,6,0,P|2:134|28:77,1,115.199996484375,0|8,1:0|1:2,0:0:0:0:
51,35,115398,1,0,0:0:0:0:
98,54,115652,2,0,L|186:35,1,86.3999973632813,0|0,1:0|0:0,0:0:0:0:
251,70,116414,2,0,P|308:84|360:64,1,115.199996484375,2|0,0:0|0:0,0:0:0:0:
395,27,117177,1,8,1:2:0:0:
475,92,117686,1,0,1:0:0:0:
444,133,117940,2,0,L|383:150,2,57.5999982421876,2|8|2,0:3|1:0|0:3,0:0:0:0:
472,176,118703,102,0,P|490:207|472:282,1,115.199996484375,0|0,1:0|0:0,0:0:0:0:
441,322,119465,1,0,0:0:0:0:
394,298,119720,2,0,L|305:318,1,86.3999973632813,0|0,0:0|0:0,0:0:0:0:
235,292,120482,2,0,P|206:242|220:184,1,115.199996484375
243,143,121245,37,0,0:0:0:0:
170,68,121753,1,0,0:0:0:0:
66,80,122262,1,2,0:0:0:0:
0,0,122770,101,2,3:2:0:0:
256,192,122898,12,2,126838,0:0:0:0:
72,204,130398,5,2,0:0:0:0:
139,282,130906,2,0,P|215:256|304:297,1,172.799994726563,2|0,0:0|0:0,0:0:0:0:
331,328,131923,2,0,L|419:311,1,86.3999973632813,0|0,0:0|0:0,0:0:0:0:
474,260,132686,2,0,P|486:215|459:148,1,115.199996484375,2|2,0:0|0:0,0:0:0:0:
427,115,133448,2,0,L|370:134,1,57.5999982421876,2|2,0:0|0:0,0:0:0:0:
347,178,133957,2,0,L|290:159,1,57.5999982421876,2|2,0:0|0:0,0:0:0:0:
270,112,134465,2,0,L|213:131,1,57.5999982421876,2|2,0:0|0:0,0:0:0:0:
197,179,134974,102,0,P|124:218|42:191,1,172.799994726563,2|0,0:0|0:0,0:0:0:0:
0,161,135991,2,0,L|19:245,1,86.3999973632813,0|0,0:0|0:0,0:0:0:0:
74,300,136753,2,0,P|134:306|188:290,1,115.199996484375
231,266,137516,2,0,L|217:326,1,57.5999982421876,0|0,0:0|0:0,0:0:0:0:
247,364,138025,2,0,P|277:375|308:371,1,57.5999982421876,0|0,0:0|0:0,0:0:0:0:
345,349,138533,5,2,0:0:0:0:
446,372,139042,2,0,B|431:317|431:317|452:268|452:268|436:208,1,172.799994726563,2|0,3:2|0:0,0:0:0:0:
449,157,140059,2,0,P|408:173|368:164,1,86.3999973632813,0|0,0:0|0:0,0:0:0:0:
320,102,140821,2,0,P|271:86|211:102,1,115.199996484375,2|2,0:0|0:0,0:0:0:0:
171,136,141584,2,0,L|192:190,1,57.5999982421876,2|2,0:0|0:0,0:0:0:0:
237,213,142092,2,0,L|216:267,1,57.5999982421876,2|2,0:0|0:0,0:0:0:0:
173,295,142601,2,0,L|194:349,1,57.5999982421876,2|2,0:0|0:0,0:0:0:0:
237,376,143109,102,0,P|171:336|80:353,1,172.799994726563,2|0,0:0|0:0,0:0:0:0:
38,383,144126,2,0,L|62:296,1,86.3999973632813
26,228,144889,2,0,P|8:173|28:120,1,115.199996484375
66,85,145652,2,0,L|120:103,1,57.5999982421876
159,68,146160,2,0,L|213:50,1,57.5999982421876,0|0,0:0|0:0,0:0:0:0:
250,85,146669,5,2,0:0:0:0:
330,20,147177,2,0,P|402:-3|479:51,1,172.799994726563,2|0,0:0|0:0,0:0:0:0:
493,97,148194,2,0,L|469:182,1,86.3999973632813,0|0,0:0|0:0,0:0:0:0:
509,247,148957,2,0,P|456:226|399:240,1,115.199996484375,2|2,0:0|0:0,0:0:0:0:
363,274,149720,2,0,L|308:257,1,57.5999982421876,2|2,0:0|0:0,0:0:0:0:
280,213,150228,2,0,L|222:225,1,57.5999982421876,2|2,0:0|0:0,0:0:0:0:
191,265,150736,2,0,L|133:253,1,57.5999982421876,2|2,0:0|0:0,0:0:0:0:
110,207,151245,102,0,P|75:130|111:55,1,172.799994726563,2|0,0:0|0:0,0:0:0:0:
152,22,152262,2,0,L|239:42,1,86.3999973632813,0|0,0:0|0:0,0:0:0:0:
308,12,153025,2,0,P|285:63|306:120,1,115.199996484375,0|0,0:0|0:0,0:0:0:0:
335,157,153787,1,0,0:0:0:0:
414,224,154296,1,0,0:0:0:0:
376,260,154550,2,0,L|392:321,2,57.5999982421876,0|0|0,0:0|0:0|0:0,0:0:0:0:
323,243,155313,6,0,P|272:230|214:251,1,115.199996484375,2|0,0:0|0:0,0:0:0:0:
174,282,156116,1,0,0:0:0:0:
132,250,156384,2,0,L|150:153,1,86.3999973632813,0|0,0:0|0:0,0:0:0:0:
190,100,157188,2,0,P|133:116|83:97,1,115.199996484375
34,80,157991,2,0,L|40:139,1,57.5999982421876
67,183,158527,1,0,0:0:0:0:
18,243,158929,2,0,P|14:285|32:327,1,86.3999973632813
69,355,159598,102,0,L|189:332,1,115.199996484375,2|0,0:0|0:0,0:0:0:0:
227,358,160447,1,0,0:0:0:0:
266,324,160730,2,0,P|308:306|348:310,1,86.3999973632813
400,367,161579,2,0,B|336:297|376:205|376:205|401:146|366:97,1,287.999991210938
325,66,163271,2,0,L|342:6,2,57.5999982421876
270,86,164105,6,0,P|209:104|153:76,1,128,2|0,0:0|0:0,0:0:0:0:
107,42,164938,1,0,0:0:0:0:
55,68,165216,2,0,L|77:152,1,86.3999973632813
53,225,166049,2,0,P|111:206|166:233,1,115.199996484375
195,264,166882,2,0,L|253:253,1,57.5999982421876
284,210,167438,1,0,0:0:0:0:
354,242,167897,2,0,P|375:272|369:340,1,86.3999973632813
362,364,168662,101,2,0:0:0:0:
463,313,169343,1,2,0:0:0:0:
468,198,170025,1,2,0:0:0:0:
373,135,170707,2,0,P|336:78|400:11,1,172.799994726563
437,30,172040,6,0,B|380:213|380:213|425:283|425:283|401:349,1,345.599989453125,0|2,0:0|0:0,0:0:0:0:
256,384,175391,37,2,0:0:0:0:
176,297,176072,6,0,P|125:282|67:303,1,115.199996484375,2|2,0:0|0:0,0:0:0:0:
0,379,177595,101,2,0:0:0:0:
256,192,177862,12,0,181880,0:0:0:0:
