osu file format v14

[General]
AudioFilename: audio.mp3
AudioLeadIn: 0
PreviewTime: 33025
Countdown: 0
SampleSet: Soft
StackLeniency: 0.7
Mode: 0
LetterboxInBreaks: 0
StoryFireInFront: 0
EpilepsyWarning: 1
WidescreenStoryboard: 1

[Editor]
Bookmarks: 737,17008,33279,49550,65821,73957,82092,85143,86160,102431,118703,122770,126838,130906,139042,147177,155313,174408,177595,181880
DistanceSpacing: 1
BeatDivisor: 4
GridSize: 32
TimelineZoom: 1

[Metadata]
Title:Over the Skyblue
TitleUnicode:Over the Skyblue
Artist:Noriko Mitose
ArtistUnicode:みとせのりこ
Creator:Daoski
Version:Aoi
Source:あの晴れわたる空より高く
Tags:taishi kskb440 & kato.yosihal el dorado electro.muster chill ano harewataru sora yori takaku ed ending
BeatmapID:1971301
BeatmapSetID:943935

[Difficulty]
HPDrainRate:5
CircleSize:4.3
OverallDifficulty:6
ApproachRate:7
SliderMultiplier:1.28
SliderTickRate:2

[Events]
//Background and Video events
0,0,"bg.png",0,0
//Break Periods
2,66021,73057
2,127038,129498
//Storyboard Layer 0 (Background)
//Storyboard Layer 1 (Fail)
//Storyboard Layer 2 (Pass)
//Storyboard Layer 3 (Foreground)
Sprite,Foreground,Centre,"sb\ring.png",0,0 M,0,175391,,412,242 C,0,175391,,207,207,207 S,2,175391,176391,0.24,1.44 P,0,175391,176391,A F,2,175891,176391,1,0
Sprite,Foreground,Centre,"sb\ring.png",0,0 M,0,176072,,272,182 C,0,176072,,160,160,160 S,2,176072,177072,0.24,1.44 P,0,176072,177072,A F,2,176572,177072,1,0
Sprite,Foreground,Centre,"sb\ring.png",0,0 M,0,176672,,355,121 C,0,176672,,207,207,207 S,2,176672,177672,0.24,1.44 P,0,176672,177672,A F,2,177172,177672,1,0
Sprite,Foreground,Centre,"sb\ring.png",0,0 M,0,177595,,320,56 C,0,177595,,160,160,160 S,2,177595,178595,0.24,1.44 P,0,177595,178595,A F,2,178095,178595,1,0
Sprite,Foreground,Centre,"sb\star.png",0,0 C,0,130398,,9,122,206 M,0,130398,130461,196,212,201.6599,219.7047 F,2,130398,130779,1 S,2,130398,130779,1.2,0.6 P,0,130398,130779,A M,0,130461,130525,201.6599,219.7047,205.9806,228.2098 M,0,130525,130588,205.9806,228.2098,208.8534,237.2899 M,0,130588,130652,208.8534,237.2899,210.2065,246.7054 M,0,130652,130715,210.2065,246.7054,210.007,256.2086 M,0,130715,130779,210.007,256.2086,209,265
Sprite,Foreground,Centre,"sb\star.png",0,0 C,0,130906,,9,122,206 M,0,130906,130969,188,293,197.3941,291.0223 F,2,130906,132431,1 S,2,130906,132431,1.2,0.6 P,0,130906,132431,A M,0,130969,131033,197.3941,291.0223,206.7882,289.0446 M,0,131033,131096,206.7882,289.0446,216.1822,287.0669 M,0,131096,131160,216.1822,287.0669,225.5763,285.0892 M,0,131160,131223,225.5763,285.0892,234.9704,283.1115 M,0,131223,131287,234.9704,283.1115,244.3645,281.1338 M,0,131287,131350,244.3645,281.1338,253.7585,279.1561 M,0,131350,131414,253.7585,279.1561,263.1526,277.1784 M,0,131414,131478,263.1526,277.1784,271.1605,282.001 M,0,131478,131541,271.1605,282.001,279.031,287.4979 M,0,131541,131605,279.031,287.4979,286.9015,292.9947 M,0,131605,131668,286.9015,292.9947,294.772,298.4916 M,0,131668,131732,294.772,298.4916,302.6425,303.9884 M,0,131732,131795,302.6425,303.9884,310.513,309.4853 M,0,131795,131859,310.513,309.4853,318.3835,314.9821 M,0,131859,131922,318.3835,314.9821,326.254,320.479 M,0,131922,131986,326.254,320.479,335.5425,319.4054 M,0,131986,132050,335.5425,319.4054,344.9795,317.6438 M,0,132050,132113,344.9795,317.6438,354.4165,315.8823 M,0,132113,132177,354.4165,315.8823,363.8535,314.1207 M,0,132177,132240,363.8535,314.1207,373.2905,312.3591 M,0,132240,132304,373.2905,312.3591,382.7275,310.5975 M,0,132304,132367,382.7275,310.5975,392.1645,308.836 M,0,132367,132431,392.1645,308.836,401.6014,307.0744
Sprite,Foreground,Centre,"sb\star.png",0,0 C,0,132686,,9,122,206 M,0,132686,132749,454,254,457.0843,244.9291 F,2,132686,133194,1 S,2,132686,133194,1.2,0.6 P,0,132686,133194,A M,0,132749,132813,457.0843,244.9291,459.0175,235.5552 M,0,132813,132876,459.0175,235.5552,459.7721,226.0225 M,0,132876,132940,459.7721,226.0225,459.3382,216.4772 M,0,132940,133003,459.3382,216.4772,457.7241,207.0655 M,0,133003,133067,457.7241,207.0655,454.9557,197.9317 M,0,133067,133130,454.9557,197.9317,451.0765,189.2155 M,0,133130,133194,451.0765,189.2155,446.501,180.7991
Sprite,Foreground,Centre,"sb\star.png",403,122 F,2,133448,,1 S,2,133448,,1.2,0.6 C,0,133448,,9,122,206 P,0,133448,,A
Sprite,Foreground,Centre,"sb\star.png",344,165 F,2,133703,,1 S,2,133703,,1.2,0.6 C,0,133703,,9,122,206 P,0,133703,,A
Sprite,Foreground,Centre,"sb\star.png",0,0 C,0,133957,,9,122,206 M,0,133957,134020,387,224,384.0384,233.1317 F,2,133957,134211,1 S,2,133957,134211,1.2,0.6 P,0,133957,134211,A M,0,134020,134084,384.0384,233.1317,381.0767,242.2635 M,0,134084,134147,381.0767,242.2635,378.1151,251.3952 M,0,134147,134211,378.1151,251.3952,375.1534,260.5269
Sprite,Foreground,Centre,"sb\star.png",0,0 C,0,134465,,9,122,206 M,0,134465,134528,313,300,315.9616,309.1317 F,2,134465,134719,1 S,2,134465,134719,1.2,0.6 P,0,134465,134719,A M,0,134528,134592,315.9616,309.1317,318.9233,318.2635 M,0,134592,134655,318.9233,318.2635,321.8849,327.3952 M,0,134655,134719,321.8849,327.3952,324.8466,336.5269
Sprite,Foreground,Centre,"sb\star.png",0,0 C,0,134974,,62,158,217 M,0,134974,135037,398,371,389.0646,367.4942 F,2,134974,136753,1 S,2,134974,136753,1.2,0.6 P,0,134974,136753,A M,0,135037,135101,389.0646,367.4942,379.9291,364.5496 M,0,135101,135164,379.9291,364.5496,370.6143,362.2357 M,0,135164,135228,370.6143,362.2357,361.1536,360.6204 M,0,135228,135291,361.1536,360.6204,351.5946,359.7644 M,0,135291,135355,351.5946,359.7644,341.9978,359.7175 M,0,135355,135418,341.9978,359.7175,332.4337,360.5087 M,0,135418,135482,332.4337,360.5087,322.9774,362.1452 M,0,135482,135546,322.9774,362.1452,313.7009,364.6046 M,0,135546,135609,313.7009,364.6046,304.6666,367.843 M,0,135609,135673,304.6666,367.843,295.9223,371.7989 M,0,135673,135736,295.9223,371.7989,287.5001,376.4017 M,0,135736,135800,287.5001,376.4017,279.4168,381.5772 M,0,135800,135863,279.4168,381.5772,271.6772,387.2543 M,0,135863,135927,271.6772,387.2543,263.9659,392.9697 M,0,135927,135990,263.9659,392.9697,255.9025,398.1759 M,0,135990,136054,255.9025,398.1759,247.4915,402.799 M,0,136054,136118,247.4915,402.799,238.751,406.763 M,0,136118,136181,238.751,406.763,229.7145,409.995 M,0,136181,136245,229.7145,409.995,220.4324,412.4328 M,0,136245,136308,220.4324,412.4328,210.9703,414.034 M,0,136308,136372,210.9703,414.034,201.4026,414.7805 M,0,136372,136435,201.4026,414.7805,191.8062,414.6813 M,0,136435,136499,191.8062,414.6813,182.2523,413.7702 M,0,136499,136562,182.2523,413.7702,172.8013,412.0995 M,0,136562,136626,172.8013,412.0995,163.4993,409.7346 M,0,136626,136690,163.4993,409.7346,154.3787,406.7444 M,0,136690,136753,154.3787,406.7444,145.459,403.1987
Sprite,Foreground,Centre,"sb\star.png",0,0 C,0,137008,,62,158,217 M,0,137008,137071,99,346,103.9285,337.7755 F,2,137008,137770,1 S,2,137008,137770,1.2,0.6 P,0,137008,137770,A M,0,137071,137135,103.9285,337.7755,108.0944,329.1465 M,0,137135,137198,108.0944,329.1465,111.4654,320.1822 M,0,137198,137262,111.4654,320.1822,114.0152,310.9544 M,0,137262,137325,114.0152,310.9544,115.7238,301.5369 M,0,137325,137389,115.7238,301.5369,116.8852,292.0197 M,0,137389,137452,116.8852,292.0197,116.7687,282.4331 M,0,137452,137516,116.7687,282.4331,115.7909,272.9019 M,0,137516,137580,115.7909,272.9019,113.9604,263.5018 M,0,137580,137643,113.9604,263.5018,111.2925,254.3079 M,0,137643,137707,111.2925,254.3079,107.8089,245.3934 M,0,137707,137770,107.8089,245.3934,104,237
Sprite,Foreground,Centre,"sb\star.png",0,0 C,0,138025,,62,158,217 M,0,138025,138088,64,174,66.32834,164.6866 F,2,138025,138279,1 S,2,138025,138279,1.2,0.6 P,0,138025,138279,A M,0,138088,138152,66.32834,164.6866,68.65668,155.3733 M,0,138152,138215,68.65668,155.3733,70.98502,146.0599 M,0,138215,138279,70.98502,146.0599,73.31337,136.7465
Sprite,Foreground,Centre,"sb\star.png",0,0 C,0,138533,,9,122,206 M,0,138533,138596,136,84,145.0128,80.74093 F,2,138533,138914,1 S,2,138533,138914,1.2,0.6 P,0,138533,138914,A M,0,138596,138660,145.0128,80.74093,154.3208,78.493 M,0,138660,138723,154.3208,78.493,163.8123,77.28162 M,0,138723,138787,163.8123,77.28162,173.3736,77.12003 M,0,138787,138850,173.3736,77.12003,182.8904,78.00912 M,0,138850,138914,182.8904,78.00912,192.3394,79.6172
Sprite,Foreground,Centre,"sb\star.png",0,0 C,0,139042,,9,122,206 M,0,139042,139105,224,98,232.7426,101.9597 F,2,139042,140567,1 S,2,139042,140567,1.2,0.6 P,0,139042,140567,A M,0,139105,139169,232.7426,101.9597,241.7812,105.1857 M,0,139169,139232,241.7812,105.1857,251.075,107.5761 M,0,139232,139296,251.075,107.5761,260.5582,109.0423 M,0,139296,139359,260.5582,109.0423,270.1418,109.5194 M,0,139359,139423,270.1418,109.5194,279.722,108.9786 M,0,139423,139486,279.722,108.9786,289.1934,107.439 M,0,139486,139550,289.1934,107.439,298.4633,104.9583 M,0,139550,139614,298.4633,104.9583,307.4617,101.6225 M,0,139614,139677,307.4617,101.6225,316.1439,97.53242 M,0,139677,139741,316.1439,97.53242,324.6375,98.94128 M,0,139741,139804,324.6375,98.94128,333.1487,103.3819 M,0,139804,139868,333.1487,103.3819,341.6599,107.8225 M,0,139868,139931,341.6599,107.8225,350.2929,103.9837 M,0,139931,139995,350.2929,103.9837,359.2301,100.4862 M,0,139995,140058,359.2301,100.4862,368.4382,97.78302 M,0,140058,140122,368.4382,97.78302,377.8587,95.9553 M,0,140122,140186,377.8587,95.9553,387.4134,95.06764 M,0,140186,140249,387.4134,95.06764,397.0089,95.14823 M,0,140249,140313,397.0089,95.14823,406.5482,96.19006 M,0,140313,140376,406.5482,96.19006,415.9431,98.14646 M,0,140376,140440,415.9431,98.14646,425.122,100.948 M,0,140440,140503,425.122,100.948,434.0364,104.5039 M,0,140503,140567,434.0364,104.5039,442.6573,108.7226
Sprite,Foreground,Centre,"sb\star.png",0,0 C,0,140821,,9,122,206 M,0,140821,140884,504,155,502.0469,164.3992 F,2,140821,141329,1 S,2,140821,141329,1.2,0.6 P,0,140821,141329,A M,0,140884,140948,502.0469,164.3992,500.0938,173.7985 M,0,140948,141011,500.0938,173.7985,498.1407,183.1977 M,0,141011,141075,498.1407,183.1977,496.1877,192.5969 M,0,141075,141138,496.1877,192.5969,494.2346,201.9961 M,0,141138,141202,494.2346,201.9961,492.2815,211.3954 M,0,141202,141265,492.2815,211.3954,490.3284,220.7946 M,0,141265,141329,490.3284,220.7946,488.3753,230.1938
Sprite,Foreground,Centre,"sb\star.png",434,285 F,2,141584,,1 S,2,141584,,1.2,0.6 C,0,141584,,9,122,206 P,0,141584,,A
Sprite,Foreground,Centre,"sb\star.png",374,241 F,2,141838,,1 S,2,141838,,1.2,0.6 C,0,141838,,9,122,206 P,0,141838,,A
Sprite,Foreground,Centre,"sb\star.png",0,0 C,0,142092,,9,122,206 M,0,142092,142155,314,289,304.7132,286.5677 F,2,142092,142346,1 S,2,142092,142346,1.2,0.6 P,0,142092,142346,A M,0,142155,142219,304.7132,286.5677,295.4265,284.1355 M,0,142219,142282,295.4265,284.1355,286.1397,281.7032 M,0,142282,142346,286.1397,281.7032,276.8529,279.271
Sprite,Foreground,Centre,"sb\star.png",0,0 C,0,142601,,9,122,206 M,0,142601,142664,235,221,225.7132,223.4323 F,2,142601,142855,1 S,2,142601,142855,1.2,0.6 P,0,142601,142855,A M,0,142664,142728,225.7132,223.4323,216.4265,225.8645 M,0,142728,142791,216.4265,225.8645,207.1397,228.2968 M,0,142791,142855,207.1397,228.2968,197.8529,230.729
Sprite,Foreground,Centre,"sb\star.png",0,0 C,0,143109,,62,158,217 M,0,143109,143172,152,288,156.4721,279.5063 F,2,143109,144888,1 S,2,143109,144888,1.2,0.6 P,0,143109,144888,A M,0,143172,143236,156.4721,279.5063,160.5237,270.8043 M,0,143236,143299,160.5237,270.8043,164.1194,261.9044 M,0,143299,143363,164.1194,261.9044,167.2253,252.8221 M,0,143363,143426,167.2253,252.8221,169.8077,243.5774 M,0,143426,143490,169.8077,243.5774,171.8385,234.1962 M,0,143490,143553,171.8385,234.1962,173.2953,224.709 M,0,143553,143617,173.2953,224.709,174.1636,215.1499 M,0,143617,143681,174.1636,215.1499,174.4383,205.5555 M,0,143681,143744,174.4383,205.5555,174.12,195.9623 M,0,143744,143808,174.12,195.9623,173.2219,186.4059 M,0,143808,143871,173.2219,186.4059,171.7637,176.9187 M,0,143871,143935,171.7637,176.9187,169.7713,167.529 M,0,143935,143998,169.7713,167.529,167.2728,158.261 M,0,143998,144062,167.2728,158.261,164.3036,149.1328 M,0,144062,144125,164.3036,149.1328,160.8975,140.1584 M,0,144125,144189,160.8975,140.1584,157.089,131.3471 M,0,144189,144253,157.089,131.3471,152.91,122.7052 M,0,144253,144316,152.91,122.7052,148.3932,114.2348 M,0,144316,144380,148.3932,114.2348,143.5679,105.9362 M,0,144380,144443,143.5679,105.9362,148.8328,111.1866 M,0,144443,144507,148.8328,111.1866,156.0229,117.5413 M,0,144507,144570,156.0229,117.5413,163.8544,123.0846 M,0,144570,144634,163.8544,123.0846,172.2822,127.6692 M,0,144634,144697,172.2822,127.6692,181.2115,131.1771 M,0,144697,144761,181.2115,131.1771,190.5075,133.5493 M,0,144761,144825,190.5075,133.5493,200.021,134.7944 M,0,144825,144888,200.021,134.7944,209,135
Sprite,Foreground,Centre,"sb\star.png",0,0 C,0,145143,,62,158,217 M,0,145143,145206,259,79,267.4742,74.52715 F,2,145143,145905,1 S,2,145143,145905,1.2,0.6 P,0,145143,145905,A M,0,145206,145270,267.4742,74.52715,276.3852,71.02907 M,0,145270,145333,276.3852,71.02907,285.6231,68.54711 M,0,145333,145397,285.6231,68.54711,295.0744,67.11047 M,0,145397,145460,295.0744,67.11047,304.623,66.73581 M,0,145460,145524,304.623,66.73581,314.1516,67.42715 M,0,145524,145587,314.1516,67.42715,323.608,68.87807 M,0,145587,145651,323.608,68.87807,332.729,71.79123 M,0,145651,145715,332.729,71.79123,341.4617,75.69881 M,0,145715,145778,341.4617,75.69881,349.6995,80.55168 M,0,145778,145842,349.6995,80.55168,357.3419,86.28944 M,0,145842,145905,357.3419,86.28944,364.5699,92.58411
Sprite,Foreground,Centre,"sb\star.png",0,0 C,0,146160,,62,158,217 M,0,146160,146223,424,136,433.5035,134.6424 F,2,146160,146414,1 S,2,146160,146414,1.2,0.6 P,0,146160,146414,A M,0,146223,146287,433.5035,134.6424,443.007,133.2847 M,0,146287,146350,443.007,133.2847,452.5106,131.9271 M,0,146350,146414,452.5106,131.9271,462.0141,130.5694
Sprite,Foreground,Centre,"sb\star.png",0,0 C,0,146669,,9,122,206 M,0,146669,146732,528,163,532.3065,171.5414 F,2,146669,147050,1 S,2,146669,147050,1.2,0.6 P,0,146669,147050,A M,0,146732,146796,532.3065,171.5414,535.168,180.6504 M,0,146796,146859,535.168,180.6504,536.5143,190.0874 M,0,146859,146923,536.5143,190.0874,536.3142,199.6052 M,0,146923,146986,536.3142,199.6052,534.5764,208.9548 M,0,146986,147050,534.5764,208.9548,531.7721,218.1016
Sprite,Foreground,Centre,"sb\star.png",0,0 C,0,147177,,9,122,206 M,0,147177,147240,518,238,513.5425,246.4962 F,2,147177,148702,1 S,2,147177,148702,1.2,0.6 P,0,147177,148702,A M,0,147240,147304,513.5425,246.4962,510.1766,255.4792 M,0,147304,147367,510.1766,255.4792,508.0738,264.8376 M,0,147367,147431,508.0738,264.8376,507.3345,274.4007 M,0,147431,147494,507.3345,274.4007,507.956,283.9729 M,0,147494,147558,507.956,283.9729,509.8338,293.381 M,0,147558,147621,509.8338,293.381,512.8033,302.5051 M,0,147621,147685,512.8033,302.5051,516.6818,311.2829 M,0,147685,147749,516.6818,311.2829,521.3027,319.6946 M,0,147749,147812,521.3027,319.6946,522.3217,328.196 M,0,147812,147876,522.3217,328.196,518.7562,337.1093 M,0,147876,147939,518.7562,337.1093,515.1909,346.0227 M,0,147939,148003,515.1909,346.0227,512.4786,354.8873 M,0,148003,148066,512.4786,354.8873,516.7654,363.4755 M,0,148066,148130,516.7654,363.4755,520.4997,372.3174 M,0,148130,148193,520.4997,372.3174,523.5922,381.4032 M,0,148193,148257,523.5922,381.4032,525.9432,390.7079 M,0,148257,148321,525.9432,390.7079,527.4503,400.1852 M,0,148321,148384,527.4503,400.1852,528.022,409.764 M,0,148384,148448,528.022,409.764,527.59,419.3496 M,0,148448,148511,527.59,419.3496,526.1234,428.8321 M,0,148511,148575,526.1234,428.8321,523.6411,438.1008 M,0,148575,148638,523.6411,438.1008,519.9556,433.0414 M,0,148638,148702,519.9556,433.0414,516.1077,424.2462
Sprite,Foreground,Centre,"sb\star.png",0,0 C,0,148957,,9,122,206 M,0,148957,149020,450,392,441.1972,388.2229 F,2,148957,149465,1 S,2,148957,149465,1.2,0.6 P,0,148957,149465,A M,0,149020,149084,441.1972,388.2229,431.9867,385.6318 M,0,149084,149147,431.9867,385.6318,422.5259,384.2686 M,0,149147,149211,422.5259,384.2686,412.9763,384.1543 M,0,149211,149274,412.9763,384.1543,403.5005,385.2891 M,0,149274,149338,403.5005,385.2891,394.2599,387.6523 M,0,149338,149401,394.2599,387.6523,385.4116,391.2024 M,0,149401,149465,385.4116,391.2024,376.8522,395.4995
Sprite,Foreground,Centre,"sb\star.png",320,440 F,2,149720,,1 S,2,149720,,1.2,0.6 C,0,149720,,9,122,206 P,0,149720,,A
Sprite,Foreground,Centre,"sb\star.png",263,396 F,2,149974,,1 S,2,149974,,1.2,0.6 C,0,149974,,9,122,206 P,0,149974,,A
Sprite,Foreground,Centre,"sb\star.png",0,0 C,0,150228,,9,122,206 M,0,150228,150291,302,334,299.3034,324.7865 F,2,150228,150482,1 S,2,150228,150482,1.2,0.6 P,0,150228,150482,A M,0,150291,150355,299.3034,324.7865,296.6068,315.5731 M,0,150355,150418,296.6068,315.5731,293.9101,306.3596 M,0,150418,150482,293.9101,306.3596,291.2135,297.1461
Sprite,Foreground,Centre,"sb\star.png",0,0 C,0,150736,,9,122,206 M,0,150736,150799,337,238,339.6966,228.7865 F,2,150736,150990,1 S,2,150736,150990,1.2,0.6 P,0,150736,150990,A M,0,150799,150863,339.6966,228.7865,342.3932,219.573 M,0,150863,150926,342.3932,219.573,345.0899,210.3596 M,0,150926,150990,345.0899,210.3596,347.7865,201.1461
Sprite,Foreground,Centre,"sb\star.png",0,0 C,0,151245,,62,158,217 M,0,151245,151308,297,145,288.1731,141.2271 F,2,151245,153024,1 S,2,151245,153024,1.2,0.6 P,0,151245,153024,A M,0,151308,151372,288.1731,141.2271,279.2067,137.7993 M,0,151372,151435,279.2067,137.7993,270.1061,134.7454 M,0,151435,151499,270.1061,134.7454,260.8824,132.087 M,0,151499,151562,260.8824,132.087,251.5471,129.8522 M,0,151562,151626,251.5471,129.8522,242.1167,128.0604 M,0,151626,151689,242.1167,128.0604,232.6099,126.7336 M,0,151689,151753,232.6099,126.7336,223.0483,125.8891 M,0,151753,151817,223.0483,125.8891,213.4558,125.539 M,0,151817,151880,213.4558,125.539,203.8582,125.694 M,0,151880,151944,203.8582,125.694,194.2822,126.3552 M,0,151944,152007,194.2822,126.3552,184.7542,127.519 M,0,152007,152071,184.7542,127.519,175.3,129.1798 M,0,152071,152134,175.3,129.1798,165.9434,131.3227 M,0,152134,152198,165.9434,131.3227,156.7053,133.93 M,0,152198,152261,156.7053,133.93,147.6039,136.9809 M,0,152261,152325,147.6039,136.9809,138.6541,140.4514 M,0,152325,152389,138.6541,140.4514,129.8683,144.3184 M,0,152389,152452,129.8683,144.3184,121.254,148.5539 M,0,152452,152516,121.254,148.5539,112.817,153.1326 M,0,152516,152579,112.817,153.1326,104.5604,158.0294 M,0,152579,152643,104.5604,158.0294,109.9949,155.6404 M,0,152643,152706,109.9949,155.6404,119.0164,152.3739 M,0,152706,152770,119.0164,152.3739,128.3625,150.2072 M,0,152770,152833,128.3625,150.2072,137.9051,149.2182 M,0,152833,152897,137.9051,149.2182,147.497,149.4172 M,0,152897,152961,147.497,149.4172,156.9995,150.7454 M,0,152961,153024,156.9995,150.7454,166,153
Sprite,Foreground,Centre,"sb\star.png",0,0 C,0,153279,,62,158,217 M,0,153279,153342,224,203,228.4149,211.5127 F,2,153279,154041,1 S,2,153279,154041,1.2,0.6 P,0,153279,154041,A M,0,153342,153406,228.4149,211.5127,232.0861,220.3657 M,0,153406,153469,232.0861,220.3657,234.988,229.4952 M,0,153469,153533,234.988,229.4952,237.1003,238.8357 M,0,153533,153596,237.1003,238.8357,238.4082,248.3201 M,0,153596,153660,238.4082,248.3201,239.2089,257.8776 M,0,153660,153723,239.2089,257.8776,238.7841,267.4575 M,0,153723,153787,238.7841,267.4575,237.545,276.961 M,0,153787,153851,237.545,276.961,235.5013,286.3201 M,0,153851,153914,235.5013,286.3201,232.6681,295.4677 M,0,153914,153978,232.6681,295.4677,229.0661,304.3384 M,0,153978,154041,229.0661,304.3384,225,313
Sprite,Foreground,Centre,"sb\star.png",177,369 F,2,154296,,1 S,2,154296,,1.2,0.6 C,0,154296,,62,158,217 P,0,154296,,A
Sprite,Foreground,Centre,"sb\star.png",0,0 C,0,154550,,62,158,217 M,0,154550,154613,224,424,233.3659,421.8927 F,2,154550,154804,1 S,2,154550,154804,1.2,0.6 P,0,154550,154804,A M,0,154613,154677,233.3659,421.8927,242.7317,419.7854 M,0,154677,154740,242.7317,419.7854,252.0976,417.678 M,0,154740,154804,252.0976,417.678,261.4634,415.5707
Sprite,Foreground,Centre,"sb\star.png",290,347 F,2,155059,,1 S,2,155059,,1.2,0.6 C,0,155059,,62,158,217 P,0,155059,,A
Sprite,Foreground,Centre,"sb\star.png",0,0 C,0,155313,,9,122,206 M,0,155313,155379,384,391,393.2128,393.6344 F,2,155313,155714,1 S,2,155313,155714,1.2,0.6 P,0,155313,155714,A M,0,155379,155446,393.2128,393.6344,402.6544,395.2131 M,0,155446,155513,402.6544,395.2131,412.2062,395.718 M,0,155513,155580,412.2062,395.718,421.7481,395.144 M,0,155580,155647,421.7481,395.144,431.1605,393.4994 M,0,155647,155714,431.1605,393.4994,440.4567,391.1672
Sprite,Foreground,Centre,"sb\star.png",0,0 C,0,155848,,9,122,206 M,0,155848,155914,454,383,451.731,373.672 F,2,155848,156115,1 S,2,155848,156115,1.2,0.6 P,0,155848,156115,A M,0,155914,155981,451.731,373.672,449.462,364.344 M,0,155981,156048,449.462,364.344,447.1931,355.016 M,0,156048,156115,447.1931,355.016,445,346
Sprite,Foreground,Centre,"sb\star.png",0,0 C,0,156384,,9,122,206 M,0,156384,156450,380,311,382.269,301.672 F,2,156384,156651,1 S,2,156384,156651,1.2,0.6 P,0,156384,156651,A M,0,156450,156517,382.269,301.672,384.538,292.344 M,0,156517,156584,384.538,292.344,386.8069,283.016 M,0,156584,156651,386.8069,283.016,389,274
Sprite,Foreground,Centre,"sb\star.png",403,263 F,2,156786,,1 S,2,156786,,1.2,0.6 C,0,156786,,9,122,206 P,0,156786,,A
Sprite,Foreground,Centre,"sb\star.png",0,0 C,0,157188,,62,158,217 M,0,157188,157254,327,204,318.6478,199.3107 F,2,157188,157723,1 S,2,157188,157723,1.2,0.6 P,0,157188,157723,A M,0,157254,157321,318.6478,199.3107,309.8085,195.6496 M,0,157321,157388,309.8085,195.6496,300.6052,193.0653 M,0,157388,157455,300.6052,193.0653,291.1661,191.5925 M,0,157455,157522,291.1661,191.5925,281.622,191.2505 M,0,157522,157589,281.622,191.2505,272.0739,191.7545 M,0,157589,157656,272.0739,191.7545,262.7315,193.8283 M,0,157656,157723,262.7315,193.8283,253.7096,196.993
Sprite,Foreground,Centre,"sb\star.png",199,243 F,2,157991,,1 S,2,157991,,1.2,0.6 C,0,157991,,62,158,217 P,0,157991,,A
Sprite,Foreground,Centre,"sb\star.png",138,204 F,2,158259,,1 S,2,158259,,1.2,0.6 C,0,158259,,62,158,217 P,0,158259,,A
Sprite,Foreground,Centre,"sb\star.png",0,0 C,0,158527,,62,158,217 M,0,158527,158593,92,261,94.60602,270.2395 F,2,158527,158794,1 S,2,158527,158794,1.2,0.6 P,0,158527,158794,A M,0,158593,158660,94.60602,270.2395,97.21204,279.479 M,0,158660,158727,97.21204,279.479,99.81805,288.7186 M,0,158727,158794,99.81805,288.7186,102.4241,297.9581
Sprite,Foreground,Centre,"sb\star.png",0,0 C,0,158929,,62,158,217 M,0,158929,158995,98,320,106.7838,316.1942 F,2,158929,159330,1 S,2,158929,159330,1.2,0.6 P,0,158929,159330,A M,0,158995,159062,106.7838,316.1942,116.0037,313.6721 M,0,159062,159129,116.0037,313.6721,125.4759,312.4804 M,0,159129,159196,125.4759,312.4804,135.0118,312.6402 M,0,159196,159263,135.0118,312.6402,144.422,314.1461 M,0,159263,159330,144.422,314.1461,153.6887,316.5556
Sprite,Foreground,Centre,"sb\star.png",0,0 C,0,159598,,9,122,206 M,0,159598,159668,201,377,198.4953,386.2675 F,2,159598,160164,1 S,2,159598,160164,1.2,0.6 P,0,159598,160164,A M,0,159668,159739,198.4953,386.2675,195.9905,395.535 M,0,159739,159810,195.9905,395.535,193.4858,404.8025 M,0,159810,159881,193.4858,404.8025,191,414 M,0,159881,159951,191,414,193.4858,404.8025 M,0,159951,160022,193.4858,404.8025,195.9905,395.535 M,0,160022,160093,195.9905,395.535,198.4953,386.2675 M,0,160093,160164,198.4953,386.2675,201,377
Sprite,Foreground,Centre,"sb\star.png",263,328 F,2,160447,,1 S,2,160447,,1.2,0.6 C,0,160447,,9,122,206 P,0,160447,,A
Sprite,Foreground,Centre,"sb\star.png",0,0 C,0,160730,,9,122,206 M,0,160730,160800,214,269,216.5047,259.7325 F,2,160730,161013,1 S,2,160730,161013,1.2,0.6 P,0,160730,161013,A M,0,160800,160871,216.5047,259.7325,219.0095,250.465 M,0,160871,160942,219.0095,250.465,221.5142,241.1975 M,0,160942,161013,221.5142,241.1975,224,232
Sprite,Foreground,Centre,"sb\star.png",215,216 F,2,161154,,1 S,2,161154,,1.2,0.6 C,0,161154,,9,122,206 P,0,161154,,A
Sprite,Foreground,Centre,"sb\star.png",0,0 C,0,161579,,62,158,217 M,0,161579,161649,297,144,305.3649,148.7024 F,2,161579,162994,1 S,2,161579,162994,1.2,0.6 P,0,161579,162994,A M,0,161649,161720,305.3649,148.7024,314.1749,152.5034 M,0,161720,161791,314.1749,152.5034,323.3661,155.2546 M,0,161791,161862,323.3661,155.2546,332.826,156.8493 M,0,161862,161932,332.826,156.8493,342.4119,157.2337 M,0,161932,162003,342.4119,157.2337,351.9727,156.4339 M,0,162003,162074,351.9727,156.4339,361.3785,154.5378 M,0,162074,162145,361.3785,154.5378,370.5378,151.6755 M,0,162145,162215,370.5378,151.6755,379.3968,147.9849 M,0,162215,162286,379.3968,147.9849,387.9348,143.6012 M,0,162286,162357,387.9348,143.6012,396.3516,138.9876 M,0,162357,162428,396.3516,138.9876,405.1091,135.0625 M,0,162428,162498,405.1091,135.0625,414.1888,131.9564 M,0,162498,162569,414.1888,131.9564,423.5302,129.762 M,0,162569,162640,423.5302,129.762,433.0487,128.549 M,0,162640,162711,433.0487,128.549,442.6422,128.3526 M,0,162711,162781,442.6422,128.3526,452.2039,129.1589 M,0,162781,162852,452.2039,129.1589,461.6382,130.9147 M,0,162852,162923,461.6382,130.9147,470.869,133.5396 M,0,162923,162994,470.869,133.5396,479.8458,136.9348
Sprite,Foreground,Centre,"sb\star.png",0,0 C,0,163271,,62,158,217 M,0,163271,163340,531,190,528.7875,199.3416 F,2,163271,163548,1 S,2,163271,163548,1.2,0.6 P,0,163271,163548,A M,0,163340,163409,528.7875,199.3416,526.5751,208.6831 M,0,163409,163479,526.5751,208.6831,524.3625,218.0247 M,0,163479,163548,524.3625,218.0247,522.1501,227.3663
Sprite,Foreground,Centre,"sb\star.png",560,288 F,2,163827,,1 S,2,163827,,1.2,0.6 C,0,163827,,62,158,217 P,0,163827,,A
Sprite,Foreground,Centre,"sb\star.png",0,0 C,0,164105,,9,122,206 M,0,164105,164174,494,344,484.9653,347.1637 F,2,164105,164521,1 S,2,164105,164521,1.2,0.6 P,0,164105,164521,A M,0,164174,164243,484.9653,347.1637,475.5955,349.0538 M,0,164243,164313,475.5955,349.0538,466.0663,349.6379 M,0,164313,164382,466.0663,349.6379,456.5558,348.9076 M,0,164382,164452,456.5558,348.9076,447.2416,346.8782 M,0,164452,164521,447.2416,346.8782,438.0962,344.0365
Sprite,Foreground,Centre,"sb\star.png",0,0 C,0,164660,,9,122,206 M,0,164660,164729,420,334,410.7325,336.5047 F,2,164660,164937,1 S,2,164660,164937,1.2,0.6 P,0,164660,164937,A M,0,164729,164798,410.7325,336.5047,401.465,339.0095 M,0,164798,164868,401.465,339.0095,392.1975,341.5142 M,0,164868,164937,392.1975,341.5142,383,344
Sprite,Foreground,Centre,"sb\star.png",0,0 C,0,165216,,9,122,206 M,0,165216,165285,335,400,325.6584,397.7875 F,2,165216,165493,1 S,2,165216,165493,1.2,0.6 P,0,165216,165493,A M,0,165285,165354,325.6584,397.7875,316.3169,395.575 M,0,165354,165424,316.3169,395.575,306.9753,393.3626 M,0,165424,165493,306.9753,393.3626,297.6337,391.1501
Sprite,Foreground,Centre,"sb\star.png",282,394 F,2,165632,,1 S,2,165632,,1.2,0.6 C,0,165632,,9,122,206 P,0,165632,,A
Sprite,Foreground,Centre,"sb\star.png",0,0 C,0,166049,,62,158,217 M,0,166049,166118,208,430,204.4579,421.0949 F,2,166049,166604,1 S,2,166049,166604,1.2,0.6 P,0,166049,166604,A M,0,166118,166187,204.4579,421.0949,201.9676,411.849 M,0,166187,166257,201.9676,411.849,200.5605,402.3851 M,0,166257,166326,200.5605,402.3851,200.2536,392.8283 M,0,166326,166396,200.2536,392.8283,201.0499,383.3052 M,0,166396,166465,201.0499,383.3052,202.9378,373.9416 M,0,166465,166535,202.9378,373.9416,205.8916,364.8611 M,0,166535,166604,205.8916,364.8611,209.5233,355.9935
Sprite,Foreground,Centre,"sb\star.png",0,0 C,0,166882,,62,158,217 M,0,166882,166951,266,304,263.4545,294.7436 F,2,166882,167159,1 S,2,166882,167159,1.2,0.6 P,0,166882,167159,A M,0,166951,167020,263.4545,294.7436,260.909,285.4872 M,0,167020,167090,260.909,285.4872,258.3635,276.2309 M,0,167090,167159,258.3635,276.2309,255.818,266.9745
Sprite,Foreground,Centre,"sb\star.png",0,0 C,0,167438,,62,158,217 M,0,167438,167514,194,221,184.9268,224.0639 F,2,167438,168356,1 S,2,167438,168356,1.2,0.6 P,0,167438,168356,A M,0,167514,167591,184.9268,224.0639,175.551,225.9549 M,0,167591,167667,175.551,225.9549,166.0211,226.6455 M,0,167667,167744,166.0211,226.6455,156.4874,226.1267 M,0,167744,167820,156.4874,226.1267,147.1004,224.4079 M,0,167820,167897,147.1004,224.4079,138,222 M,0,167897,167973,138,222,147.1004,224.4079 M,0,167973,168050,147.1004,224.4079,156.4874,226.1267 M,0,168050,168126,156.4874,226.1267,166.0211,226.6455 M,0,168126,168203,166.0211,226.6455,175.551,225.9549 M,0,168203,168279,175.551,225.9549,184.9268,224.0639 M,0,168279,168356,184.9268,224.0639,194,221
Sprite,Foreground,Centre,"sb\star.png",0,0 C,0,168662,,9,122,206 M,0,168662,168747,230,153,239.202,155.7357 F,2,168662,169002,1 S,2,168662,169002,1.2,0.6 P,0,168662,169002,A M,0,168747,168832,239.202,155.7357,248.4039,158.4714 M,0,168832,168917,248.4039,158.4714,257.6058,161.2072 M,0,168917,169002,257.6058,161.2072,266.8078,163.9429
Sprite,Foreground,Centre,"sb\star.png",0,0 C,0,169343,,9,122,206 M,0,169343,169428,318,215,327.2019,212.2643 F,2,169343,169683,1 S,2,169343,169683,1.2,0.6 P,0,169343,169683,A M,0,169428,169513,327.2019,212.2643,336.4039,209.5286 M,0,169513,169598,336.4039,209.5286,345.6058,206.7929 M,0,169598,169683,345.6058,206.7929,354.8078,204.0571
Sprite,Foreground,Centre,"sb\star.png",0,0 C,0,170025,,9,122,206 M,0,170025,170110,405,152,414.2019,154.7357 F,2,170025,170365,1 S,2,170025,170365,1.2,0.6 P,0,170025,170365,A M,0,170110,170195,414.2019,154.7357,423.4039,157.4714 M,0,170195,170280,423.4039,157.4714,432.6058,160.2072 M,0,170280,170365,432.6058,160.2072,441.8078,162.9429
Sprite,Foreground,Centre,"sb\star.png",0,0 C,0,170707,,9,122,206 M,0,170707,170790,491,220,496.2001,228.0517 F,2,170707,171706,1 S,2,170707,171706,1.2,0.6 P,0,170707,171706,A M,0,170790,170873,496.2001,228.0517,500.5469,236.5855 M,0,170873,170957,500.5469,236.5855,503.9967,245.5129 M,0,170957,171040,503.9967,245.5129,506.5149,254.7416 M,0,171040,171123,506.5149,254.7416,508.076,264.1762 M,0,171123,171207,508.076,264.1762,508.6646,273.7192 M,0,171207,171290,508.6646,273.7192,508.5337,283.2882 M,0,171290,171373,508.5337,283.2882,507.0482,292.7501 M,0,171373,171457,507.0482,292.7501,504.6053,302.0044 M,0,171457,171540,504.6053,302.0044,501.2312,310.9561 M,0,171540,171623,501.2312,310.9561,496.9614,319.513 M,0,171623,171706,496.9614,319.513,492.1324,327.7951
Sprite,Foreground,Centre,"sb\star.png",0,0 C,0,172040,,62,158,217 M,0,172040,172138,416,372,406.743,369.4568 F,2,172040,174408,1 S,2,172040,174408,1.2,0.6 P,0,172040,174408,A M,0,172138,172237,406.743,369.4568,397.486,366.9137 M,0,172237,172336,397.486,366.9137,388.2289,364.3706 M,0,172336,172434,388.2289,364.3706,378.9719,361.8275 M,0,172434,172533,378.9719,361.8275,369.7149,359.2843 M,0,172533,172632,369.7149,359.2843,360.4579,356.7412 M,0,172632,172730,360.4579,356.7412,351.2009,354.198 M,0,172730,172829,351.2009,354.198,341.9438,351.6549 M,0,172829,172928,341.9438,351.6549,332.6868,349.1118 M,0,172928,173026,332.6868,349.1118,323.592,347.8181 M,0,173026,173125,323.592,347.8181,315.2916,352.6413 M,0,173125,173224,315.2916,352.6413,306.9912,357.4645 M,0,173224,173322,306.9912,357.4645,298.6909,362.2878 M,0,173322,173421,298.6909,362.2878,290.3904,367.111 M,0,173421,173520,290.3904,367.111,282.09,371.9342 M,0,173520,173618,282.09,371.9342,273.7896,376.7574 M,0,173618,173717,273.7896,376.7574,265.4892,381.5806 M,0,173717,173816,265.4892,381.5806,257.1888,386.4038 M,0,173816,173915,257.1888,386.4038,248.669,389.2715 M,0,173915,174013,248.669,389.2715,239.506,386.4081 M,0,174013,174112,239.506,386.4081,230.343,383.5447 M,0,174112,174211,230.343,383.5447,221.18,380.6812 M,0,174211,174309,221.18,380.6812,212.017,377.8178 M,0,174309,174408,212.017,377.8178,203,375
Sprite,Foreground,Centre,"sb\star.png",0,0 C,0,121245,,9,122,206 M,0,121245,121308,152,346,155.9774,333.8336 F,2,121245,121499,1 S,2,121245,121499,1.2,0.6 P,0,121245,121499,A M,0,121308,121372,155.9774,333.8336,159.9549,321.6673 M,0,121372,121435,159.9549,321.6673,163.9324,309.501 M,0,121435,121499,163.9324,309.501,167.9098,297.3347
Sprite,Foreground,Centre,"sb\star.png",0,0 C,0,121753,,9,122,206 M,0,121753,121816,101,245,97.02254,232.8337 F,2,121753,122007,1 S,2,121753,122007,1.2,0.6 P,0,121753,122007,A M,0,121816,121880,97.02254,232.8337,93.04509,220.6673 M,0,121880,121943,93.04509,220.6673,89.06763,208.501 M,0,121943,122007,89.06763,208.501,85.09017,196.3346
Sprite,Foreground,Centre,"sb\star.png",0,0 C,0,122262,,9,122,206 M,0,122262,122325,166,149,169.9774,136.8337 F,2,122262,122516,1 S,2,122262,122516,1.2,0.6 P,0,122262,122516,A M,0,122325,122389,169.9774,136.8337,173.9549,124.6673 M,0,122389,122452,173.9549,124.6673,177.9324,112.501 M,0,122452,122516,177.9324,112.501,181.9098,100.3346
Sprite,Foreground,Centre,"sb\star.png",64,56 F,2,122770,,1 S,2,122770,,1.2,0.6 C,0,122770,,62,158,217 P,0,122770,,A
Sprite,Foreground,Centre,"sb\light.png",0,0 C,0,86160,,254,204,54 M,0,86160,86223,342,133,325.9445,143.4174 F,2,86160,86541,1 S,2,86160,86541,0.5,0.25 P,0,86160,86541,A M,0,86223,86287,325.9445,143.4174,308.1225,150.3259 M,0,86287,86350,308.1225,150.3259,289.2802,153.4441 M,0,86350,86414,289.2802,153.4441,270.1633,152.9658 M,0,86414,86477,270.1633,152.9658,251.6687,148.0758 M,0,86477,86541,251.6687,148.0758,234.5829,139.5198
Sprite,Foreground,Centre,"sb\light.png",205,122 F,2,86669,,1 S,2,86669,,0.5,0.25 C,0,86669,,254,204,54 P,0,86669,,A
Sprite,Foreground,Centre,"sb\light.png",153,197 F,2,86923,,1 S,2,86923,,0.5,0.25 C,0,86923,,254,204,54 P,0,86923,,A
Sprite,Foreground,Centre,"sb\light.png",0,0 C,0,87177,,254,204,54 M,0,87177,87240,204,267,199.7557,285.725 F,2,87177,87431,1 S,2,87177,87431,0.5,0.25 P,0,87177,87431,A M,0,87240,87304,199.7557,285.725,195.5113,304.45 M,0,87304,87367,195.5113,304.45,191.267,323.175 M,0,87367,87431,191.267,323.175,187.0227,341.9
Sprite,Foreground,Centre,"sb\light.png",0,0 C,0,87559,,254,204,54 M,0,87559,87622,162,354,166.425,372.6831 F,2,87559,87686,1 S,2,87559,87686,0.5,0.25 P,0,87559,87686,A M,0,87622,87686,166.425,372.6831,170.8499,391.3663
Sprite,Foreground,Centre,"sb\light.png",0,0 C,0,87940,,245,160,3 M,0,87940,88003,280,423,296.0854,412.6106 F,2,87940,88321,1 S,2,87940,88321,0.5,0.25 P,0,87940,88321,A M,0,88003,88067,296.0854,412.6106,313.8235,405.4522 M,0,88067,88130,313.8235,405.4522,332.5807,401.7742 M,0,88130,88194,332.5807,401.7742,351.7201,401.3486 M,0,88194,88257,351.7201,401.3486,370.5023,405.0735 M,0,88257,88321,370.5023,405.0735,388.3172,412.1066
Sprite,Foreground,Centre,"sb\light.png",412,427 F,2,88448,,1 S,2,88448,,0.5,0.25 C,0,88448,,245,160,3 P,0,88448,,A
Sprite,Foreground,Centre,"sb\light.png",0,0 C,0,88703,,245,160,3 M,0,88703,88766,473,358,468.4559,339.3455 F,2,88703,88957,1 S,2,88703,88957,0.5,0.25 P,0,88703,88957,A M,0,88766,88830,468.4559,339.3455,463.9119,320.6909 M,0,88830,88893,463.9119,320.6909,459.3678,302.0364 M,0,88893,88957,459.3678,302.0364,454.8238,283.3819
Sprite,Foreground,Centre,"sb\light.png",0,0 C,0,89211,,245,160,3 M,0,89211,89274,368,247,372.5441,228.3455 F,2,89211,89465,1 S,2,89211,89465,0.5,0.25 P,0,89211,89465,A M,0,89274,89338,372.5441,228.3455,377.0881,209.6909 M,0,89338,89401,377.0881,209.6909,381.6322,191.0364 M,0,89401,89465,381.6322,191.0364,386.1762,172.3819
Sprite,Foreground,Centre,"sb\light.png",0,0 C,0,89592,,245,160,3 M,0,89592,89655,410,160,404.2183,141.6912 F,2,89592,89719,1 S,2,89592,89719,0.5,0.25 P,0,89592,89719,A M,0,89655,89719,404.2183,141.6912,398.4366,123.3824
Sprite,Foreground,Centre,"sb\light.png",0,0 C,0,89974,,254,204,54 M,0,89974,90037,286,100,268.2214,92.91519 F,2,89974,90355,1 S,2,89974,90355,0.5,0.25 P,0,89974,90355,A M,0,90037,90101,268.2214,92.91519,249.4,89.5865 M,0,90101,90164,249.4,89.5865,230.3087,90.14354 M,0,90164,90228,230.3087,90.14354,211.6711,94.35754 M,0,90228,90291,211.6711,94.35754,194.4502,102.6634 M,0,90291,90355,194.4502,102.6634,179.0686,114.0551
Sprite,Foreground,Centre,"sb\light.png",162,144 F,2,90482,,1 S,2,90482,,0.5,0.25 C,0,90482,,254,204,54 P,0,90482,,A
Sprite,Foreground,Centre,"sb\light.png",217,208 F,2,90736,,1 S,2,90736,,0.5,0.25 C,0,90736,,254,204,54 P,0,90736,,A
Sprite,Foreground,Centre,"sb\light.png",167,279 F,2,90991,,1 S,2,90991,,0.5,0.25 C,0,90991,,254,204,54 P,0,90991,,A
Sprite,Foreground,Centre,"sb\light.png",0,0 C,0,91245,,254,204,54 M,0,91245,91308,226,337,234.1073,354.2488 F,2,91245,91499,1 S,2,91245,91499,0.5,0.25 P,0,91245,91499,A M,0,91308,91372,234.1073,354.2488,236.5172,373.0972 M,0,91372,91435,236.5172,373.0972,233.0245,391.7393 M,0,91435,91499,233.0245,391.7393,225,408
Sprite,Foreground,Centre,"sb\light.png",0,0 C,0,91626,,254,204,54 M,0,91626,91689,200,425,181.4322,420.1137 F,2,91626,91753,1 S,2,91626,91753,0.5,0.25 P,0,91626,91753,A M,0,91689,91753,181.4322,420.1137,162.8643,415.2274
Sprite,Foreground,Centre,"sb\light.png",0,0 C,0,92008,,245,160,3 M,0,92008,92071,107,334,123.8539,324.8372 F,2,92008,93279,1 S,2,92008,93279,0.5,0.25 P,0,92008,93279,A M,0,92071,92135,123.8539,324.8372,141.95,318.4979 M,0,92135,92198,141.95,318.4979,160.9211,315.7771 M,0,92198,92262,160.9211,315.7771,180.0358,317.1375 M,0,92262,92325,180.0358,317.1375,198.4722,322.3885 M,0,92325,92389,198.4722,322.3885,215.6979,330.822 M,0,92389,92452,215.6979,330.822,233.0126,339.0793 M,0,92452,92516,233.0126,339.0793,251.4288,344.4153 M,0,92516,92580,251.4288,344.4153,270.5243,346.0362 M,0,92580,92643,270.5243,346.0362,289.5186,343.508 M,0,92643,92707,289.5186,343.508,307.58,337.0867 M,0,92707,92770,307.58,337.0867,324.2143,327.5398 M,0,92770,92834,324.2143,327.5398,339.2483,338.3986 M,0,92834,92897,339.2483,338.3986,355.1727,329.1187 M,0,92897,92961,355.1727,329.1187,370.9943,339.9961 M,0,92961,93024,370.9943,339.9961,386.8159,329.1266 M,0,93024,93088,386.8159,329.1266,404.2411,336.8817 M,0,93088,93152,404.2411,336.8817,422.843,341.4797 M,0,93152,93215,422.843,341.4797,441.9817,341.3569 M,0,93215,93279,441.9817,341.3569,460,336
Sprite,Foreground,Centre,"sb\light.png",0,0 C,0,93533,,245,160,3 M,0,93533,93596,514,278,512.0223,268.6059 F,2,93533,93787,1 S,2,93533,93787,0.5,0.25 P,0,93533,93787,A M,0,93596,93660,512.0223,268.6059,510.0446,259.2119 M,0,93660,93723,510.0446,259.2119,508.0669,249.8178 M,0,93723,93787,508.0669,249.8178,506.0892,240.4237
Sprite,Foreground,Centre,"sb\light.png",540,177 F,2,94042,,1 S,2,94042,,0.5,0.25 C,0,94042,,245,160,3 P,0,94042,,A
Sprite,Foreground,Centre,"sb\light.png",0,0 C,0,94296,,254,204,54 M,0,94296,94359,434,117,416.9687,108.2847 F,2,94296,94677,1 S,2,94296,94677,0.5,0.25 P,0,94296,94677,A M,0,94359,94423,416.9687,108.2847,398.5238,103.3021 M,0,94423,94486,398.5238,103.3021,379.4531,102.0327 M,0,94486,94550,379.4531,102.0327,360.6086,105.2522 M,0,94550,94613,360.6086,105.2522,342.86,112.308 M,0,94613,94677,342.86,112.308,326.8251,122.7175
Sprite,Foreground,Centre,"sb\light.png",0,0 C,0,94804,,254,204,54 M,0,94804,94867,305,151,288.066,159.8278 F,2,94804,95058,1 S,2,94804,95058,0.5,0.25 P,0,94804,95058,A M,0,94867,94931,288.066,159.8278,269.376,163.5505 M,0,94931,94994,269.376,163.5505,250.423,161.8898 M,0,94994,95058,250.423,161.8898,232.5097,155.3285
Sprite,Foreground,Centre,"sb\light.png",0,0 C,0,95313,,254,204,54 M,0,95313,95376,143,102,148.212,120.479 F,2,95313,95567,1 S,2,95313,95567,0.5,0.25 P,0,95313,95567,A M,0,95376,95440,148.212,120.479,153.4241,138.9581 M,0,95440,95503,153.4241,138.9581,158.6361,157.4371 M,0,95503,95567,158.6361,157.4371,163.8481,175.9161
Sprite,Foreground,Centre,"sb\light.png",0,0 C,0,95694,,254,204,54 M,0,95694,95757,170,206,164.788,224.479 F,2,95694,95821,1 S,2,95694,95821,0.5,0.25 P,0,95694,95821,A M,0,95757,95821,164.788,224.479,159.5759,242.9581
Sprite,Foreground,Centre,"sb\light.png",0,0 C,0,96075,,245,160,3 M,0,96075,96138,258,275,268.0424,291.2557 F,2,96075,96456,1 S,2,96075,96456,0.5,0.25 P,0,96075,96456,A M,0,96138,96202,268.0424,291.2557,273.6631,309.4786 M,0,96202,96265,273.6631,309.4786,274.5178,328.5052 M,0,96265,96329,274.5178,328.5052,270.9676,347.2612 M,0,96329,96392,270.9676,347.2612,262.2023,364.2297 M,0,96392,96456,262.2023,364.2297,249.6488,378.6423
Sprite,Foreground,Centre,"sb\light.png",229,397 F,2,96584,,1 S,2,96584,,0.5,0.25 C,0,96584,,245,160,3 P,0,96584,,A
Sprite,Foreground,Centre,"sb\light.png",159,356 F,2,96838,,1 S,2,96838,,0.5,0.25 C,0,96838,,245,160,3 P,0,96838,,A
Sprite,Foreground,Centre,"sb\light.png",176,282 F,2,97092,,1 S,2,97092,,0.5,0.25 C,0,97092,,245,160,3 P,0,97092,,A
Sprite,Foreground,Centre,"sb\light.png",0,0 C,0,97347,,245,160,3 M,0,97347,97410,113,230,118.0095,211.465 F,2,97347,97601,1 S,2,97347,97601,0.5,0.25 P,0,97347,97601,A M,0,97410,97474,118.0095,211.465,123.0189,192.9301 M,0,97474,97537,123.0189,192.9301,128.0284,174.3951 M,0,97537,97601,128.0284,174.3951,133,156
Sprite,Foreground,Centre,"sb\light.png",0,0 C,0,97728,,245,160,3 M,0,97728,97791,121,132,126.5171,113.6097 F,2,97728,97855,1 S,2,97728,97855,0.5,0.25 P,0,97728,97855,A M,0,97791,97855,126.5171,113.6097,132.0341,95.21947
Sprite,Foreground,Centre,"sb\light.png",0,0 C,0,98109,,254,204,54 M,0,98109,98172,242,75,258.1006,85.38176 F,2,98109,98490,1 S,2,98109,98490,0.5,0.25 P,0,98109,98490,A M,0,98172,98236,258.1006,85.38176,275.6891,92.93217 M,0,98236,98299,275.6891,92.93217,294.2372,97.72347 M,0,98299,98363,294.2372,97.72347,313.358,98.87871 M,0,98363,98426,313.358,98.87871,332.3884,96.83684 M,0,98426,98490,332.3884,96.83684,350.9033,91.91966
Sprite,Foreground,Centre,"sb\light.png",0,0 C,0,98618,,254,204,54 M,0,98618,98681,386,76,381.8607,94.7485 F,2,98618,98872,1 S,2,98618,98872,0.5,0.25 P,0,98618,98872,A M,0,98681,98745,381.8607,94.7485,377.7214,113.497 M,0,98745,98808,377.7214,113.497,373.5822,132.2455 M,0,98808,98872,373.5822,132.2455,369.4429,150.994
Sprite,Foreground,Centre,"sb\light.png",423,220 F,2,99126,,1 S,2,99126,,0.5,0.25 C,0,99126,,254,204,54 P,0,99126,,A
Sprite,Foreground,Centre,"sb\light.png",0,0 C,0,99381,,254,204,54 M,0,99381,99444,359,271,351.6023,288.6003 F,2,99381,99635,1 S,2,99381,99635,0.5,0.25 P,0,99381,99635,A M,0,99444,99508,351.6023,288.6003,349.3195,307.5109 M,0,99508,99571,349.3195,307.5109,352.307,326.2928 M,0,99571,99635,352.307,326.2928,359.8895,343.8047
Sprite,Foreground,Centre,"sb\light.png",0,0 C,0,99762,,254,204,54 M,0,99762,99825,376,367,394.656,371.538 F,2,99762,99889,1 S,2,99762,99889,0.5,0.25 P,0,99762,99889,A M,0,99825,99889,394.656,371.538,413,376
Sprite,Foreground,Centre,"sb\light.png",0,0 C,0,100143,,245,160,3 M,0,100143,100206,500,275,483.765,285.2213 F,2,100143,101414,1 S,2,100143,101414,0.5,0.25 P,0,100143,101414,A M,0,100206,100270,483.765,285.2213,466.1664,292.8409 M,0,100270,100333,466.1664,292.8409,447.494,297.1848 M,0,100333,100397,447.494,297.1848,428.3358,297.8442 M,0,100397,100460,428.3358,297.8442,409.3881,294.9057 M,0,100460,100524,409.3881,294.9057,391.1775,288.88 M,0,100524,100587,391.1775,288.88,373.9532,280.4241 M,0,100587,100651,373.9532,280.4241,357.8959,272.0428 M,0,100651,100715,357.8959,272.0428,343.9372,285.226 M,0,100715,100778,343.9372,285.226,328.0005,280.2003 M,0,100778,100842,328.0005,280.2003,312.5219,283.0651 M,0,100842,100905,312.5219,283.0651,297.2137,287.418 M,0,100905,100969,297.2137,287.418,280.8961,277.2999 M,0,100969,101032,280.8961,277.2999,263.9766,268.2607 M,0,101032,101096,263.9766,268.2607,245.8094,262.1328 M,0,101096,101159,245.8094,262.1328,226.7961,259.7404 M,0,101159,101223,226.7961,259.7404,207.7186,261.5327 M,0,101223,101287,207.7186,261.5327,189.4228,267.2525 M,0,101287,101350,189.4228,267.2525,172.4204,276.1282 M,0,101350,101414,172.4204,276.1282,156.834,287.3186
Sprite,Foreground,Centre,"sb\light.png",0,0 C,0,101669,,245,160,3 M,0,101669,101732,103,339,105.2125,348.3416 F,2,101669,101923,1 S,2,101669,101923,0.5,0.25 P,0,101669,101923,A M,0,101732,101796,105.2125,348.3416,107.425,357.6831 M,0,101796,101859,107.425,357.6831,109.6374,367.0247 M,0,101859,101923,109.6374,367.0247,111.8499,376.3663
Sprite,Foreground,Centre,"sb\light.png",175,416 F,2,102177,,1 S,2,102177,,0.5,0.25 C,0,102177,,245,160,3 P,0,102177,,A
Sprite,Foreground,Centre,"sb\light.png",0,0 C,0,102431,,254,204,54 M,0,102431,102494,283,373,301.4335,367.765 F,2,102431,102812,1 S,2,102431,102812,0.5,0.25 P,0,102431,102812,A M,0,102494,102558,301.4335,367.765,320.4456,365.4923 M,0,102558,102621,320.4456,365.4923,339.6045,365.9528 M,0,102621,102685,339.6045,365.9528,358.3604,369.879 M,0,102685,102748,358.3604,369.879,376.2528,376.6973 M,0,102748,102812,376.2528,376.6973,393,386
Sprite,Foreground,Centre,"sb\light.png",0,0 C,0,102940,,254,204,54 M,0,102940,103003,426,412,423.1941,393.0061 F,2,102940,103194,1 S,2,102940,103194,0.5,0.25 P,0,102940,103194,A M,0,103003,103067,423.1941,393.0061,420.3882,374.0123 M,0,103067,103130,420.3882,374.0123,417.5823,355.0184 M,0,103130,103194,417.5823,355.0184,414.7764,336.0245
Sprite,Foreground,Centre,"sb\light.png",0,0 C,0,103448,,254,204,54 M,0,103448,103511,458,257,475.607,249.5457 F,2,103448,103702,1 S,2,103448,103702,0.5,0.25 P,0,103448,103702,A M,0,103511,103575,475.607,249.5457,494.4394,246.4366 M,0,103575,103638,494.4394,246.4366,513.4544,247.8335 M,0,103638,103702,513.4544,247.8335,531.7787,253.2593
Sprite,Foreground,Centre,"sb\light.png",0,0 C,0,103830,,254,204,54 M,0,103830,103893,559,268,554.8834,249.2465 F,2,103830,103957,1 S,2,103830,103957,0.5,0.25 P,0,103830,103957,A M,0,103893,103957,554.8834,249.2465,550.7667,230.493
Sprite,Foreground,Centre,"sb\light.png",0,0 C,0,104211,,245,160,3 M,0,104211,104274,447,182,430.3526,191.4483 F,2,104211,104592,1 S,2,104211,104592,0.5,0.25 P,0,104211,104592,A M,0,104274,104338,430.3526,191.4483,412.1966,197.4376 M,0,104338,104401,412.1966,197.4376,393.2305,199.744 M,0,104401,104465,393.2305,199.744,374.1645,198.4502 M,0,104465,104528,374.1645,198.4502,355.8197,193.0561 M,0,104528,104592,355.8197,193.0561,338.7238,184.4404
Sprite,Foreground,Centre,"sb\light.png",316,167 F,2,104720,,1 S,2,104720,,0.5,0.25 C,0,104720,,245,160,3 P,0,104720,,A
Sprite,Foreground,Centre,"sb\light.png",224,152 F,2,104974,,1 S,2,104974,,0.5,0.25 C,0,104974,,245,160,3 P,0,104974,,A
Sprite,Foreground,Centre,"sb\light.png",183,230 F,2,105228,,1 S,2,105228,,0.5,0.25 C,0,105228,,245,160,3 P,0,105228,,A
Sprite,Foreground,Centre,"sb\light.png",0,0 C,0,105482,,245,160,3 M,0,105482,105545,241,298,234.558,316.087 F,2,105482,105736,1 S,2,105482,105736,0.5,0.25 P,0,105482,105736,A M,0,105545,105609,234.558,316.087,228.1161,334.1741 M,0,105609,105672,228.1161,334.1741,221.6741,352.2611 M,0,105672,105736,221.6741,352.2611,215.2322,370.3482
Sprite,Foreground,Centre,"sb\light.png",0,0 C,0,105864,,245,160,3 M,0,105864,105927,226,396,232.959,413.8945 F,2,105864,105991,1 S,2,105864,105991,0.5,0.25 P,0,105864,105991,A M,0,105927,105991,232.959,413.8945,239.9179,431.789
Sprite,Foreground,Centre,"sb\light.png",0,0 C,0,106245,,254,204,54 M,0,106245,106308,93,436,84.96317,418.6399 F,2,106245,106626,1 S,2,106245,106626,0.5,0.25 P,0,106245,106626,A M,0,106308,106372,84.96317,418.6399,80.84598,399.9867 M,0,106372,106435,80.84598,399.9867,80.82973,380.8996 M,0,106435,106499,80.82973,380.8996,84.73035,362.2101 M,0,106499,106562,84.73035,362.2101,92.95023,344.9627 M,0,106562,106626,92.95023,344.9627,104.4194,329.6483
Sprite,Foreground,Centre,"sb\light.png",0,0 C,0,106753,,254,204,54 M,0,106753,106816,126,310,121.3433,291.3733 F,2,106753,107007,1 S,2,106753,107007,0.5,0.25 P,0,106753,107007,A M,0,106816,106880,121.3433,291.3733,116.6866,272.7465 M,0,106880,106943,116.6866,272.7465,112.0299,254.1198 M,0,106943,107007,112.0299,254.1198,107.3733,235.4931
Sprite,Foreground,Centre,"sb\light.png",159,169 F,2,107262,,1 S,2,107262,,0.5,0.25 C,0,107262,,254,204,54 P,0,107262,,A
Sprite,Foreground,Centre,"sb\light.png",0,0 C,0,107516,,254,204,54 M,0,107516,107579,234,206,250.1314,216.197 F,2,107516,107770,1 S,2,107516,107770,0.5,0.25 P,0,107516,107770,A M,0,107579,107643,250.1314,216.197,268.4465,221.389 M,0,107643,107706,268.4465,221.389,287.4503,221.1731 M,0,107706,107770,287.4503,221.1731,305.8293,216.0683
Sprite,Foreground,Centre,"sb\light.png",0,0 C,0,107898,,254,204,54 M,0,107898,107961,340,200,346.1948,181.8611 F,2,107898,108025,1 S,2,107898,108025,0.5,0.25 P,0,107898,108025,A M,0,107961,108025,346.1948,181.8611,349.5232,162.9833
Sprite,Foreground,Centre,"sb\light.png",0,0 C,0,108279,,245,160,3 M,0,108279,108342,235,108,228.2629,90.13985 F,2,108279,109550,1 S,2,108279,109550,0.5,0.25 P,0,108279,109550,A M,0,108342,108406,228.2629,90.13985,229.3396,71.12156 M,0,108406,108469,229.3396,71.12156,237.4576,53.81023 M,0,108469,108533,237.4576,53.81023,247.5095,68.53619 M,0,108533,108596,247.5095,68.53619,255.3917,86.02628 M,0,108596,108660,255.3917,86.02628,260.5433,104.5005 M,0,108660,108723,260.5433,104.5005,262.5225,123.5738 M,0,108723,108787,262.5225,123.5738,261.1825,142.7035 M,0,108787,108851,261.1825,142.7035,256.7438,161.3636 M,0,108851,108914,256.7438,161.3636,249.676,179.2003 M,0,108914,108978,249.676,179.2003,240.5116,196.061 M,0,108978,109041,240.5116,196.061,238.8178,211.5061 M,0,109041,109105,238.8178,211.5061,245.3351,226.5303 M,0,109105,109168,245.3351,226.5303,241.0997,242.5766 M,0,109168,109232,241.0997,242.5766,248.954,257.5339 M,0,109232,109295,248.954,257.5339,239.3516,274.16 M,0,109295,109359,239.3516,274.16,231.9237,291.8232 M,0,109359,109423,231.9237,291.8232,228.9886,310.7407 M,0,109423,109486,228.9886,310.7407,231.1699,329.7604 M,0,109486,109550,231.1699,329.7604,237.8593,347.7171
Sprite,Foreground,Centre,"sb\light.png",0,0 C,0,109804,,245,160,3 M,0,109804,109867,298,396,307.2839,393.5569 F,2,109804,110058,1 S,2,109804,110058,0.5,0.25 P,0,109804,110058,A M,0,109867,109931,307.2839,393.5569,316.5678,391.1137 M,0,109931,109994,316.5678,391.1137,325.8517,388.6706 M,0,109994,110058,325.8517,388.6706,335.1357,386.2274
Sprite,Foreground,Centre,"sb\light.png",403,425 F,2,110313,,1 S,2,110313,,0.5,0.25 C,0,110313,,245,160,3 P,0,110313,,A
Sprite,Foreground,Centre,"sb\light.png",0,0 C,0,110567,,254,204,54 M,0,110567,110630,494,340,502.1992,322.6974 F,2,110567,110948,1 S,2,110567,110948,0.5,0.25 P,0,110567,110948,A M,0,110630,110694,502.1992,322.6974,506.9948,304.1826 M,0,110694,110757,506.9948,304.1826,508.2232,285.1084 M,0,110757,110821,508.2232,285.1084,506.0349,266.1132 M,0,110821,110884,506.0349,266.1132,499.9282,247.9834 M,0,110884,110948,499.9282,247.9834,490.7645,231.1693
Sprite,Foreground,Centre,"sb\light.png",469,211 F,2,111075,,1 S,2,111075,,0.5,0.25 C,0,111075,,254,204,54 P,0,111075,,A
Sprite,Foreground,Centre,"sb\light.png",394,254 F,2,111330,,1 S,2,111330,,0.5,0.25 C,0,111330,,254,204,54 P,0,111330,,A
Sprite,Foreground,Centre,"sb\light.png",0,0 C,0,111584,,254,204,54 M,0,111584,111647,341,187,323.2611,179.8799 F,2,111584,111838,1 S,2,111584,111838,0.5,0.25 P,0,111584,111838,A M,0,111647,111711,323.2611,179.8799,304.3526,177.329 M,0,111711,111774,304.3526,177.329,285.4195,179.4888 M,0,111774,111838,285.4195,179.4888,267.3917,185.8183
Sprite,Foreground,Centre,"sb\light.png",0,0 C,0,111965,,254,204,54 M,0,111965,112028,242,207,235.7416,225.1413 F,2,111965,112092,1 S,2,111965,112092,0.5,0.25 P,0,111965,112092,A M,0,112028,112092,235.7416,225.1413,228,242
Sprite,Foreground,Centre,"sb\light.png",0,0 C,0,112347,,245,160,3 M,0,112347,112410,150,150,145.4891,131.4493 F,2,112347,113618,1 S,2,112347,113618,0.5,0.25 P,0,112347,113618,A M,0,112410,112474,145.4891,131.4493,148.5618,112.6315 M,0,112474,112537,148.5618,112.6315,158.0451,96.01769 M,0,112537,112601,158.0451,96.01769,168.0537,96.0181 M,0,112601,112664,168.0537,96.0181,173.5801,114.3964 M,0,112664,112728,173.5801,114.3964,176.9928,133.2786 M,0,112728,112791,176.9928,133.2786,177.9301,152.4405 M,0,112791,112855,177.9301,152.4405,176.1227,171.5376 M,0,112855,112919,176.1227,171.5376,171.4996,190.1543 M,0,112919,112982,171.4996,190.1543,164.2249,207.9056 M,0,112982,113046,164.2249,207.9056,154.6449,224.53 M,0,113046,113109,154.6449,224.53,143.1781,239.9179 M,0,113109,113173,143.1781,239.9179,143.9303,253.9303 M,0,113173,113236,143.9303,253.9303,137.7241,268.5999 M,0,113236,113300,137.7241,268.5999,127.8278,285.026 M,0,113300,113363,127.8278,285.026,121.3383,303.0532 M,0,113363,113427,121.3383,303.0532,119.4523,322.1039 M,0,113427,113491,119.4523,322.1039,122.6236,340.9862 M,0,113491,113554,122.6236,340.9862,130.1202,358.6238 M,0,113554,113618,130.1202,358.6238,140.7047,374.6192
Sprite,Foreground,Centre,"sb\light.png",0,0 C,0,113872,,245,160,3 M,0,113872,113935,202,418,211.3714,415.9175 F,2,113872,114126,1 S,2,113872,114126,0.5,0.25 P,0,113872,114126,A M,0,113935,113999,211.3714,415.9175,220.7428,413.8349 M,0,113999,114062,220.7428,413.8349,230.1142,411.7524 M,0,114062,114126,230.1142,411.7524,239.4856,409.6699
Sprite,Foreground,Centre,"sb\light.png",290,351 F,2,114381,,1 S,2,114381,,0.5,0.25 C,0,114381,,245,160,3 P,0,114381,,A
Sprite,Foreground,Centre,"sb\light.png",0,0 C,0,114635,,254,204,54 M,0,114635,114698,401,412,418.1461,420.4767 F,2,114635,115016,1 S,2,114635,115016,0.5,0.25 P,0,114635,115016,A M,0,114698,114762,418.1461,420.4767,436.6917,425.0394 M,0,114762,114825,436.6917,425.0394,455.7942,425.7942 M,0,114825,114889,455.7942,425.7942,474.496,421.8253 M,0,114889,114952,474.496,421.8253,491.8752,413.9168 M,0,114952,115016,491.8752,413.9168,507.3363,402.6719
Sprite,Foreground,Centre,"sb\light.png",527,381 F,2,115143,,1 S,2,115143,,0.5,0.25 C,0,115143,,254,204,54 P,0,115143,,A
Sprite,Foreground,Centre,"sb\light.png",483,313 F,2,115398,,1 S,2,115398,,0.5,0.25 C,0,115398,,254,204,54 P,0,115398,,A
Sprite,Foreground,Centre,"sb\light.png",0,0 C,0,115652,,254,204,54 M,0,115652,115715,535,252,529.788,233.521 F,2,115652,115906,1 S,2,115652,115906,0.5,0.25 P,0,115652,115906,A M,0,115715,115779,529.788,233.521,524.5759,215.0419 M,0,115779,115842,524.5759,215.0419,519.3639,196.5629 M,0,115842,115906,519.3639,196.5629,514.1519,178.0839
Sprite,Foreground,Centre,"sb\light.png",0,0 C,0,116033,,254,204,54 M,0,116033,116096,531,154,535.2146,135.2683 F,2,116033,116160,1 S,2,116033,116160,0.5,0.25 P,0,116033,116160,A M,0,116096,116160,535.2146,135.2683,539.4293,116.5366
Sprite,Foreground,Centre,"sb\light.png",0,0 C,0,116414,,245,160,3 M,0,116414,116477,419,105,402.8985,115.4285 F,2,116414,117685,1 S,2,116414,117685,0.5,0.25 P,0,116414,117685,A M,0,116477,116541,402.8985,115.4285,385.3488,123.1541 M,0,116541,116604,385.3488,123.1541,366.6573,127.3953 M,0,116604,116668,366.6573,127.3953,347.4946,127.6709 M,0,116668,116731,347.4946,127.6709,328.6575,124.1081 M,0,116731,116795,328.6575,124.1081,310.7131,117.3349 M,0,116795,116858,310.7131,117.3349,292.7941,110.4876 M,0,116858,116922,292.7941,110.4876,274.007,106.6581 M,0,116922,116986,274.007,106.6581,254.8431,106.5993 M,0,116986,117049,254.8431,106.5993,236.1172,110.6642 M,0,117049,117113,236.1172,110.6642,218.6303,118.5173 M,0,117113,117176,218.6303,118.5173,202.803,129.3501 M,0,117176,117240,202.803,129.3501,186.5945,120.3715 M,0,117240,117303,186.5945,120.3715,171.3862,130.675 M,0,117303,117367,171.3862,130.675,154.4853,122.4117 M,0,117367,117430,154.4853,122.4117,139.4211,133.705 M,0,117430,117494,139.4211,133.705,121.5407,126.8069 M,0,117494,117558,121.5407,126.8069,102.5652,124.2439 M,0,117558,117621,102.5652,124.2439,83.57654,126.687 M,0,117621,117685,83.57654,126.687,67,133
Sprite,Foreground,Centre,"sb\light.png",0,0 C,0,117940,,245,160,3 M,0,117940,118003,103,203,99.70161,212.0156 F,2,117940,118194,1 S,2,117940,118194,0.5,0.25 P,0,117940,118194,A M,0,118003,118067,99.70161,212.0156,96.40324,221.0312 M,0,118067,118130,96.40324,221.0312,93.10485,230.0467 M,0,118130,118194,93.10485,230.0467,89.80647,239.0623
Sprite,Foreground,Centre,"sb\light.png",131,299 F,2,118448,,1 S,2,118448,,0.5,0.25 C,0,118448,,245,160,3 P,0,118448,,A
Sprite,Foreground,Centre,"sb\light.png",0,0 C,0,118703,,254,204,54 M,0,118703,118766,227,239,237.6197,231.8881 F,2,118703,119465,1 S,2,118703,119465,0.5,0.25 P,0,118703,119465,A M,0,118766,118830,237.6197,231.8881,248.7427,225.5927 M,0,118830,118893,248.7427,225.5927,260.569,220.7512 M,0,118893,118957,260.569,220.7512,272.746,216.8942 M,0,118957,119020,272.746,216.8942,285.3005,214.5183 M,0,119020,119084,285.3005,214.5183,298.0065,213.2633 M,0,119084,119147,298.0065,213.2633,310.7924,213.2268 M,0,119147,119211,310.7924,213.2268,323.4693,214.8479 M,0,119211,119275,323.4693,214.8479,335.9777,217.454 M,0,119275,119338,335.9777,217.454,348.0716,221.5792 M,0,119338,119402,348.0716,221.5792,359.7647,226.7129 M,0,119402,119465,359.7647,226.7129,370.9283,232.9567
Sprite,Foreground,Centre,"sb\light.png",0,0 C,0,119720,,254,204,54 M,0,119720,119783,408,298,404.322,310.2602 F,2,119720,119974,1 S,2,119720,119974,0.5,0.25 P,0,119720,119974,A M,0,119783,119847,404.322,310.2602,400.6439,322.5204 M,0,119847,119910,400.6439,322.5204,396.9659,334.7805 M,0,119910,119974,396.9659,334.7805,393.2878,347.0407
Sprite,Foreground,Centre,"sb\light.png",404,365 F,2,120101,,1 S,2,120101,,0.5,0.25 C,0,120101,,254,204,54 P,0,120101,,A
Sprite,Foreground,Centre,"sb\light.png",0,0 C,0,120482,,254,204,54 M,0,120482,120545,305,414,293.3624,419.2213 F,2,120482,120990,1 S,2,120482,120990,0.5,0.25 P,0,120482,120990,A M,0,120545,120609,293.3624,419.2213,281.1992,423.0591 M,0,120609,120672,281.1992,423.0591,268.5277,424.4706 M,0,120672,120736,268.5277,424.4706,255.7937,424.2685 M,0,120736,120799,255.7937,424.2685,243.3015,421.7378 M,0,120799,120863,243.3015,421.7378,231.296,417.5258 M,0,120863,120926,231.296,417.5258,220.0046,411.5734 M,0,120926,120990,220.0046,411.5734,209.9335,403.7068
Sprite,Foreground,Centre,"sb\ring.png",0,0 C,0,33279,,62,158,217 M,0,33279,33342,173,184,187.5124,177.4106 F,2,33279,33533,1 S,2,33279,33533,1,0.5 P,0,33279,33533,A M,0,33342,33406,187.5124,177.4106,202.8862,173.3802 M,0,33406,33469,202.8862,173.3802,218.751,172.4132 M,0,33469,33533,218.751,172.4132,234.5026,174.5467
Sprite,Foreground,Centre,"sb\ring.png",0,0 C,0,33787,,62,158,217 M,0,33787,33850,302,212,317.6064,215.4367 F,2,33787,34168,1 S,2,33787,34168,1,0.5 P,0,33787,34168,A M,0,33850,33914,317.6064,215.4367,333.4491,217.4199 M,0,33914,33977,333.4491,217.4199,349.4143,217.6964 M,0,33977,34041,349.4143,217.6964,365.3195,216.2626 M,0,34041,34104,365.3195,216.2626,380.9824,213.1345 M,0,34104,34168,380.9824,213.1345,396.2237,208.3472
Sprite,Foreground,Centre,"sb\ring.png",0,0 C,0,34296,,62,158,217 M,0,34296,34359,426,194,423.1378,209.7419 F,2,34296,34550,1 S,2,34296,34550,1,0.5 P,0,34296,34550,A M,0,34359,34423,423.1378,209.7419,420.2757,225.4838 M,0,34423,34486,420.2757,225.4838,417.4135,241.2258 M,0,34486,34550,417.4135,241.2258,414.5513,256.9677
Sprite,Foreground,Centre,"sb\ring.png",458,320 F,2,34804,,1 S,2,34804,,1,0.5 C,0,34804,,62,158,217 P,0,34804,,A
Sprite,Foreground,Centre,"sb\ring.png",0,0 C,0,35059,,9,122,206 M,0,35059,35122,399,371,384.5111,377.5974 F,2,35059,35313,1 S,2,35059,35313,1,0.5 P,0,35059,35313,A M,0,35122,35186,384.5111,377.5974,369.1092,381.3968 M,0,35186,35249,369.1092,381.3968,353.2453,381.812 M,0,35249,35313,353.2453,381.812,337.5585,379.0757
Sprite,Foreground,Centre,"sb\ring.png",263,351 F,2,35567,,1 S,2,35567,,1,0.5 C,0,35567,,9,122,206 P,0,35567,,A
Sprite,Foreground,Centre,"sb\ring.png",0,0 C,0,35821,,9,122,206 M,0,35821,35884,205,408,189.2632,405.1096 F,2,35821,36202,1 S,2,35821,36202,1,0.5 P,0,35821,36202,A M,0,35884,35948,189.2632,405.1096,173.5265,402.2191 M,0,35948,36011,173.5265,402.2191,157.7897,399.3287 M,0,36011,36075,157.7897,399.3287,142.053,396.4383 M,0,36075,36138,142.053,396.4383,126.3162,393.5479 M,0,36138,36202,126.3162,393.5479,110.5795,390.6575
Sprite,Foreground,Centre,"sb\ring.png",82,370 F,2,36330,,1 S,2,36330,,1,0.5 C,0,36330,,9,122,206 P,0,36330,,A
Sprite,Foreground,Centre,"sb\ring.png",0,0 C,0,36584,,9,122,206 M,0,36584,36647,132,304,139.1113,289.8331 F,2,36584,36838,1 S,2,36584,36838,1,0.5 P,0,36584,36838,A M,0,36647,36711,139.1113,289.8331,142.3109,274.4174 M,0,36711,36774,142.3109,274.4174,140.7995,258.7421 M,0,36774,36838,140.7995,258.7421,135.0999,243.951
Sprite,Foreground,Centre,"sb\ring.png",79,191 F,2,37092,,1 S,2,37092,,1,0.5 C,0,37092,,9,122,206 P,0,37092,,A
Sprite,Foreground,Centre,"sb\ring.png",0,0 C,0,37347,,62,158,217 M,0,37347,37410,138,133,153.6413,136.3689 F,2,37347,37601,1 S,2,37347,37601,1,0.5 P,0,37347,37601,A M,0,37410,37474,153.6413,136.3689,169.2826,139.7378 M,0,37474,37537,169.2826,139.7378,184.9239,143.1067 M,0,37537,37601,184.9239,143.1067,200.5652,146.4756
Sprite,Foreground,Centre,"sb\ring.png",0,0 C,0,37855,,62,158,217 M,0,37855,37918,259,197,251.1904,183.1316 F,2,37855,38236,1 S,2,37855,38236,1,0.5 P,0,37855,38236,A M,0,37918,37982,251.1904,183.1316,246.3014,168.0492 M,0,37982,38045,246.3014,168.0492,244.9662,152.2499 M,0,38045,38109,244.9662,152.2499,247.2549,136.5592 M,0,38109,38172,247.2549,136.5592,253.0484,121.7973 M,0,38172,38236,253.0484,121.7973,261.7774,108.4888
Sprite,Foreground,Centre,"sb\ring.png",0,0 C,0,38364,,62,158,217 M,0,38364,38427,283,85,298.6304,88.41915 F,2,38364,38618,1 S,2,38364,38618,1,0.5 P,0,38364,38618,A M,0,38427,38491,298.6304,88.41915,314.2608,91.8383 M,0,38491,38554,314.2608,91.8383,329.8912,95.25745 M,0,38554,38618,329.8912,95.25745,345.5216,98.6766
Sprite,Foreground,Centre,"sb\ring.png",409,56 F,2,38872,,1 S,2,38872,,1,0.5 C,0,38872,,62,158,217 P,0,38872,,A
Sprite,Foreground,Centre,"sb\ring.png",0,0 C,0,39126,,9,122,206 M,0,39126,39189,460,116,465.7895,130.8246 F,2,39126,39380,1 S,2,39126,39380,1,0.5 P,0,39126,39380,A M,0,39189,39253,465.7895,130.8246,468.4442,146.4538 M,0,39253,39316,468.4442,146.4538,467.4091,162.273 M,0,39316,39380,467.4091,162.273,463.1494,177.6068
Sprite,Foreground,Centre,"sb\ring.png",405,232 F,2,39635,,1 S,2,39635,,1,0.5 C,0,39635,,9,122,206 P,0,39635,,A
Sprite,Foreground,Centre,"sb\ring.png",0,0 C,0,39889,,9,122,206 M,0,39889,39952,440,301,435.2028,316.2639 F,2,39889,40143,1 S,2,39889,40143,1,0.5 P,0,39889,40143,A M,0,39952,40016,435.2028,316.2639,430.4055,331.5278 M,0,40016,40079,430.4055,331.5278,425.6083,346.7917 M,0,40079,40143,425.6083,346.7917,420.8111,362.0556
Sprite,Foreground,Centre,"sb\ring.png",0,0 C,0,40398,,9,122,206 M,0,40398,40461,342,357,346.7972,341.7361 F,2,40398,40652,1 S,2,40398,40652,1,0.5 P,0,40398,40652,A M,0,40461,40525,346.7972,341.7361,351.5945,326.4722 M,0,40525,40588,351.5945,326.4722,356.3917,311.2083 M,0,40588,40652,356.3917,311.2083,361.1889,295.9444
Sprite,Foreground,Centre,"sb\ring.png",324,231 F,2,40906,,1 S,2,40906,,1,0.5 C,0,40906,,9,122,206 P,0,40906,,A
Sprite,Foreground,Centre,"sb\ring.png",362,165 F,2,41160,,1 S,2,41160,,1,0.5 C,0,41160,,9,122,206 P,0,41160,,A
Sprite,Foreground,Centre,"sb\ring.png",0,0 C,0,41414,,62,158,217 M,0,41414,41477,314,105,298.3202,108.185 F,2,41414,41668,1 S,2,41414,41668,1,0.5 P,0,41414,41668,A M,0,41477,41541,298.3202,108.185,282.6404,111.3699 M,0,41541,41604,282.6404,111.3699,266.9606,114.5549 M,0,41604,41668,266.9606,114.5549,251.2808,117.7398
Sprite,Foreground,Centre,"sb\ring.png",0,0 C,0,41923,,62,158,217 M,0,41923,41986,187,81,197.3932,93.03448 F,2,41923,42304,1 S,2,41923,42304,1,0.5 P,0,41923,42304,A M,0,41986,42050,197.3932,93.03448,205.1792,106.8232 M,0,42050,42113,205.1792,106.8232,209.5735,122.0537 M,0,42113,42177,209.5735,122.0537,210.3301,137.9124 M,0,42177,42240,210.3301,137.9124,207.394,153.5491 M,0,42240,42304,207.394,153.5491,201,168
Sprite,Foreground,Centre,"sb\ring.png",0,0 C,0,42431,,62,158,217 M,0,42431,42494,185,186,169.2581,183.1378 F,2,42431,42685,1 S,2,42431,42685,1,0.5 P,0,42431,42685,A M,0,42494,42558,169.2581,183.1378,153.5162,180.2757 M,0,42558,42621,153.5162,180.2757,137.7742,177.4135 M,0,42621,42685,137.7742,177.4135,122.0323,174.5513
Sprite,Foreground,Centre,"sb\ring.png",64,221 F,2,42940,,1 S,2,42940,,1,0.5 C,0,42940,,62,158,217 P,0,42940,,A
Sprite,Foreground,Centre,"sb\ring.png",0,0 C,0,43194,,9,122,206 M,0,43194,43257,118,275,123.8765,289.7786 F,2,43194,43448,1 S,2,43194,43448,1,0.5 P,0,43194,43448,A M,0,43257,43321,123.8765,289.7786,126.5106,305.3924 M,0,43321,43384,126.5106,305.3924,125.304,321.1822 M,0,43384,43448,125.304,321.1822,120.6879,336.4007
Sprite,Foreground,Centre,"sb\ring.png",64,391 F,2,43703,,1 S,2,43703,,1,0.5 C,0,43703,,9,122,206 P,0,43703,,A
Sprite,Foreground,Centre,"sb\ring.png",0,0 C,0,43957,,9,122,206 M,0,43957,44020,124,440,139.6956,436.8936 F,2,43957,44338,1 S,2,43957,44338,1,0.5 P,0,43957,44338,A M,0,44020,44084,139.6956,436.8936,155.3911,433.7872 M,0,44084,44147,155.3911,433.7872,171.0866,430.6808 M,0,44147,44211,171.0866,430.6808,186.7822,427.5744 M,0,44211,44274,186.7822,427.5744,202.4777,424.468 M,0,44274,44338,202.4777,424.468,218.1733,421.3615
Sprite,Foreground,Centre,"sb\ring.png",240,432 F,2,44465,,1 S,2,44465,,1,0.5 C,0,44465,,9,122,206 P,0,44465,,A
Sprite,Foreground,Centre,"sb\ring.png",0,0 C,0,44720,,9,122,206 M,0,44720,44783,287,372,301.3401,365.1648 F,2,44720,44974,1 S,2,44720,44974,1,0.5 P,0,44720,44974,A M,0,44783,44847,301.3401,365.1648,316.7579,361.6898 M,0,44847,44910,316.7579,361.6898,332.5583,362.2816 M,0,44910,44974,332.5583,362.2816,347.8486,366.604
Sprite,Foreground,Centre,"sb\ring.png",409,413 F,2,45228,,1 S,2,45228,,1,0.5 C,0,45228,,9,122,206 P,0,45228,,A
Sprite,Foreground,Centre,"sb\ring.png",0,0 C,0,45482,,62,158,217 M,0,45482,45545,451,345,447.6927,329.3456 F,2,45482,45736,1 S,2,45482,45736,1,0.5 P,0,45482,45736,A M,0,45545,45609,447.6927,329.3456,444.3854,313.6911 M,0,45609,45672,444.3854,313.6911,441.0782,298.0366 M,0,45672,45736,441.0782,298.0366,437.7709,282.3822
Sprite,Foreground,Centre,"sb\ring.png",0,0 C,0,45991,,62,158,217 M,0,45991,46054,477,216,463.9797,225.1904 F,2,45991,46372,1 S,2,45991,46372,1,0.5 P,0,45991,46372,A M,0,46054,46118,463.9797,225.1904,449.6268,232.0115 M,0,46118,46181,449.6268,232.0115,434.2155,235.892 M,0,46181,46245,434.2155,235.892,418.3413,236.6815 M,0,46245,46308,418.3413,236.6815,402.6175,234.3486 M,0,46308,46372,402.6175,234.3486,387.652,228.9826
Sprite,Foreground,Centre,"sb\ring.png",0,0 C,0,46499,,62,158,217 M,0,46499,46562,356,207,359.5242,191.3929 F,2,46499,46753,1 S,2,46499,46753,1,0.5 P,0,46499,46753,A M,0,46562,46626,359.5242,191.3929,363.0483,175.7859 M,0,46626,46689,363.0483,175.7859,366.5725,160.1788 M,0,46689,46753,366.5725,160.1788,370,145
Sprite,Foreground,Centre,"sb\ring.png",328,81 F,2,47008,,1 S,2,47008,,1,0.5 C,0,47008,,62,158,217 P,0,47008,,A
Sprite,Foreground,Centre,"sb\ring.png",0,0 C,0,47262,,9,122,206 M,0,47262,47325,265,125,249.708,129.4009 F,2,47262,47516,1 S,2,47262,47516,1,0.5 P,0,47262,47516,A M,0,47325,47389,249.708,129.4009,233.902,130.5662 M,0,47389,47452,233.902,130.5662,218.263,127.9945 M,0,47452,47516,218.263,127.9945,203.4362,122.2191
Sprite,Foreground,Centre,"sb\ring.png",144,72 F,2,47770,,1 S,2,47770,,1,0.5 C,0,47770,,9,122,206 P,0,47770,,A
Sprite,Foreground,Centre,"sb\ring.png",0,0 C,0,48025,,9,122,206 M,0,48025,48088,90,133,93.99805,148.4924 F,2,48025,48279,1 S,2,48025,48279,1,0.5 P,0,48025,48279,A M,0,48088,48152,93.99805,148.4924,97.99609,163.9849 M,0,48152,48215,97.99609,163.9849,101.9941,179.4773 M,0,48215,48279,101.9941,179.4773,105.9922,194.9698
Sprite,Foreground,Centre,"sb\ring.png",0,0 C,0,48533,,9,122,206 M,0,48533,48596,177,225,173.002,240.4924 F,2,48533,48787,1 S,2,48533,48787,1,0.5 P,0,48533,48787,A M,0,48596,48660,173.002,240.4924,169.0039,255.9849 M,0,48660,48723,169.0039,255.9849,165.0059,271.4773 M,0,48723,48787,165.0059,271.4773,161.0078,286.9698
Sprite,Foreground,Centre,"sb\ring.png",0,0 C,0,49042,,9,122,206 M,0,49042,49105,92,316,95.99805,331.4924 F,2,49042,49296,1 S,2,49042,49296,1,0.5 P,0,49042,49296,A M,0,49105,49169,95.99805,331.4924,99.99609,346.9849 M,0,49169,49232,99.99609,346.9849,103.9941,362.4773 M,0,49232,49296,103.9941,362.4773,107.9922,377.9698
Sprite,Foreground,Centre,"sb\ring.png",180,405 F,2,49550,,1 S,2,49550,,1,0.5 C,0,49550,,163,186,228 P,0,49550,,A
Sprite,Foreground,Centre,"sb\ring.png",238,355 F,2,49804,,1 S,2,49804,,1,0.5 C,0,49804,,163,186,228 P,0,49804,,A
Sprite,Foreground,Centre,"sb\ring.png",0,0 C,0,50059,,163,186,228 M,0,50059,50122,305,398,319.1687,405.2562 F,2,50059,50440,1 S,2,50059,50440,1,0.5 P,0,50059,50440,A M,0,50122,50186,319.1687,405.2562,334.4123,409.6336 M,0,50186,50249,334.4123,409.6336,350.2485,410.5267 M,0,50249,50313,350.2485,410.5267,365.8916,407.8902 M,0,50313,50376,365.8916,407.8902,380.5654,401.8538 M,0,50376,50440,380.5654,401.8538,393.7526,392.9338
Sprite,Foreground,Centre,"sb\ring.png",0,0 C,0,50567,,163,186,228 M,0,50567,50630,413,375,428.7494,377.8208 F,2,50567,50821,1 S,2,50567,50821,1,0.5 P,0,50567,50821,A M,0,50630,50694,428.7494,377.8208,444.4988,380.6416 M,0,50694,50757,444.4988,380.6416,460.2482,383.4623 M,0,50757,50821,460.2482,383.4623,475.9976,386.2831
Sprite,Foreground,Centre,"sb\ring.png",532,325 F,2,51075,,1 S,2,51075,,1,0.5 C,0,51075,,163,186,228 P,0,51075,,A
Sprite,Foreground,Centre,"sb\ring.png",0,0 C,0,51330,,114,151,207 M,0,51330,51393,481,269,478.3479,253.2879 F,2,51330,51584,1 S,2,51330,51584,1,0.5 P,0,51330,51584,A M,0,51393,51457,478.3479,253.2879,478.3796,237.4004 M,0,51457,51520,478.3796,237.4004,481.5136,221.8211 M,0,51520,51584,481.5136,221.8211,487.4081,207.015
Sprite,Foreground,Centre,"sb\ring.png",545,155 F,2,51838,,1 S,2,51838,,1,0.5 C,0,51838,,114,151,207 P,0,51838,,A
Sprite,Foreground,Centre,"sb\ring.png",0,0 C,0,52092,,114,151,207 M,0,52092,52155,493,97,477.3623,100.3855 F,2,52092,52473,1 S,2,52092,52473,1,0.5 P,0,52092,52473,A M,0,52155,52219,477.3623,100.3855,461.7245,103.771 M,0,52219,52282,461.7245,103.771,446.0868,107.1565 M,0,52282,52346,446.0868,107.1565,430.4491,110.5419 M,0,52346,52409,430.4491,110.5419,414.8114,113.9274 M,0,52409,52473,414.8114,113.9274,399.1736,117.3129
Sprite,Foreground,Centre,"sb\ring.png",385,134 F,2,52601,,1 S,2,52601,,1,0.5 C,0,52601,,114,151,207 P,0,52601,,A
Sprite,Foreground,Centre,"sb\ring.png",0,0 C,0,52855,,114,151,207 M,0,52855,52918,320,89,304.936,83.95174 F,2,52855,53109,1 S,2,52855,53109,1,0.5 P,0,52855,53109,A M,0,52918,52982,304.936,83.95174,289.1907,82.57516 M,0,52982,53045,289.1907,82.57516,273.6484,85.44749 M,0,53045,53109,273.6484,85.44749,259.1395,91.91962
Sprite,Foreground,Centre,"sb\ring.png",210,149 F,2,53364,,1 S,2,53364,,1,0.5 C,0,53364,,114,151,207 P,0,53364,,A
Sprite,Foreground,Centre,"sb\ring.png",0,0 C,0,53618,,163,186,228 M,0,53618,53681,256,214,252.5291,229.619 F,2,53618,53872,1 S,2,53618,53872,1,0.5 P,0,53618,53872,A M,0,53681,53745,252.5291,229.619,249.0582,245.238 M,0,53745,53808,249.0582,245.238,245.5873,260.857 M,0,53808,53872,245.5873,260.857,242.1165,276.476
Sprite,Foreground,Centre,"sb\ring.png",0,0 C,0,54126,,163,186,228 M,0,54126,54189,179,318,163.8489,322.9936 F,2,54126,54507,1 S,2,54126,54507,1,0.5 P,0,54126,54507,A M,0,54189,54253,163.8489,322.9936,148.1497,325.6255 M,0,54253,54316,148.1497,325.6255,132.2319,325.4956 M,0,54316,54380,132.2319,325.4956,116.5777,322.6078 M,0,54380,54443,116.5777,322.6078,101.6612,317.0495 M,0,54443,54507,101.6612,317.0495,87.93428,308.9892
Sprite,Foreground,Centre,"sb\ring.png",0,0 C,0,54635,,163,186,228 M,0,54635,54698,75,295,78.47089,279.381 F,2,54635,54889,1 S,2,54635,54889,1,0.5 P,0,54635,54889,A M,0,54698,54762,78.47089,279.381,81.94177,263.762 M,0,54762,54825,81.94177,263.762,85.41266,248.143 M,0,54825,54889,85.41266,248.143,88.88354,232.524
Sprite,Foreground,Centre,"sb\ring.png",64,163 F,2,55143,,1 S,2,55143,,1,0.5 C,0,55143,,163,186,228 P,0,55143,,A
Sprite,Foreground,Centre,"sb\ring.png",0,0 C,0,55398,,114,151,207 M,0,55398,55461,114,107,128.6793,100.9485 F,2,55398,55652,1 S,2,55398,55652,1,0.5 P,0,55398,55652,A M,0,55461,55525,128.6793,100.9485,144.2888,98.57675 M,0,55525,55588,144.2888,98.57675,159.9547,100.552 M,0,55588,55652,159.9547,100.552,174.7448,106.3233
Sprite,Foreground,Centre,"sb\ring.png",226,162 F,2,55906,,1 S,2,55906,,1,0.5 C,0,55906,,114,151,207 P,0,55906,,A
Sprite,Foreground,Centre,"sb\ring.png",0,0 C,0,56160,,114,151,207 M,0,56160,56223,307,141,302.7523,156.4259 F,2,56160,56414,1 S,2,56160,56414,1,0.5 P,0,56160,56414,A M,0,56223,56287,302.7523,156.4259,298.5046,171.8517 M,0,56287,56350,298.5046,171.8517,294.2569,187.2776 M,0,56350,56414,294.2569,187.2776,290.0092,202.7034
Sprite,Foreground,Centre,"sb\ring.png",0,0 C,0,56669,,114,151,207 M,0,56669,56732,357,236,361.2477,251.4259 F,2,56669,56923,1 S,2,56669,56923,1,0.5 P,0,56669,56923,A M,0,56732,56796,361.2477,251.4259,365.4954,266.8517 M,0,56796,56859,365.4954,266.8517,369.7431,282.2776 M,0,56859,56923,369.7431,282.2776,373.9908,297.7034
Sprite,Foreground,Centre,"sb\ring.png",0,0 C,0,57177,,114,151,207 M,0,57177,57240,306,328,301.7523,343.4258 F,2,57177,57431,1 S,2,57177,57431,1,0.5 P,0,57177,57431,A M,0,57240,57304,301.7523,343.4258,297.5046,358.8517 M,0,57304,57367,297.5046,358.8517,293.2569,374.2776 M,0,57367,57431,293.2569,374.2776,289.0092,389.7034
Sprite,Foreground,Centre,"sb\ring.png",358,423 F,2,57686,,1 S,2,57686,,1,0.5 C,0,57686,,163,186,228 P,0,57686,,A
Sprite,Foreground,Centre,"sb\ring.png",412,366 F,2,57940,,1 S,2,57940,,1,0.5 C,0,57940,,163,186,228 P,0,57940,,A
Sprite,Foreground,Centre,"sb\ring.png",0,0 C,0,58194,,163,186,228 M,0,58194,58257,374,298,367.2546,283.5596 F,2,58194,58575,1 S,2,58194,58575,1,0.5 P,0,58194,58575,A M,0,58257,58321,367.2546,283.5596,362.857,268.2831 M,0,58321,58384,362.857,268.2831,361.332,252.449 M,0,58384,58448,361.332,252.449,362.7359,236.5879 M,0,58448,58511,362.7359,236.5879,367.0289,221.2327 M,0,58511,58575,367.0289,221.2327,374,207
Sprite,Foreground,Centre,"sb\ring.png",0,0 C,0,58703,,163,186,228 M,0,58703,58766,390,186,405.7823,188.6304 F,2,58703,58957,1 S,2,58703,58957,1,0.5 P,0,58703,58957,A M,0,58766,58830,405.7823,188.6304,421.5646,191.2608 M,0,58830,58893,421.5646,191.2608,437.3469,193.8911 M,0,58893,58957,437.3469,193.8911,453.1292,196.5215
Sprite,Foreground,Centre,"sb\ring.png",510,246 F,2,59211,,1 S,2,59211,,1,0.5 C,0,59211,,163,186,228 P,0,59211,,A
Sprite,Foreground,Centre,"sb\ring.png",0,0 C,0,59465,,114,151,207 M,0,59465,59528,558,189,564.0245,174.2881 F,2,59465,59719,1 S,2,59465,59719,1,0.5 P,0,59465,59719,A M,0,59528,59592,564.0245,174.2881,566.6497,158.6842 M,0,59592,59655,566.6497,158.6842,565.2598,142.9219 M,0,59655,59719,565.2598,142.9219,560.357,127.8003
Sprite,Foreground,Centre,"sb\ring.png",510,68 F,2,59974,,1 S,2,59974,,1,0.5 C,0,59974,,114,151,207 P,0,59974,,A
Sprite,Foreground,Centre,"sb\ring.png",0,0 C,0,60228,,114,151,207 M,0,60228,60291,442,104,426.21,101.4162 F,2,60228,60609,1 S,2,60228,60609,1,0.5 P,0,60228,60609,A M,0,60291,60355,426.21,101.4162,410.42,98.83237 M,0,60355,60418,410.42,98.83237,394.63,96.24855 M,0,60418,60482,394.63,96.24855,378.84,93.66473 M,0,60482,60545,378.84,93.66473,363.05,91.08092 M,0,60545,60609,363.05,91.08092,347.26,88.4971
Sprite,Foreground,Centre,"sb\ring.png",329,70 F,2,60736,,1 S,2,60736,,1,0.5 C,0,60736,,114,151,207 P,0,60736,,A
Sprite,Foreground,Centre,"sb\ring.png",0,0 C,0,60991,,114,151,207 M,0,60991,61054,266,115,259.0333,129.2384 F,2,60991,61245,1 S,2,60991,61245,1,0.5 P,0,60991,61245,A M,0,61054,61118,259.0333,129.2384,255.5098,144.6054 M,0,61118,61181,255.5098,144.6054,256.2874,160.4078 M,0,61181,61245,256.2874,160.4078,261,175
Sprite,Foreground,Centre,"sb\ring.png",319,227 F,2,61499,,1 S,2,61499,,1,0.5 C,0,61499,,114,151,207 P,0,61499,,A
Sprite,Foreground,Centre,"sb\ring.png",0,0 C,0,61753,,163,186,228 M,0,61753,61816,262,276,246.2243,273.3303 F,2,61753,62007,1 S,2,61753,62007,1,0.5 P,0,61753,62007,A M,0,61816,61880,246.2243,273.3303,230.4486,270.6605 M,0,61880,61943,230.4486,270.6605,214.6729,267.9908 M,0,61943,62007,214.6729,267.9908,198.8972,265.3211
Sprite,Foreground,Centre,"sb\ring.png",0,0 C,0,62262,,163,186,228 M,0,62262,62325,149,208,157.6028,221.3894 F,2,62262,62643,1 S,2,62262,62643,1,0.5 P,0,62262,62643,A M,0,62325,62389,157.6028,221.3894,163.2976,236.1839 M,0,62389,62452,163.2976,236.1839,165.4185,251.8943 M,0,62452,62516,165.4185,251.8943,163.8505,267.6697 M,0,62516,62579,163.8505,267.6697,158.6783,282.6557 M,0,62579,62643,158.6783,282.6557,150.5079,296.3121
Sprite,Foreground,Centre,"sb\ring.png",0,0 C,0,62770,,163,186,228 M,0,62770,62833,138,311,141.7696,326.5496 F,2,62770,63024,1 S,2,62770,63024,1,0.5 P,0,62770,63024,A M,0,62833,62897,141.7696,326.5496,145.5392,342.0992 M,0,62897,62960,145.5392,342.0992,149.3088,357.6488 M,0,62960,63024,149.3088,357.6488,153.0784,373.1984
Sprite,Foreground,Centre,"sb\ring.png",216,423 F,2,63279,,1 S,2,63279,,1,0.5 C,0,63279,,163,186,228 P,0,63279,,A
Sprite,Foreground,Centre,"sb\ring.png",0,0 C,0,63533,,114,151,207 M,0,63533,63596,277,374,291.7608,368.161 F,2,63533,63787,1 S,2,63533,63787,1,0.5 P,0,63533,63787,A M,0,63596,63660,291.7608,368.161,307.3442,365.5352 M,0,63660,63723,307.3442,365.5352,323.1431,366.874 M,0,63723,63787,323.1431,366.874,338,372
Sprite,Foreground,Centre,"sb\ring.png",398,427 F,2,64042,,1 S,2,64042,,1,0.5 C,0,64042,,114,151,207 P,0,64042,,A
Sprite,Foreground,Centre,"sb\ring.png",0,0 C,0,64296,,114,151,207 M,0,64296,64359,449,366,444.8924,350.5362 F,2,64296,64550,1 S,2,64296,64550,1,0.5 P,0,64296,64550,A M,0,64359,64423,444.8924,350.5362,440.7849,335.0725 M,0,64423,64486,440.7849,335.0725,436.6773,319.6087 M,0,64486,64550,436.6773,319.6087,432.5698,304.145
Sprite,Foreground,Centre,"sb\ring.png",0,0 C,0,64804,,114,151,207 M,0,64804,64867,358,276,362.1076,260.5363 F,2,64804,65058,1 S,2,64804,65058,1,0.5 P,0,64804,65058,A M,0,64867,64931,362.1076,260.5363,366.2151,245.0725 M,0,64931,64994,366.2151,245.0725,370.3227,229.6087 M,0,64994,65058,370.3227,229.6087,374.4302,214.145
Sprite,Foreground,Centre,"sb\ring.png",0,0 C,0,65313,,114,151,207 M,0,65313,65376,442,173,448.8351,158.6175 F,2,65313,65694,1 S,2,65313,65694,1,0.5 P,0,65313,65694,A M,0,65376,65440,448.8351,158.6175,452.842,143.2632 M,0,65440,65503,452.842,143.2632,453.4511,127.4051 M,0,65503,65567,453.4511,127.4051,450.6331,111.786 M,0,65567,65630,450.6331,111.786,444.5191,97.13711 M,0,65630,65694,444.5191,97.13711,435.6247,83.92783
Sprite,Foreground,Centre,"sb\ring.png",420,69 F,2,65821,,1 S,2,65821,,1,0.5 C,0,65821,,207,207,207 P,0,65821,,A
Sprite,Foreground,Centre,"sb\ring.png",0,0 C,0,73957,,160,160,160 M,0,73957,74020,420,69,411.9236,63.8336 F,2,73957,74719,1 S,2,73957,74719,1,0.5 P,0,73957,74719,A M,0,74020,74084,411.9236,63.8336,403.4068,59.44531 M,0,74084,74147,403.4068,59.44531,394.5229,55.87188 M,0,74147,74211,394.5229,55.87188,385.3483,53.14325 M,0,74211,74274,385.3483,53.14325,375.9619,51.28231 M,0,74274,74338,375.9619,51.28231,366.4442,50.30468 M,0,74338,74401,366.4442,50.30468,356.875,49.98636 M,0,74401,74465,356.875,49.98636,347.3377,50.90348 M,0,74465,74529,347.3377,50.90348,337.9326,52.70452 M,0,74529,74592,337.9326,52.70452,328.7402,55.3733 M,0,74592,74656,328.7402,55.3733,319.8392,58.8864 M,0,74656,74719,319.8392,58.8864,311.1425,62.92645
Sprite,Foreground,Centre,"sb\ring.png",0,0 C,0,74974,,160,160,160 M,0,74974,75037,258,114,259.8385,123.4223 F,2,74974,75482,1 S,2,74974,75482,1,0.5 P,0,74974,75482,A M,0,75037,75101,259.8385,123.4223,261.677,132.8446 M,0,75101,75164,261.677,132.8446,263.5155,142.2669 M,0,75164,75228,263.5155,142.2669,265.354,151.6892 M,0,75228,75291,265.354,151.6892,263.5155,142.2669 M,0,75291,75355,263.5155,142.2669,261.677,132.8446 M,0,75355,75418,261.677,132.8446,259.8385,123.4223 M,0,75418,75482,259.8385,123.4223,258,114
Sprite,Foreground,Centre,"sb\ring.png",196,69 F,2,75736,,1 S,2,75736,,1,0.5 C,0,75736,,160,160,160 P,0,75736,,A
Sprite,Foreground,Centre,"sb\ring.png",0,0 C,0,75991,,160,160,160 M,0,75991,76054,128,105,123.908,113.6694 F,2,75991,76753,1 S,2,75991,76753,1,0.5 P,0,75991,76753,A M,0,76054,76118,123.908,113.6694,120.6645,122.6834 M,0,76118,76181,120.6645,122.6834,118.2977,131.9605 M,0,76181,76245,118.2977,131.9605,116.8282,141.4172 M,0,76245,76308,116.8282,141.4172,116.2684,150.9684 M,0,76308,76372,116.2684,150.9684,116.2995,160.5544 M,0,76372,76435,116.2995,160.5544,117.6832,170.0396 M,0,76435,76499,117.6832,170.0396,119.9643,179.3428 M,0,76499,76563,119.9643,179.3428,123.1215,188.3809 M,0,76563,76626,123.1215,188.3809,127.1256,197.0727 M,0,76626,76690,127.1256,197.0727,131.9401,205.3403 M,0,76690,76753,131.9401,205.3403,137,213
Sprite,Foreground,Centre,"sb\ring.png",0,0 C,0,77008,,160,160,160 M,0,77008,77071,190,266,187.8413,275.3542 F,2,77008,77262,1 S,2,77008,77262,1,0.5 P,0,77008,77262,A M,0,77071,77135,187.8413,275.3542,185.6827,284.7083 M,0,77135,77198,185.6827,284.7083,183.524,294.0625 M,0,77198,77262,183.524,294.0625,181.3654,303.4166
Sprite,Foreground,Centre,"sb\ring.png",0,0 C,0,77516,,160,160,160 M,0,77516,77579,122,349,124.1586,358.3542 F,2,77516,77770,1 S,2,77516,77770,1,0.5 P,0,77516,77770,A M,0,77579,77643,124.1586,358.3542,126.3173,367.7083 M,0,77643,77706,126.3173,367.7083,128.476,377.0625 M,0,77706,77770,128.476,377.0625,130.6346,386.4166
Sprite,Foreground,Centre,"sb\ring.png",0,0 C,0,78025,,207,207,207 M,0,78025,78088,204,412,212.822,415.7626 F,2,78025,78787,1 S,2,78025,78787,1,0.5 P,0,78025,78787,A M,0,78088,78152,212.822,415.7626,221.9082,418.8177 M,0,78152,78215,221.9082,418.8177,231.2031,421.1475 M,0,78215,78279,231.2031,421.1475,240.6499,422.7379 M,0,78279,78342,240.6499,422.7379,250.1908,423.5797 M,0,78342,78406,250.1908,423.5797,259.7736,423.9199 M,0,78406,78469,259.7736,423.9199,269.3325,423.1559 M,0,78469,78533,269.3325,423.1559,278.7972,421.6426 M,0,78533,78597,278.7972,421.6426,288.1102,419.39 M,0,78597,78660,288.1102,419.39,297.2147,416.4122 M,0,78660,78724,297.2147,416.4122,306.0552,412.7274 M,0,78724,78787,306.0552,412.7274,314,409
Sprite,Foreground,Centre,"sb\ring.png",0,0 C,0,79042,,207,207,207 M,0,79042,79105,378,368,387.5334,369.129 F,2,79042,79550,1 S,2,79042,79550,1,0.5 P,0,79042,79550,A M,0,79105,79169,387.5334,369.129,397.0668,370.2579 M,0,79169,79232,397.0668,370.2579,406.6002,371.3869 M,0,79232,79296,406.6002,371.3869,416.1335,372.5158 M,0,79296,79359,416.1335,372.5158,425.6669,373.6448 M,0,79359,79423,425.6669,373.6448,435.2003,374.7737 M,0,79423,79486,435.2003,374.7737,444.7337,375.9027 M,0,79486,79550,444.7337,375.9027,454,377
Sprite,Foreground,Centre,"sb\ring.png",509,426 F,2,79804,,1 S,2,79804,,1,0.5 C,0,79804,,207,207,207 P,0,79804,,A
Sprite,Foreground,Centre,"sb\ring.png",0,0 C,0,80059,,207,207,207 M,0,80059,80122,566,381,569.9933,372.2845 F,2,80059,80821,1 S,2,80059,80821,1,0.5 P,0,80059,80821,A M,0,80122,80186,569.9933,372.2845,573.1381,363.2354 M,0,80186,80249,573.1381,363.2354,575.4073,353.9337 M,0,80249,80313,575.4073,353.9337,576.7815,344.4624 M,0,80313,80376,576.7815,344.4624,577.249,334.906 M,0,80376,80440,577.249,334.906,577.1296,325.3203 M,0,80440,80503,577.1296,325.3203,575.6631,315.8474 M,0,80503,80567,575.6631,315.8474,573.3046,306.5631 M,0,80567,80631,573.3046,306.5631,570.0762,297.55 M,0,80631,80694,570.0762,297.55,566.0073,288.888 M,0,80694,80758,566.0073,288.888,561.1345,280.6542 M,0,80758,80821,561.1345,280.6542,556,273
Sprite,Foreground,Centre,"sb\ring.png",0,0 C,0,81075,,207,207,207 M,0,81075,81138,497,223,491.7966,214.9573 F,2,81075,81583,1 S,2,81075,81583,1,0.5 P,0,81075,81583,A M,0,81138,81202,491.7966,214.9573,487.7487,206.2869 M,0,81202,81265,487.7487,206.2869,484.9299,197.1525 M,0,81265,81329,484.9299,197.1525,483.3911,187.7263 M,0,81329,81392,483.3911,187.7263,483.159,178.1856 M,0,81392,81456,483.159,178.1856,484.2365,168.7096 M,0,81456,81519,484.2365,168.7096,486.6015,159.4762 M,0,81519,81583,486.6015,159.4762,489.8662,150.4742
//Storyboard Layer 4 (Overlay)
//Storyboard Sound Samples

[TimingPoints]
737,508.474576271186,4,2,1,40,1,0
737,-166.666666666667,4,2,1,40,0,0
17008,-125,4,2,1,50,0,0
33279,-100,4,2,1,60,0,0
34169,-100,4,2,99,5,0,0
34296,-100,4,2,1,60,0,0
36203,-100,4,2,99,5,0,0
36330,-100,4,2,1,60,0,0
38236,-100,4,2,99,5,0,0
38364,-100,4,2,1,60,0,0
42304,-100,4,2,99,5,0,0
42431,-100,4,2,1,60,0,0
44338,-100,4,2,99,5,0,0
44465,-100,4,2,1,60,0,0
46372,-100,4,2,99,5,0,0
46499,-100,4,2,1,60,0,0
50440,-100,4,2,99,5,0,0
50567,-100,4,2,1,60,0,0
52474,-100,4,2,99,5,0,0
52601,-100,4,2,1,60,0,0
54508,-100,4,2,99,5,0,0
54635,-100,4,2,1,60,0,0
58575,-100,4,2,99,5,0,0
58703,-100,4,2,1,60,0,0
60609,-100,4,2,99,5,0,0
60736,-100,4,2,1,60,0,0
62643,-100,4,2,99,5,0,0
62770,-100,4,2,1,60,0,0
65694,-100,4,2,99,5,0,0
65821,-125,4,2,1,50,0,0
73957,-166.666666666667,4,2,1,60,0,0
82092,-166.666666666667,4,2,1,20,0,0
82601,-166.666666666667,4,2,1,30,0,0
83109,-166.666666666667,4,2,1,40,0,0
83618,-166.666666666667,4,2,1,50,0,0
83872,-166.666666666667,4,2,1,60,0,0
84126,-166.666666666667,4,2,1,65,0,0
84381,-166.666666666667,4,2,1,70,0,0
84635,-166.666666666667,4,2,1,75,0,0
84762,-166.666666666667,4,2,1,80,0,0
84889,-166.666666666667,4,2,1,85,0,0
85016,-166.666666666667,4,2,1,90,0,0
85143,-166.666666666667,4,2,1,5,0,0
85398,-166.666666666667,4,2,1,60,0,0
86160,-83.3333333333333,4,2,1,80,0,1
86542,-83.3333333333333,4,2,99,5,0,1
86669,-83.3333333333333,4,2,1,80,0,1
87431,-83.3333333333333,4,2,99,5,0,1
87559,-83.3333333333333,4,2,1,80,0,1
88194,-83.3333333333333,4,2,2,80,0,1
88321,-83.3333333333333,4,2,99,5,0,1
88448,-83.3333333333333,4,2,1,80,0,1
90228,-83.3333333333333,4,2,2,80,0,1
90355,-83.3333333333333,4,2,99,5,0,1
90482,-83.3333333333333,4,2,1,80,0,1
91499,-83.3333333333333,4,2,99,5,0,1
91626,-83.3333333333333,4,2,1,80,0,1
92008,-83.3333333333333,4,2,1,80,0,1
92262,-83.3333333333333,4,2,2,80,0,1
92389,-83.3333333333333,4,2,1,80,0,1
92770,-83.3333333333333,4,2,3,80,0,1
92897,-83.3333333333333,4,2,1,80,0,1
93533,-166.666666666667,4,2,1,80,0,1
94042,-166.666666666667,4,2,1,40,0,1
94296,-83.3333333333334,4,2,1,80,0,1
94677,-83.3333333333333,4,2,99,5,0,1
94804,-83.3333333333333,4,2,1,80,0,1
95567,-83.3333333333333,4,2,99,5,0,1
95694,-83.3333333333333,4,2,1,80,0,1
96330,-83.3333333333333,4,2,2,80,0,1
96457,-83.3333333333333,4,2,99,5,0,1
96584,-83.3333333333333,4,2,1,80,0,1
98364,-83.3333333333333,4,2,2,80,0,1
98491,-83.3333333333333,4,2,99,5,0,1
98618,-83.3333333333333,4,2,1,80,0,1
99635,-83.3333333333333,4,2,99,5,0,1
99762,-83.3333333333333,4,2,1,80,0,1
100398,-83.3333333333333,4,2,2,80,0,1
100525,-83.3333333333333,4,2,1,80,0,1
100906,-83.3333333333333,4,2,3,80,0,1
101033,-83.3333333333333,4,2,1,80,0,1
101669,-166.666666666667,4,2,1,80,0,1
102177,-166.666666666667,4,2,1,40,0,1
102431,-83.3333333333333,4,2,1,80,0,1
102813,-83.3333333333333,4,2,99,5,0,1
102940,-83.3333333333333,4,2,1,80,0,1
103703,-83.3333333333333,4,2,99,5,0,1
103830,-83.3333333333333,4,2,1,80,0,1
104465,-83.3333333333333,4,2,2,80,0,1
104592,-83.3333333333333,4,2,99,5,0,1
104719,-83.3333333333333,4,2,1,80,0,1
106499,-83.3333333333333,4,2,2,80,0,1
106626,-83.3333333333333,4,2,99,5,0,1
106753,-83.3333333333333,4,2,1,80,0,1
107770,-83.3333333333333,4,2,99,5,0,1
107897,-83.3333333333333,4,2,1,80,0,1
108533,-83.3333333333333,4,2,2,80,0,1
108660,-83.3333333333333,4,2,1,80,0,1
109042,-83.3333333333333,4,2,3,80,0,1
109169,-83.3333333333333,4,2,1,80,0,1
109804,-166.666666666667,4,2,1,80,0,1
110313,-166.666666666667,4,2,1,40,0,1
110567,-83.3333333333333,4,2,1,80,0,1
110948,-83.3333333333333,4,2,99,5,0,1
111075,-83.3333333333333,4,2,1,80,0,1
111838,-83.3333333333333,4,2,99,5,0,1
111965,-83.3333333333333,4,2,1,80,0,1
112601,-83.3333333333333,4,2,2,80,0,1
112728,-83.3333333333333,4,2,1,80,0,1
113109,-83.3333333333333,4,2,3,80,0,1
113236,-83.3333333333333,4,2,1,80,0,1
113872,-166.666666666667,4,2,1,80,0,1
114381,-166.666666666667,4,2,1,40,0,1
114635,-83.3333333333333,4,2,1,80,0,1
115016,-83.3333333333333,4,2,99,5,0,1
115143,-83.3333333333333,4,2,1,80,0,1
115906,-83.3333333333333,4,2,99,5,0,1
116033,-83.3333333333333,4,2,1,80,0,1
116669,-83.3333333333333,4,2,2,80,0,1
116796,-83.3333333333333,4,2,1,80,0,1
117177,-83.3333333333333,4,2,3,80,0,1
117304,-83.3333333333333,4,2,1,80,0,1
117940,-166.666666666667,4,2,1,80,0,1
118448,-166.666666666667,4,2,1,40,0,1
118703,-125,4,2,1,60,0,0
119974,-125,4,2,1,5,0,0
120101,-125,4,2,1,60,0,0
122262,-125,4,2,32,60,0,0
122770,-83.3333333333333,4,2,30,80,0,0
126838,-83.3333333333333,4,2,35,60,0,0
130398,-166.666666666667,4,2,37,60,0,0
130779,-166.666666666667,4,2,99,5,0,0
130906,-166.666666666667,4,2,30,50,0,0
132686,-166.666666666667,4,2,31,50,0,0
132940,-166.666666666667,4,2,33,50,0,0
133194,-166.666666666667,4,2,30,50,0,0
133448,-166.666666666667,4,2,31,50,0,0
133703,-166.666666666667,4,2,30,50,0,0
133957,-166.666666666667,4,2,32,50,0,0
134211,-166.666666666667,4,2,33,50,0,0
134465,-166.666666666667,4,2,34,50,0,0
134720,-166.666666666667,4,2,35,50,0,0
134974,-166.666666666667,4,2,31,50,0,0
137008,-166.666666666667,4,2,35,50,0,0
138533,-166.666666666667,4,2,32,50,0,0
138914,-166.666666666667,4,2,99,5,0,0
139042,-166.666666666667,4,2,30,50,0,0
140821,-166.666666666667,4,2,31,50,0,0
141330,-166.666666666667,4,2,30,50,0,0
141584,-166.666666666667,4,2,31,50,0,0
141838,-166.666666666667,4,2,30,50,0,0
142092,-166.666666666667,4,2,32,50,0,0
142347,-166.666666666667,4,2,33,50,0,0
142601,-166.666666666667,4,2,36,50,0,0
142855,-166.666666666667,4,2,37,50,0,0
143109,-166.666666666667,4,2,35,50,0,0
145143,-166.666666666667,4,2,31,50,0,0
146669,-166.666666666667,4,2,37,50,0,0
147050,-166.666666666667,4,2,99,5,0,0
147177,-166.666666666667,4,2,30,50,0,0
148957,-166.666666666667,4,2,31,50,0,0
149211,-166.666666666667,4,2,33,50,0,0
149465,-166.666666666667,4,2,30,50,0,0
149720,-166.666666666667,4,2,31,50,0,0
149974,-166.666666666667,4,2,30,50,0,0
150228,-166.666666666667,4,2,32,50,0,0
150482,-166.666666666667,4,2,33,50,0,0
150736,-166.666666666667,4,2,31,50,0,0
150991,-166.666666666667,4,2,35,50,0,0
151245,-166.666666666667,4,2,31,50,0,0
153279,-166.666666666667,4,2,35,50,0,0
155313,535.714285714286,4,2,60,30,1,0
155313,-166.666666666667,4,2,60,30,0,0
155580,-166.666666666667,4,2,1,30,0,0
155714,-166.666666666667,4,2,1,5,0,0
155848,-166.666666666667,4,2,1,30,0,0
156652,-166.666666666667,4,2,1,5,0,0
156786,-166.666666666667,4,2,1,30,0,0
158795,-166.666666666667,4,2,1,5,0,0
158929,-166.666666666667,4,2,1,30,0,0
159598,566.037735849057,4,2,61,30,1,0
159598,-166.666666666667,4,2,61,30,0,0
161013,-166.666666666667,4,2,1,5,0,0
161154,-166.666666666667,4,2,1,30,0,0
162994,555.555555555556,4,2,1,30,1,0
162994,-166.666666666667,4,2,1,30,0,0
164105,-166.666666666667,4,2,60,30,0,0
164382,-166.666666666667,4,2,1,30,0,0
164521,-166.666666666667,4,2,1,5,0,0
164660,-166.666666666667,4,2,1,30,0,0
165494,-166.666666666667,4,2,1,5,0,0
165632,-166.666666666667,4,2,1,30,0,0
167438,612.244897959184,4,2,1,30,1,0
167438,-166.666666666667,4,2,1,30,0,0
168662,681.818181818182,4,2,62,20,1,0
168662,-166.666666666667,4,2,62,20,0,0
169343,-166.666666666667,4,2,63,20,0,0
170025,-166.666666666667,4,2,64,20,0,0
170707,666.666666666667,4,2,1,20,1,0
170707,-166.666666666667,4,2,1,20,0,0
171707,-166.666666666667,4,2,1,20,0,0
172040,789.473684210526,4,2,1,10,1,0
172040,-166.666666666667,4,2,1,10,0,0
174408,983.606557377049,4,2,66,10,1,0
174408,-166.666666666667,4,2,66,10,0,0
175391,681.818181818182,4,2,67,10,1,0
175391,-166.666666666667,4,2,67,10,0,0
176072,600,4,2,60,10,1,0
176072,-166.666666666667,4,2,60,10,0,0
176672,923.076923076923,4,2,68,10,1,0
176672,-166.666666666667,4,2,68,10,0,0
177595,1071.42857142857,4,2,1,40,1,0
177595,-166.666666666667,4,2,69,10,0,0
177862,-166.666666666667,4,2,99,5,0,0

[Colours]
Combo1 : 245,160,3
Combo2 : 62,158,217
Combo3 : 9,122,206
Combo4 : 163,186,228
Combo5 : 114,151,207
Combo6 : 207,207,207
Combo7 : 160,160,160
Combo8 : 254,204,54

[HitObjects]
256,192,29211,12,0,33025,0:0:0:0:
109,128,33279,6,0,P|149:116|180:121,1,64,4|0,1:2|0:0,0:0:0:0:
238,156,33787,2,0,P|282:162|345:147,1,96,0|0,1:0|0:0,0:0:0:0:
362,138,34296,2,0,L|350:204,1,64,0|0,1:0|0:0,0:0:0:0:
394,264,34804,1,0,1:0:0:0:
335,315,35059,6,0,P|304:326|270:322,1,64,0|0,0:0|1:0,0:0:0:0:
199,295,35567,1,0,0:0:0:0:
141,352,35821,2,0,L|43:334,1,96,0|0,1:0|0:0,0:0:0:0:
18,314,36330,1,0,1:0:0:0:
68,248,36584,2,0,P|79:217|70:186,1,64,0|0,0:0|1:0,0:0:0:0:
15,135,37092,1,0,0:0:0:0:
74,77,37347,102,0,L|139:91,1,64,0|0,1:0|0:0,0:0:0:0:
195,141,37855,2,0,P|181:107|199:51,1,96,0|0,1:0|0:0,0:0:0:0:
219,29,38364,2,0,L|283:43,1,64,0|0,1:0|0:0,0:0:0:0:
345,0,38872,1,0,1:0:0:0:
396,60,39126,6,0,P|405:93|399:122,1,64,0|0,0:0|1:0,0:0:0:0:
341,176,39635,1,0,0:0:0:0:
376,245,39889,2,0,L|354:315,1,64,0|0,1:0|0:0,0:0:0:0:
278,301,40398,2,0,L|300:231,1,64,0|0,1:0|0:0,0:0:0:0:
260,175,40906,1,0,1:0:0:0:
298,109,41160,1,0,0:0:0:0:
250,49,41414,102,0,L|186:62,1,64,0|0,1:0|0:0,0:0:0:0:
123,25,41923,2,0,P|145:61|137:112,1,96,0|0,1:0|0:0,0:0:0:0:
121,130,42431,2,0,L|55:118,1,64,0|0,1:0|0:0,0:0:0:0:
0,165,42940,1,0,1:0:0:0:
54,219,43194,6,0,P|63:249|56:282,1,64,0|0,0:0|1:0,0:0:0:0:
0,335,43703,1,0,0:0:0:0:
60,384,43957,2,0,L|156:365,1,96,0|0,1:0|0:0,0:0:0:0:
176,376,44465,1,0,1:0:0:0:
223,316,44720,2,0,P|262:305|287:312,1,64,0|0,0:0|1:0,0:0:0:0:
345,357,45228,1,0,0:0:0:0:
387,289,45482,102,0,L|372:218,1,64,0|0,1:0|0:0,0:0:0:0:
413,160,45991,2,0,P|377:179|314:168,1,96,0|0,1:0|0:0,0:0:0:0:
292,151,46499,2,0,L|306:89,1,64,0|0,1:0|0:0,0:0:0:0:
264,25,47008,1,0,1:0:0:0:
201,69,47262,6,0,P|169:75|139:66,1,64,0|0,0:0|1:0,0:0:0:0:
80,16,47770,1,0,0:0:0:0:
26,77,48025,2,0,L|42:139,1,64,0|0,1:0|0:0,0:0:0:0:
113,169,48533,2,0,L|97:231,1,64,0|0,1:0|0:0,0:0:0:0:
28,260,49042,2,0,L|44:322,1,64,0|0,1:0|0:0,0:0:0:0:
116,349,49550,5,4,1:2:0:0:
174,299,49804,1,0,0:0:0:0:
241,342,50059,2,0,P|286:355|332:335,1,96,8|0,1:2|0:0,0:0:0:0:
349,319,50567,2,0,L|416:331,1,64,0|0,1:0|0:0,0:0:0:0:
468,269,51075,1,8,1:0:0:0:
417,213,51330,6,0,P|414:181|425:148,1,64,0|0,0:0|1:0,0:0:0:0:
481,99,51838,1,0,0:0:0:0:
429,41,52092,2,0,L|332:62,1,96,8|0,1:2|0:0,0:0:0:0:
321,78,52601,1,0,1:0:0:0:
256,33,52855,2,0,P|226:26|195:36,1,64,0|8,0:0|1:0,0:0:0:0:
146,93,53364,1,0,0:0:0:0:
192,158,53618,102,0,L|178:221,1,64,0|0,1:0|0:0,0:0:0:0:
115,262,54126,2,0,P|70:270|17:248,1,96,8|0,1:2|0:0,0:0:0:0:
11,239,54635,2,0,L|25:176,1,64,0|0,1:0|0:0,0:0:0:0:
0,107,55143,1,8,1:0:0:0:
50,51,55398,6,0,P|81:42|112:51,1,64,0|0,0:0|1:0,0:0:0:0:
162,106,55906,1,0,0:0:0:0:
243,85,56160,2,0,L|224:154,1,64,8|0,1:2|0:0,0:0:0:0:
293,180,56669,2,0,L|312:249,1,64,0|0,1:0|0:0,0:0:0:0:
242,272,57177,2,0,L|223:341,1,64,8|0,1:0|0:0,0:0:0:0:
294,367,57686,101,0,1:0:0:0:
348,310,57940,1,0,0:0:0:0:
310,242,58194,2,0,P|297:197|310:151,1,96,8|0,1:2|0:0,0:0:0:0:
326,130,58703,2,0,L|392:141,1,64,0|0,1:0|0:0,0:0:0:0:
446,190,59211,1,8,1:0:0:0:
494,133,59465,6,0,P|503:95|496:71,1,64,0|0,0:0|1:0,0:0:0:0:
446,12,59974,1,0,0:0:0:0:
378,48,60228,2,0,L|268:30,1,96,8|0,1:2|0:0,0:0:0:0:
265,14,60736,1,0,1:0:0:0:
202,59,60991,2,0,P|191:88|197:119,1,64,0|8,0:0|1:0,0:0:0:0:
255,171,61499,1,0,0:0:0:0:
198,220,61753,102,0,L|133:209,1,64,0|0,1:0|0:0,0:0:0:0:
85,152,62262,2,0,P|101:186|86:241,1,96,8|0,1:2|0:0,0:0:0:0:
74,255,62770,2,0,L|90:321,1,64,0|0,1:0|0:0,0:0:0:0:
152,367,63279,1,8,1:0:0:0:
213,318,63533,6,0,P|245:309|274:316,1,64,0|0,0:0|1:0,0:0:0:0:
334,371,64042,1,0,0:0:0:0:
385,310,64296,2,0,L|368:246,1,64,8|0,1:2|0:0,0:0:0:0:
294,220,64804,2,0,L|311:156,1,64,0|0,1:0|0:0,0:0:0:0:
378,117,65313,2,0,P|389:64|370:26,1,96,8|0,1:0|0:0,0:0:0:0:
356,13,65821,5,4,0:0:0:0:
356,13,73957,6,0,P|303:-6|247:7,1,115.199996484375,2|0,1:3|0:0,0:0:0:0:
194,58,74974,2,0,L|202:99,2,38.399998828125,2|0|0,0:3|0:0|0:0,0:0:0:0:
132,13,75736,1,0,1:0:0:0:
64,49,75991,2,0,P|52:100|73:157,1,115.199996484375,2|0,1:3|0:0,0:0:0:0:
126,210,77008,2,0,L|117:249,1,38.399998828125,2|0,0:3|0:0,0:0:0:0:
58,293,77516,2,0,L|67:332,1,38.399998828125
140,356,78025,102,0,P|193:368|250:353,1,115.199996484375,2|0,1:3|0:0,0:0:0:0:
314,312,79042,2,0,L|390:321,1,76.7999976562501,2|0,0:3|0:0,0:0:0:0:
445,370,79804,1,0,1:0:0:0:
502,325,80059,2,0,P|512:261|492:217,1,115.199996484375,2|0,1:3|0:0,0:0:0:0:
433,167,81075,2,0,P|419:131|427:92,1,76.7999976562501,2|0,0:3|0:0,0:0:0:0:
256,192,82092,12,0,85143,0:0:0:0:
447,23,85398,6,0,L|408:30,1,38.399998828125
341,6,85906,1,0,0:0:0:0:
278,77,86160,6,0,P|220:98|161:77,1,115.199996484375,4|0,1:0|0:0,0:0:0:0:
141,66,86669,1,8,1:2:0:0:
89,141,86923,1,0,0:0:0:0:
140,211,87177,2,0,L|123:286,1,76.7999976562501,0|0,1:0|0:0,0:0:0:0:
98,298,87559,2,0,L|107:336,1,38.399998828125,0|8,0:0|1:0,0:0:0:0:
216,367,87940,6,0,P|264:346|328:358,1,115.199996484375
348,371,88448,1,0,0:0:0:0:
409,302,88703,2,0,L|390:224,1,76.7999976562501,8|0,1:2|0:0,0:0:0:0:
304,191,89211,2,0,L|323:113,1,76.7999976562501,0|2,1:0|0:3,0:0:0:0:
346,104,89592,2,0,L|334:66,1,38.399998828125,0|8,0:0|1:0,0:0:0:0:
222,44,89974,102,0,P|177:33|114:59,1,115.199996484375
98,88,90482,1,0,0:0:0:0:
153,152,90736,1,8,1:2:0:0:
103,223,90991,1,0,0:0:0:0:
162,281,91245,2,0,P|173:316|161:352,1,76.7999976562501,0|0,1:0|0:0,0:0:0:0:
136,369,91626,2,0,L|98:359,1,38.399998828125,0|8,0:0|1:0,0:0:0:0:
43,278,92008,6,0,B|98:243|152:275|152:275|209:307|261:271|261:271|276:283|276:283|291:273|291:273|307:284|307:284|323:273|323:273|363:295|396:280,1,383.99998828125,0|0,0:0|1:0,0:0:0:0:
450,222,93533,2,0,L|442:184,1,38.399998828125,2|8,0:3|1:0,0:0:0:0:
476,121,94042,1,2,0:3:0:0:
370,61,94296,102,0,P|314:46|259:70,1,115.199996484375,0|0,1:0|0:0,0:0:0:0:
241,95,94804,2,0,P|202:108|166:98,1,76.7999976562501,8|0,1:2|0:0,0:0:0:0:
79,46,95313,2,0,L|101:124,1,76.7999976562501,0|0,1:0|0:0,0:0:0:0:
106,150,95694,2,0,L|95:189,1,38.399998828125,0|8,0:0|1:0,0:0:0:0:
194,219,96075,6,0,P|211:261|183:325,1,115.199996484375
165,341,96584,1,0,0:0:0:0:
95,300,96838,1,8,1:2:0:0:
112,226,97092,1,0,0:0:0:0:
49,174,97347,2,0,L|69:100,1,76.7999976562501,0|2,1:0|0:3,0:0:0:0:
57,76,97728,2,0,L|69:36,1,38.399998828125,0|8,0:0|1:0,0:0:0:0:
178,19,98109,102,0,P|226:41|294:33,1,115.199996484375
322,20,98618,2,0,L|305:97,1,76.7999976562501,0|8,0:0|1:2,0:0:0:0:
359,164,99126,1,0,0:0:0:0:
295,215,99381,2,0,P|285:254|296:288,1,76.7999976562501,0|0,1:0|0:0,0:0:0:0:
312,311,99762,2,0,L|349:320,1,38.399998828125,0|8,0:0|1:0,0:0:0:0:
436,219,100143,6,0,B|370:267|295:215|295:215|277:232|277:232|257:220|257:220|239:235|239:235|218:222|218:222|154:181|92:232,1,383.99998828125,0|0,0:0|1:0,0:0:0:0:
39,283,101669,2,0,L|48:321,1,38.399998828125,2|8,0:3|1:0,0:0:0:0:
111,360,102177,1,2,0:3:0:0:
219,317,102431,102,0,P|276:310|329:330,1,115.199996484375,6|0,1:2|0:0,0:0:0:0:
362,356,102940,2,0,L|349:268,1,76.7999976562501,8|0,1:2|0:0,0:0:0:0:
394,201,103448,2,0,P|436:190|475:201,1,76.7999976562501,0|0,1:0|0:0,0:0:0:0:
495,212,103830,2,0,L|486:171,1,38.399998828125,0|8,0:0|1:0,0:0:0:0:
383,126,104211,6,0,P|332:144|274:128,1,115.199996484375
252,111,104720,1,0,0:0:0:0:
160,96,104974,1,8,1:2:0:0:
119,174,105228,1,0,0:0:0:0:
177,242,105482,2,0,L|151:315,1,76.7999976562501,0|2,1:0|0:3,0:0:0:0:
162,340,105864,2,0,L|176:376,1,38.399998828125,0|8,0:0|1:0,0:0:0:0:
29,380,106245,102,0,P|16:331|41:273,1,115.199996484375,2|0,0:0|0:0,0:0:0:0:
62,254,106753,2,0,L|43:178,1,76.7999976562501,0|8,0:0|1:2,0:0:0:0:
95,113,107262,1,0,0:0:0:0:
170,150,107516,2,0,P|206:166|242:160,1,76.7999976562501,0|0,1:0|0:0,0:0:0:0:
276,144,107898,2,0,P|283:123|286:101,1,38.399998828125,0|8,0:0|1:0,0:0:0:0:
171,52,108279,6,0,B|155:22|174:-3|174:-3|225:71|170:150|170:150|184:166|184:166|174:183|174:183|187:198|187:198|176:217|176:217|155:254|174:292,1,383.99998828125,0|0,0:0|1:0,0:0:0:0:
234,340,109804,2,0,L|272:330,1,38.399998828125,2|8,0:3|1:0,0:0:0:0:
339,369,110313,1,2,0:3:0:0:
430,284,110567,102,0,P|444:221|426:174,1,115.199996484375,0|0,1:0|0:0,0:0:0:0:
405,155,111075,1,8,1:2:0:0:
330,198,111330,1,0,0:0:0:0:
277,131,111584,2,0,P|237:121|203:130,1,76.7999976562501,0|0,1:0|0:0,0:0:0:0:
178,151,111965,2,0,P|171:171|164:186,1,38.399998828125,0|8,0:0|1:0,0:0:0:0:
86,94,112347,6,0,B|72:62|101:32|101:32|137:121|73:191|73:191|83:201|83:201|31:260|77:319,1,383.99998828125,2|0,0:0|1:0,0:0:0:0:
138,362,113872,2,0,L|183:352,1,38.399998828125,2|8,0:3|1:0,0:0:0:0:
226,295,114381,1,2,0:3:0:0:
337,356,114635,102,0,P|390:370|448:342,1,115.199996484375,0|0,1:0|0:0,0:0:0:0:
463,325,115143,1,8,1:2:0:0:
419,257,115398,1,0,0:0:0:0:
471,196,115652,2,0,L|449:118,1,76.7999976562501,0|0,1:0|0:0,0:0:0:0:
467,98,116033,2,0,L|476:58,1,38.399998828125,0|8,0:0|1:0,0:0:0:0:
355,49,116414,6,0,B|303:88|246:61|246:61|187:34|138:74|138:74|122:64|122:64|108:75|108:75|91:66|91:66|76:78|76:78|39:59|3:77,1,383.99998828125,2|0,0:0|1:0,0:0:0:0:
39,147,117940,2,0,L|24:188,1,38.399998828125,2|8,0:3|1:0,0:0:0:0:
67,243,118448,1,2,0:3:0:0:
163,183,118703,102,0,P|236:157|307:177,1,153.6,0|0,1:0|0:0,0:0:0:0:
344,242,119720,2,0,L|329:292,1,51.2
340,309,120101,1,0,0:0:0:0:
241,358,120482,2,0,P|188:368|144:346,1,102.4
88,290,121245,38,0,L|105:238,1,51.2
37,189,121753,2,0,L|20:137,1,51.2
102,93,122262,2,0,L|119:41,1,51.2,2|0,0:0|0:0,0:0:0:0:
0,0,122770,101,2,3:2:0:0:
256,192,122898,12,2,126838,0:0:0:0:
132,156,130398,6,0,P|145:180|145:209,1,57.5999982421876,2|0,0:0|0:0,0:0:0:0:
124,237,130906,2,0,B|200:221|200:221|263:265|263:265|338:251,1,230.39999296875,2|0,0:0|0:0,0:0:0:0:
390,198,132686,2,0,P|396:165|382:124,1,76.7999976562501,2|2,0:0|0:0,0:0:0:0:
339,66,133448,1,2,0:0:0:0:
280,109,133703,1,2,0:0:0:0:
323,168,133957,2,0,L|311:205,1,38.399998828125,2|2,0:0|0:0,0:0:0:0:
249,244,134465,2,0,L|261:281,1,38.399998828125,2|2,0:0|0:0,0:0:0:0:
334,315,134974,102,0,B|266:286|208:331|208:331|150:377|81:347,1,268.799991796875,2|0,0:0|0:0,0:0:0:0:
35,290,137008,2,0,P|53:231|40:181,1,115.199996484375,2|0,0:0|0:0,0:0:0:0:
0,118,138025,2,0,L|10:78,1,38.399998828125
72,28,138533,6,0,P|100:21|130:24,1,57.5999982421876,2|0,0:0|0:0,0:0:0:0:
160,42,139042,2,0,B|208:66|255:40|255:40|278:52|278:52|329:25|381:54,1,230.39999296875,2|0,3:2|0:0,0:0:0:0:
440,99,140821,2,0,L|424:176,1,76.7999976562501,2|2,0:0|0:0,0:0:0:0:
370,229,141584,1,2,0:0:0:0:
310,185,141838,1,2,0:0:0:0:
250,233,142092,2,0,L|208:222,1,38.399998828125,2|2,0:0|0:0,0:0:0:0:
171,165,142601,2,0,L|129:176,1,38.399998828125,2|2,0:0|0:0,0:0:0:0:
88,232,143109,102,0,B|137:144|79:49|79:49|106:80|145:79,1,268.799991796875,2|0,0:0|0:0,0:0:0:0:
195,23,145143,2,0,P|250:11|301:37,1,115.199996484375,2|0,0:0|0:0,0:0:0:0:
360,80,146160,2,0,L|402:74,1,38.399998828125
464,107,146669,6,0,P|473:136|467:164,1,57.5999982421876,2|0,0:0|0:0,0:0:0:0:
454,182,147177,2,0,B|430:222|460:268|460:268|448:298|448:298|473:344|459:384|459:384|452:368,1,230.39999296875,2|0,0:0|0:0,0:0:0:0:
386,336,148957,2,0,P|346:328|312:340,1,76.7999976562501,2|2,0:0|0:0,0:0:0:0:
256,384,149720,1,2,0:0:0:0:
199,340,149974,1,2,0:0:0:0:
238,278,150228,2,0,L|226:237,1,38.399998828125,2|2,0:0|0:0,0:0:0:0:
273,182,150736,2,0,L|285:141,1,38.399998828125,2|2,0:0|0:0,0:0:0:0:
233,89,151245,102,0,B|133:44|39:103|39:103|69:87|102:97,1,268.799991796875,2|0,0:0|0:0,0:0:0:0:
160,147,153279,2,0,P|175:196|161:257,1,115.199996484375,2|0,0:0|0:0,0:0:0:0:
113,313,154296,1,0,0:0:0:0:
160,368,154550,2,0,L|200:359,1,38.399998828125
226,291,155059,1,0,0:0:0:0:
320,335,155313,6,0,P|350:340|377:335,1,57.5999982421876,2|0,0:0|0:0,0:0:0:0:
390,327,155848,2,0,L|381:290,1,38.399998828125
316,255,156384,2,0,L|325:218,1,38.399998828125
339,207,156786,1,0,0:0:0:0:
263,148,157188,102,0,P|233:136|179:146,1,76.7999976562501
135,187,157991,1,0,0:0:0:0:
74,148,158259,1,0,0:0:0:0:
28,205,158527,2,0,L|39:244,1,38.399998828125
34,264,158929,2,0,P|65:256|91:261,1,57.5999982421876
137,321,159598,6,0,L|127:358,2,38.399998828125,2|0|0,0:0|0:0|0:0,0:0:0:0:
199,272,160447,1,0,0:0:0:0:
150,213,160730,2,0,L|160:176,1,38.399998828125
151,160,161154,1,0,0:0:0:0:
233,88,161579,102,0,B|276:115|325:87|325:87|369:61|416:81,1,191.999994140625
467,134,163271,2,0,L|458:172,1,38.399998828125
496,232,163827,1,0,0:0:0:0:
430,288,164105,6,0,P|403:294|374:288,1,57.5999982421876,2|0,0:0|0:0,0:0:0:0:
356,278,164660,2,0,L|319:288,1,38.399998828125
271,344,165216,2,0,L|233:335,1,38.399998828125
218,338,165632,1,0,0:0:0:0:
144,374,166049,102,0,P|136:335|146:299,1,76.7999976562501
202,248,166882,2,0,L|191:208,1,38.399998828125
130,165,167438,2,0,P|101:171|74:166,2,57.5999982421876
166,97,168662,6,0,L|203:108,1,38.399998828125,2|0,0:0|0:0,0:0:0:0:
254,159,169343,2,0,L|291:148,1,38.399998828125,2|0,0:0|0:0,0:0:0:0:
341,96,170025,2,0,L|378:107,1,38.399998828125,2|0,0:0|0:0,0:0:0:0:
427,164,170707,2,0,P|445:216|428:272,1,115.199996484375
352,316,172040,102,0,B|261:291|261:291|187:334|187:334|139:319,1,230.39999296875,0|2,0:0|0:0,0:0:0:0:
348,186,175391,53,2,0:0:0:0:
208,126,176072,5,2,0:0:0:0:
291,65,176672,101,2,0:0:0:0:
256,0,177595,5,2,0:0:0:0:
256,192,177862,12,0,181880,0:0:0:0:
