osu file format v14

[General]
AudioFilename: audio.mp3
AudioLeadIn: 0
PreviewTime: 256171
Countdown: 0
SampleSet: Soft
StackLeniency: 0.4
Mode: 0
LetterboxInBreaks: 0
WidescreenStoryboard: 0

[Editor]
Bookmarks: 11076,43021,99145,108095,122521,127895,251195,274921,276421,289895,292021
DistanceSpacing: 0.6
BeatDivisor: 8
GridSize: 4
TimelineZoom: 2.999998

[Metadata]
Title:EXEC_SPHILIA/.
TitleUnicode:EXEC_SPHILIA/.
Artist:Noriko Mitose
ArtistUnicode:みとせのりこ
Creator:Mir
Version:Infel
Source:アルトネリコ2 ~世界に響く少女たちの創造詩~
Tags:Ar Tonelico II ~Sekai ni Hibiku Shoujo-tachi no Metafalica~ Melody of Visual Novel JRPG Jacqli ミュール 蛇刳 Teiwaz ps2 hymn gust nis Daisuke Aichawa
BeatmapID:1146845
BeatmapSetID:540867

[Difficulty]
HPDrainRate:5.5
CircleSize:4
OverallDifficulty:8.5
ApproachRate:9
SliderMultiplier:1.4
SliderTickRate:1

[Events]
//Background and Video events
0,0,"mir.png",0,0
//Break Periods
2,5720,8493
2,16487,19171
//Storyboard Layer 0 (Background)
//Storyboard Layer 1 (Fail)
//Storyboard Layer 2 (Pass)
//Storyboard Layer 3 (Foreground)
//Storyboard Sound Samples

[TimingPoints]
1120,400,3,2,1,10,1,0
1120,-133.333333333333,3,2,1,10,0,0
9093,397.350993377483,3,2,1,10,1,0
9879,397.350993377483,3,2,1,10,1,0
11071,392.156862745098,3,2,1,10,1,0
11524,400,3,2,1,10,1,0
14887,400,3,2,1,10,1,0
16287,-100,3,2,1,5,0,0
19921,300,3,2,1,40,1,0
19921,-100,3,2,1,40,0,0
23221,300,3,2,1,40,1,0
23221,-100,3,2,1,40,0,0
26521,300,3,2,1,40,1,0
29821,300,3,2,1,40,1,0
33121,300,3,2,1,40,1,0
36421,300,3,2,1,40,1,0
39721,300,3,2,1,40,1,0
43021,300,3,2,1,40,1,0
46321,300,3,2,1,40,1,0
49621,300,3,2,1,40,1,0
52921,300,3,2,1,40,1,0
59821,300,3,2,1,40,1,0
63121,300,3,2,1,40,1,0
66419,300,3,2,1,40,1,0
77181,-100,3,2,1,5,0,0
77221,-100,3,2,1,40,0,0
80471,-100,3,2,1,5,0,0
80521,-100,3,2,1,40,0,0
80771,-100,3,2,1,5,0,0
80821,-100,3,2,1,40,0,0
91321,-100,3,2,1,40,0,0
91571,-100,3,2,1,5,0,0
91621,-100,3,2,1,40,0,0
94871,-100,3,2,1,5,0,0
94921,-100,3,2,1,40,0,0
95171,-100,3,2,1,5,0,0
95221,-100,3,2,1,40,0,0
98819,-133.333333333333,3,2,1,40,0,0
102119,300,3,2,1,40,1,0
102119,-133.333333333333,3,2,1,40,0,0
105419,300,3,2,1,40,1,0
105419,-133.333333333333,3,2,1,40,0,0
108719,300,3,2,1,40,1,0
108719,-133.333333333333,3,2,1,40,0,0
110769,-133.333333333333,3,2,1,5,0,0
110819,-142.857142857143,3,2,1,40,0,0
111069,-133.333333333333,3,2,1,5,0,0
111119,-153.846153846153,3,2,1,40,0,0
111369,-133.333333333333,3,2,1,5,0,0
111419,-166.666666666667,3,2,1,40,0,0
111669,-133.333333333333,3,2,1,5,0,0
111719,-181.818181818181,3,2,1,40,0,0
111969,-133.333333333333,3,2,1,5,0,0
112019,300,3,2,1,40,1,0
112019,-133.333333333333,3,2,1,40,0,0
115319,300,3,2,1,40,1,0
115319,-133.333333333333,3,2,1,40,0,0
118619,300,3,2,1,40,1,0
118619,-133.333333333333,3,2,1,40,0,0
121919,-100,3,2,1,40,0,0
121921,300,3,2,1,40,1,0
125521,300,3,2,1,40,1,0
128821,300,3,2,1,40,1,0
132121,300,3,2,1,40,1,0
135271,-100,3,2,1,40,0,0
135421,300,3,2,1,40,1,0
137071,-100,3,2,1,40,0,0
137221,-100,3,2,1,40,0,0
138871,-100,3,2,1,40,0,0
139021,300,3,2,1,40,1,0
142321,300,3,2,1,40,1,0
145621,300,3,2,1,40,1,0
148771,-100,3,2,1,40,0,0
148921,300,3,2,1,40,1,0
150571,-100,3,2,1,40,0,0
150721,-100,3,2,1,40,0,0
152221,-100,3,2,1,40,0,0
152521,300,3,2,1,5,1,0
154471,-100,3,2,1,10,0,0
155971,-100,3,2,1,13,0,0
157771,-100,3,2,1,16,0,0
159271,-100,3,2,1,19,0,0
161071,-100,3,2,1,22,0,0
162571,-100,3,2,1,25,0,0
164371,-200,3,2,1,40,0,0
164446,-200,3,2,1,20,0,0
165721,300,3,2,1,40,1,1
165721,-100,3,2,1,40,0,1
169021,300,3,2,1,40,1,1
172321,300,3,2,1,40,1,1
175471,-100,3,2,1,40,0,0
175621,300,3,2,1,40,1,1
177271,-100,3,2,1,40,0,0
177421,-100,3,2,1,40,0,1
179071,-100,3,2,1,40,0,0
179221,300,3,2,1,40,1,1
182521,300,3,2,1,40,1,1
185821,300,3,2,1,40,1,1
188971,-100,3,2,1,40,0,0
189121,300,3,2,1,40,1,1
190771,-100,3,2,1,40,0,0
190921,-100,3,2,1,40,0,1
192721,300,3,2,1,40,1,0
192721,-133.333333333333,3,2,1,40,0,0
196021,300,3,2,1,40,1,0
196021,-133.333333333333,3,2,1,40,0,0
198646,-133.333333333333,3,2,1,5,0,0
198721,-133.333333333333,3,2,1,40,0,0
199321,300,3,2,1,40,1,0
199321,-133.333333333333,3,2,1,40,0,0
202621,300,3,2,1,40,1,0
202621,-133.333333333333,3,2,1,40,0,0
204421,300,3,2,1,40,1,0
204421,-133.333333333333,3,2,1,40,0,0
204671,-133.333333333333,3,2,1,5,0,0
204721,-142.857142857143,3,2,1,40,0,0
204971,-133.333333333333,3,2,1,5,0,0
205021,-153.846153846153,3,2,1,40,0,0
205271,-133.333333333333,3,2,1,5,0,0
205321,-166.666666666667,3,2,1,40,0,0
205571,-133.333333333333,3,2,1,5,0,0
205621,-181.818181818181,3,2,1,40,0,0
205871,-133.333333333333,3,2,1,5,0,0
205921,300,3,2,1,40,1,0
205921,-133.333333333333,3,2,1,40,0,0
209221,300,3,2,1,40,1,0
209221,-133.333333333333,3,2,1,40,0,0
212521,300,3,2,1,40,1,0
212521,-133.333333333333,3,2,1,40,0,0
215821,300,3,2,1,40,1,0
219421,300,3,2,1,40,1,0
222721,300,3,2,1,40,1,0
226021,300,3,2,1,40,1,0
229171,-100,3,2,1,40,0,0
229321,300,3,2,1,40,1,0
230971,-100,3,2,1,40,0,0
231121,-100,3,2,1,40,0,0
232771,-100,3,2,1,40,0,0
232921,300,3,2,1,40,1,0
236221,300,3,2,1,40,1,0
239521,300,3,2,1,40,1,0
242671,-100,3,2,1,40,0,0
242821,300,3,2,1,40,1,0
244471,-100,3,2,1,40,0,0
244621,-100,3,2,1,40,0,0
246271,-100,3,2,1,40,0,0
246421,300,3,2,1,40,1,0
249721,300,3,2,1,40,1,0
253021,300,3,2,1,40,1,0
256171,-100,3,2,1,40,0,0
256321,300,3,2,1,40,1,1
256321,-76.9230769230769,3,2,1,40,0,1
257971,-100,3,2,1,40,0,0
258121,-83.3333333333333,3,2,1,40,0,1
259771,-100,3,2,1,40,0,0
259921,300,3,2,1,40,1,1
259921,-90.9090909090909,3,2,1,40,0,1
260521,-90.9090909090909,3,2,1,40,0,1
260821,-100,3,2,1,40,0,1
261421,-100,3,2,1,40,0,0
263221,300,3,2,1,40,1,0
266521,300,3,2,1,40,1,0
269671,-100,3,2,1,40,0,0
269821,300,3,2,1,40,1,1
269821,-83.3333333333333,3,2,1,40,0,1
271471,-100,3,2,1,40,0,0
271621,-76.9230769230769,3,2,1,40,0,1
273271,-100,3,2,1,40,0,0
273421,300,3,2,1,40,1,1
273421,-71.4285714285714,3,2,1,40,0,1
276721,300,3,2,1,40,1,1
276721,-71.4285714285714,3,2,1,40,0,1
280021,300,3,2,1,40,1,1
283171,-71.4285714285714,3,2,1,40,0,0
283321,300,3,2,1,40,1,1
285046,-71.4285714285714,3,2,1,40,0,0
285121,-71.4285714285714,3,2,1,40,0,1
286846,-71.4285714285714,3,2,1,40,0,0
286921,300,3,2,1,40,1,1
286921,-76.9230769230769,3,2,1,40,0,1
290221,300,3,2,1,40,1,1
290221,-71.4285714285714,3,2,1,40,0,1
293521,300,3,2,1,40,1,1
293521,-71.4285714285714,3,2,1,40,0,1
296671,-100,3,2,1,40,0,0
296821,300,3,2,1,40,1,1
298471,-100,3,2,1,40,0,0
298621,-100,3,2,1,40,0,1
299821,-100,3,2,1,40,0,0
299971,-58.8235294117647,3,2,1,40,0,1
300421,-100,3,2,1,5,0,0
302371,-100,3,2,1,18,0,0
303871,-100,3,2,1,16,0,0
305671,-100,3,2,1,14,0,0
307171,-100,3,2,1,12,0,0
308971,-100,3,2,1,10,0,0
310471,-100,3,2,1,8,0,0
312271,-100,3,2,1,6,0,0

[Colours]
Combo1 : 215,102,150
Combo2 : 197,106,251
Combo3 : 155,155,155
Combo4 : 238,117,117

[HitObjects]
330,205,1120,6,0,P|319:155|257:114,1,105.000004005432,2|0,0:2|0:2,0:2:0:0:
239,203,1720,1,2,0:2:0:0:
304,288,1920,2,0,P|353:290|374:280,1,52.5000020027161,2|0,0:2|0:2,0:2:0:0:
410,183,2320,2,0,P|391:115|276:32,1,210.000008010865,2|0,0:2|0:2,0:2:0:0:
153,266,3520,6,0,P|164:306|230:346,1,105.000004005432,2|0,0:2|0:2,0:2:0:0:
244,263,4120,1,2,0:2:0:0:
244,263,4320,1,2,0:2:0:0:
135,182,4720,2,0,P|106:198|85:228,1,52.5000020027161,2|0,0:2|0:2,0:2:0:0:
220,185,5120,2,0,P|286:167|308:122,1,105.000004005432,2|0,0:2|0:2,0:2:0:0:
334,131,9093,6,0,P|276:110|202:158,1,140,0|0,0:2|0:2,0:2:0:0:
402,178,9879,2,0,P|344:214|280:194,1,140,0|0,0:2|0:2,0:2:0:0:
323,298,10673,2,0,P|392:289|450:251,1,140,0|0,0:2|0:2,0:2:0:0:
334,131,11463,1,4,0:2:0:0:
334,131,11924,6,0,P|316:57|240:30,1,140,2|0,0:2|0:2,0:2:0:0:
252,112,12524,1,2,0:2:0:0:
382,257,12724,1,2,0:2:0:0:
382,257,13124,2,0,P|315:253|274:199,1,140,2|0,0:2|0:2,0:2:0:0:
76,115,13924,5,6,0:2:0:0:
76,115,14324,2,0,P|28:143|12:231,1,140,2|0,0:2|0:2,0:2:0:0:
100,206,14887,1,2,0:2:0:0:
168,133,15087,1,2,0:2:0:0:
344,215,15487,2,0,P|314:255|274:274,1,70,2|0,0:2|0:2,0:2:0:0:
254,181,15887,2,0,P|272:151|387:133,1,140,2|0,0:2|0:2,0:2:0:0:
126,124,19921,6,0,P|112:92|112:57,1,70,4|0,0:2|0:2,0:2:0:0:
197,75,20221,2,0,P|211:107|208:148,2,70,2|2|2,0:2|0:2|0:2,0:2:0:0:
126,124,20671,2,0,L|46:135,1,70,2|0,0:2|0:2,0:2:0:0:
82,252,20971,6,0,B|43:250|43:250|-3:270,1,70,2|2,0:2|0:2,0:2:0:0:
170,261,21271,1,2,0:2:0:0:
121,330,21421,1,0,0:2:0:0:
254,290,21571,2,0,P|277:316|286:350,1,70,2|2,0:2|0:2,0:2:0:0:
242,203,21871,2,0,P|250:170|282:138,2,70,0|0|0,0:2|0:2|0:2,0:2:0:0:
324,211,22321,2,0,P|330:246|349:277,2,70,2|2|2,0:2|0:2|0:2,0:2:0:0:
423,253,22771,2,0,P|408:331|328:354,1,140,2|2,0:2|0:2,0:2:0:0:
496,214,23221,6,0,P|474:174|426:157,1,70,4|0,3:2|0:2,0:2:0:0:
425,78,23521,2,0,P|388:101|368:141,1,70,2|0,0:2|0:2,0:2:0:0:
340,203,23821,2,0,P|310:183|292:153,1,70,2|0,0:2|0:2,0:2:0:0:
278,72,24121,2,0,P|245:86|222:112,1,70,2|0,0:2|0:2,0:2:0:0:
177,180,24421,2,0,P|147:146|142:101,1,70,2|0,0:2|0:2,0:2:0:0:
126,41,24721,2,0,P|93:55|70:81,1,70,2|0,0:2|0:2,0:2:0:0:
0,212,25021,6,0,P|33:198|56:172,1,70,2|0,0:2|0:2,0:2:0:0:
111,244,25321,2,0,P|134:269|166:283,1,70,2|0,0:2|0:2,0:2:0:0:
242,337,25621,2,0,P|218:362|186:376,1,70,2|0,0:2|0:2,0:2:0:0:
335,309,25921,2,0,L|421:312,2,70,0|0|0,0:2|0:2|0:2,0:2:0:0:
242,337,26371,1,0,0:2:0:0:
323,186,26521,6,0,L|323:105,1,70,4|0,3:2|0:2,0:2:0:0:
406,87,26821,2,0,P|379:48|332:32,1,70,2|0,0:2|0:2,0:2:0:0:
277,40,27121,2,0,P|250:62|234:93,1,70,2|0,0:2|0:2,0:2:0:0:
191,169,27421,2,0,P|164:146|148:115,1,70,2|0,0:2|0:2,0:2:0:0:
132,35,27721,2,0,P|80:67|66:102,1,70,2|0,0:2|0:2,0:2:0:0:
56,154,28021,2,0,P|25:137|2:111,1,70,2|0,0:2|0:2,0:2:0:0:
191,169,28321,6,0,P|204:204|189:262,1,70,2|0,0:2|0:2,0:2:0:0:
269,132,28621,2,0,P|266:97|279:64,1,70,2|0,0:2|0:2,0:2:0:0:
354,151,28921,2,0,P|340:182|314:205,1,70,2|0,0:2|0:2,0:2:0:0:
396,73,29221,2,0,L|492:70,2,70,0|0|0,0:2|0:2|0:2,0:2:0:0:
269,132,29671,1,0,0:2:0:0:
315,343,29821,6,0,L|258:282,1,70,4|0,3:2|0:2,0:2:0:0:
195,251,30121,2,0,P|240:213|271:208,1,70,2|0,0:2|0:2,0:2:0:0:
323,172,30421,2,0,P|300:146|269:132,1,70,2|0,0:2|0:2,0:2:0:0:
189,88,30721,2,0,P|211:61|241:45,1,70,2|0,0:2|0:2,0:2:0:0:
318,1,31021,2,0,P|330:34|327:69,1,70,2|0,0:2|0:2,0:2:0:0:
268,131,31321,2,0,P|244:156|213:171,1,70,2|0,0:2|0:2,0:2:0:0:
389,146,31621,6,0,L|454:217,1,70,0|0,0:2|0:2,0:2:0:0:
356,223,31921,1,0,0:2:0:0:
420,284,32071,2,0,L|485:355,1,70,0|0,0:2|0:2,0:2:0:0:
328,313,32371,2,0,L|393:384,2,70,0|0|0,0:2|0:2|0:2,0:2:0:0:
268,250,32821,2,0,L|225:305,1,70,0|0,0:2|0:2,0:2:0:0:
306,177,33121,6,0,P|297:120|312:84,1,70,6|0,3:2|0:2,0:2:0:0:
411,44,33421,2,0,P|354:35|318:50,1,70,2|0,0:2|0:2,0:2:0:0:
300,110,33721,2,0,P|357:119|393:104,1,70,2|0,0:2|0:2,0:2:0:0:
452,116,34021,2,0,P|443:149|422:177,1,70,2|0,0:2|0:2,0:2:0:0:
381,251,34321,2,0,P|389:284|410:312,1,70,2|0,0:2|0:2,0:2:0:0:
494,316,34621,2,0,P|485:349|464:377,1,70,2|0,0:2|0:2,0:2:0:0:
421,177,34921,6,0,L|472:224,2,70,0|0|0,0:2|0:2|0:2,0:2:0:0:
345,104,35371,1,0,0:2:0:0:
330,197,35521,2,0,P|303:225|250:229,1,70,2|0,0:2|0:2,0:2:0:0:
194,116,35821,2,0,P|227:122|253:146,1,70,2|0,0:2|0:2,0:2:0:0:
183,272,36121,2,0,P|171:239|179:205,1,70,2|0,0:2|0:2,0:2:0:0:
4,193,36421,6,0,P|29:152|77:127,1,70,6|0,3:2|0:2,0:2:0:0:
138,134,36721,2,0,P|128:101|105:74,1,70,2|0,0:2|0:2,0:2:0:0:
25,53,37021,2,0,P|50:12|96:-9,1,70,2|0,0:2|0:2,0:2:0:0:
106,74,37320,1,0,0:2:0:0:
52,157,37471,2,0,B|48:249,2,70,0|0|0,0:2|0:2|0:2,0:2:0:0:
62,316,37921,2,0,P|107:293|131:253,1,70,2|0,0:2|0:2,0:2:0:0:
165,179,38221,6,0,P|208:206|228:248,1,70,2|0,0:2|0:2,0:2:0:0:
240,302,38521,2,0,P|286:276|303:233,1,70,2|0,0:2|0:2,0:2:0:0:
314,178,38821,2,0,P|360:204|377:247,1,70,2|0,0:2|0:2,0:2:0:0:
429,278,39121,2,0,P|398:300|365:302,1,70,2|0,0:2|0:2,0:2:0:0:
452,195,39421,2,0,P|483:209|505:236,1,70,2|0,0:2|0:2,0:2:0:0:
314,178,39721,5,6,3:2:0:0:
256,192,39796,12,0,42721,0:2:0:0:
159,338,43021,6,0,B|161:256|161:256|209:181,1,140,4|2,3:1|0:2,0:2:0:0:
163,99,43471,2,0,L|127:159,1,70,0|0,3:2|0:2,0:2:0:0:
80,227,43771,1,0,3:2:0:0:
322,167,43921,2,0,P|325:120|304:80,1,70,10|2,0:2|0:2,0:2:0:0:
324,248,44221,2,0,P|321:295|342:335,1,70,2|0,0:2|0:2,0:2:0:0:
403,224,44521,2,0,P|418:179|408:135,1,70,0|2,3:2|0:2,0:2:0:0:
187,316,44821,6,0,L|327:315,1,140,0|2,3:2|0:2,0:2:0:0:
403,224,45271,2,0,L|333:223,1,70,0|0,3:2|0:2,0:2:0:0:
327,315,45571,1,0,3:2:0:0:
148,202,45721,2,0,P|127:230|123:294,1,70,10|0,0:2|0:2,0:2:0:0:
90,136,46021,2,0,P|120:118|155:115,1,70,0|0,3:2|0:2,0:2:0:0:
373,120,46321,6,0,B|446:126|446:126|498:169,1,140,4|2,3:2|0:2,0:2:0:0:
508,64,46771,2,0,P|475:48|420:44,1,70,0|0,3:2|0:2,0:2:0:0:
434,224,47071,1,0,3:2:0:0:
288,106,47221,2,0,P|258:88|224:85,1,70,10|2,0:2|0:2,0:2:0:0:
166,21,47521,2,0,P|139:58|137:103,1,70,2|0,0:2|0:2,0:2:0:0:
50,74,47821,2,0,P|57:118|87:151,1,70,0|2,3:2|0:2,0:2:0:0:
157,296,48121,6,0,B|218:266|218:266|254:170,1,140,0|2,3:2|0:2,0:2:0:0:
314,135,48571,2,0,P|333:164|340:199,1,70,0|0,3:2|0:2,0:2:0:0:
296,277,48871,1,0,3:2:0:0:
310,47,49021,2,0,P|344:53|373:72,1,70,10|2,0:2|0:2,0:2:0:0:
438,181,49321,2,0,L|408:245,1,70,2|0,3:2|0:2,0:2:0:0:
218,102,49621,6,0,B|186:164|186:164|197:260,1,140,4|2,3:2|0:2,0:2:0:0:
277,190,50071,2,0,L|321:99,1,70,0|0,3:2|0:2,0:2:0:0:
370,71,50371,1,0,3:2:0:0:
328,267,50521,2,0,P|296:281|262:282,1,70,8|2,0:2|0:2,0:2:0:0:
405,231,50821,2,0,P|439:227|473:238,1,70,2|0,0:2|0:2,0:2:0:0:
485,87,51121,2,0,L|486:176,1,70,0|2,3:2|0:2,0:2:0:0:
351,34,51421,6,0,B|397:75|397:75|396:165,1,140,0|2,3:2|0:2,0:2:0:0:
309,184,51871,2,0,L|309:114,1,70,0|0,3:2|0:2,0:2:0:0:
374,230,52171,1,0,3:2:0:0:
258,36,52321,2,0,L|196:6,1,70,10|0,0:2|0:2,0:2:0:0:
164,94,52621,2,0,L|227:124,1,70,0|0,3:2|0:2,0:2:0:0:
39,80,52921,6,0,B|23:149|23:149|64:229,1,140,4|2,3:1|0:2,0:2:0:0:
128,263,53371,2,0,P|144:231|144:195,1,70,0|0,3:2|0:2,0:2:0:0:
54,300,53671,1,0,3:2:0:0:
227,124,53821,2,0,L|288:89,1,70,10|2,0:2|0:2,0:2:0:0:
280,199,54121,2,0,L|220:235,1,70,2|0,0:2|0:2,0:2:0:0:
91,206,54421,2,0,L|152:171,1,70,0|2,3:2|0:2,0:2:0:0:
12,295,54721,6,0,B|74:313|74:313|172:266,1,140,4|2,3:1|0:2,0:2:0:0:
306,260,55171,2,0,P|300:225|279:198,1,70,0|0,3:2|0:2,0:2:0:0:
248,311,55471,1,0,3:2:0:0:
228,65,55621,5,10,0:2:0:0:
315,27,55771,1,2,3:2:0:0:
302,123,55921,1,2,3:2:0:0:
467,132,56071,1,10,3:2:0:0:
389,84,56221,1,2,3:2:0:0:
384,178,56371,1,8,3:2:0:0:
469,271,56521,6,0,P|445:207|383:178,1,140,4|2,3:1|0:2,0:2:0:0:
365,280,56971,2,0,L|307:240,1,70,0|0,3:2|0:2,0:2:0:0:
282,138,57271,1,0,3:2:0:0:
390,367,57421,2,0,P|346:368|301:345,1,70,10|2,0:2|0:2,0:2:0:0:
247,305,57721,2,0,P|233:337|232:372,1,70,2|0,0:2|0:2,0:2:0:0:
223,215,58021,2,0,P|190:230|167:256,1,70,0|2,3:2|0:2,0:2:0:0:
313,87,58321,6,0,B|290:152|290:152|317:218,1,140,0|2,3:2|0:2,0:2:0:0:
309,0,58771,2,0,P|275:8|250:32,1,70,0|0,3:2|0:2,0:2:0:0:
403,80,59071,1,0,3:2:0:0:
386,271,59221,2,0,P|361:295|328:304,1,70,8|2,0:2|0:2,0:2:0:0:
259,250,59521,2,0,P|284:226|318:218,1,70,0|0,3:2|0:2,0:2:0:0:
473,281,59821,6,0,B|475:213|475:213|403:139,1,140,4|2,3:2|0:2,0:2:0:0:
433,353,60271,2,0,P|465:365|499:361,1,70,0|0,3:2|0:2,0:2:0:0:
376,275,60571,1,0,3:2:0:0:
214,323,60721,2,0,P|188:346|154:355,1,70,10|2,0:2|0:2,0:2:0:0:
151,272,61021,2,0,P|176:248|209:239,1,70,2|0,0:2|0:2,0:2:0:0:
80,309,61321,2,0,P|69:276|76:243,1,70,0|2,3:2|0:2,0:2:0:0:
314,283,61621,6,0,B|352:233|352:233|349:131,1,140,0|2,3:2|0:2,0:2:0:0:
462,62,62071,2,0,L|428:124,1,70,0|0,3:2|0:2,0:2:0:0:
438,211,62371,1,0,3:2:0:0:
212,148,62521,2,0,L|246:86,1,70,10|0,0:2|0:2,0:2:0:0:
266,208,62821,2,0,L|217:292,1,70,0|0,3:2|0:2,0:2:0:0:
246,87,63121,6,0,L|93:96,1,140,4|2,3:2|0:2,0:2:0:0:
69,3,63571,2,0,P|103:-6|137:1,1,70,0|0,3:2|0:2,0:2:0:0:
0,76,63871,1,0,3:2:0:0:
138,194,64021,2,0,P|75:194|47:177,1,70,10|2,0:2|0:2,0:2:0:0:
218,227,64321,2,0,P|174:272|142:279,1,70,2|0,0:2|0:2,0:2:0:0:
210,145,64621,2,0,P|254:100|286:93,1,70,0|2,3:2|0:2,0:2:0:0:
351,289,64921,6,0,B|448:286|448:286|502:238,1,140,0|2,3:2|0:2,0:2:0:0:
357,204,65371,2,0,P|323:207|293:225,1,70,0|0,3:2|0:2,0:2:0:0:
394,369,65671,1,0,3:2:0:0:
430,153,65821,2,0,P|405:129|372:121,1,70,10|0,2:2|2:2,2:2:0:0:
295,174,66121,2,0,P|323:196|357:204,1,70,0|0,3:2|0:2,0:2:0:0:
139,65,66419,6,0,B|74:48|74:48|-7:80,1,140,4|2,3:1|0:2,0:2:0:0:
224,119,66869,2,0,P|236:86|236:51,1,70,0|0,3:2|0:2,0:2:0:0:
128,156,67169,1,0,3:2:0:0:
291,189,67319,2,0,P|315:162|329:131,1,70,10|2,0:2|0:2,0:2:0:0:
199,244,67619,2,0,P|171:265|138:276,1,70,2|0,0:2|0:2,0:2:0:0:
294,274,67919,2,0,P|322:295|356:305,1,70,0|2,3:2|0:2,0:2:0:0:
373,142,68219,6,0,B|423:101|423:101|426:2,1,140,4|2,3:1|0:2,0:2:0:0:
271,171,68669,2,0,B|273:95|273:95|323:54,1,140,0|0,3:2|3:2,0:2:0:0:
373,142,69119,1,10,3:2:0:0:
425,25,69269,1,10,0:2:0:0:
485,139,69419,1,2,3:2:0:0:
216,332,69719,5,0,3:2:0:0:
425,25,70019,6,0,B|484:82|484:82|486:170,2,140,6|0|0,3:1|0:2|0:2,0:2:0:0:
337,58,70769,1,0,0:2:0:0:
219,194,70919,2,0,L|290:263,1,70,8|0,0:2|0:2,0:2:0:0:
337,185,71219,2,0,L|266:116,1,70,0|0,0:2|0:2,0:2:0:0:
227,76,71519,1,2,3:2:0:0:
415,335,71819,6,0,P|442:307|451:190,2,140,2|0|0,3:2|0:2|0:2,0:2:0:0:
330,344,72569,1,0,0:2:0:0:
384,175,72719,2,0,B|405:144|405:144|466:129,1,70,8|0,0:2|0:2,0:2:0:0:
297,231,73019,2,0,B|276:262|276:262|215:277,1,70,2|0,3:2|0:2,0:2:0:0:
283,119,73319,2,0,B|304:88|304:88|365:73,1,70,2|0,3:2|0:2,0:2:0:0:
199,336,73619,6,0,P|165:277|186:212,2,140,2|0|0,3:2|0:2|0:2,0:2:0:0:
244,269,74369,1,0,0:2:0:0:
180,132,74519,2,0,P|146:141|117:171,1,70,8|0,0:2|0:2,0:2:0:0:
267,114,74819,2,0,P|301:104|327:81,1,70,0|0,0:2|0:2,0:2:0:0:
104,75,75119,1,2,3:2:0:0:
308,0,75419,6,0,P|359:4|410:81,2,140,2|0|0,3:2|0:2|0:2,0:2:0:0:
327,81,76169,1,0,0:2:0:0:
503,93,76319,2,0,B|502:59|502:59|480:9,1,70,8|0,0:2|0:2,0:2:0:0:
237,67,76619,2,0,B|238:101|238:101|260:151,1,70,2|0,3:2|0:2,0:2:0:0:
449,306,76919,2,0,B|461:234|461:234|444:172,1,122.5,2|0,3:2|0:2,0:2:0:0:
440,180,77219,6,0,P|383:180|337:257,2,140,2|0|0,3:2|0:2|0:2,0:2:0:0:
482,107,77969,1,0,0:2:0:0:
270,150,78119,2,0,P|250:191|247:240,1,70,8|0,0:2|0:2,0:2:0:0:
347,81,78419,2,0,P|374:45|384:3,1,70,0|0,0:2|0:2,0:2:0:0:
247,54,78719,1,2,3:2:0:0:
440,221,79019,6,0,P|486:170|482:103,2,140,2|0|0,3:2|0:2|0:2,0:2:0:0:
353,237,79769,1,0,0:2:0:0:
428,32,79919,2,0,B|459:21|459:21|518:23,1,70,8|0,0:2|0:2,0:2:0:0:
329,76,80219,2,0,B|292:117|292:117|217:140,1,122.5,2|0,3:2|0:2,0:2:0:0:
211,143,80519,2,0,B|151:160|151:160|102:210,1,122.5,2|0,3:2|0:2,0:2:0:0:
77,271,80819,6,0,B|99:288|139:280|158:265|158:265|189:277|229:271,1,140,6|0,3:3|0:2,0:2:0:0:
329,76,81269,2,0,P|295:29|197:24,1,140,0|0,3:2|3:2,0:2:0:0:
309,210,81719,1,8,0:2:0:0:
489,78,82019,2,0,P|467:29|433:5,1,70,2|0,0:2|0:2,0:2:0:0:
329,76,82319,1,2,3:2:0:0:
493,358,82619,6,0,B|483:303|451:290|451:290|377:300|377:300|308:280|308:280|239:290,1,280,6|0,3:3|0:2,0:2:0:0:
259,288,83519,1,8,3:2:0:0:
339,288,83669,1,8,3:2:0:0:
218,217,83819,1,0,3:2:0:0:
307,367,83969,1,8,3:2:0:0:
302,218,84119,1,0,3:2:0:0:
179,297,84269,1,8,3:2:0:0:
408,336,84419,5,4,3:1:0:0:
408,336,84719,2,0,P|315:366|257:287,1,210,0|0,0:2|0:2,0:2:0:0:
84,192,85319,1,8,0:2:0:0:
84,192,85619,2,0,P|52:206|29:232,1,70,0|0,0:2|0:2,0:2:0:0:
103,271,85919,2,0,P|89:303|90:338,1,70,2|0,3:2|0:2,0:2:0:0:
338,286,86219,6,0,B|288:137,2,140,2|0|0,3:2|0:2|0:2,0:2:0:0:
405,192,86969,1,0,0:2:0:0:
205,132,87119,2,0,B|195:95|195:95|214:37,1,70,8|0,0:2|0:2,0:2:0:0:
236,234,87419,2,0,B|245:264|245:264|235:301,1,70,2|0,0:2|0:2,0:2:0:0:
116,137,87719,2,0,B|106:100|106:100|125:42,1,70,2|0,3:2|0:2,0:2:0:0:
356,50,88019,6,0,B|451:51|451:51|500:107,2,140,0|0|0,3:2|0:2|0:2,0:2:0:0:
274,44,88769,1,0,0:2:0:0:
431,196,88919,1,8,0:2:0:0:
431,196,89219,2,0,P|415:164|416:130,1,70,0|0,0:2|0:2,0:2:0:0:
419,275,89519,2,0,P|377:257|358:229,1,70,2|0,3:2|0:2,0:2:0:0:
293,338,89819,6,0,B|216:286|216:286|140:287,2,140,2|0|0,3:2|0:2|0:2,0:2:0:0:
378,341,90569,1,0,0:2:0:0:
409,131,90719,1,8,0:2:0:0:
409,131,91019,2,0,B|369:125|369:125|337:101,1,70,2|0,3:2|0:2,0:2:0:0:
210,74,91319,2,0,P|174:77|119:144,1,122.5,2|0,3:2|0:2,0:2:0:0:
118,158,91619,6,0,B|123:248|123:248|162:293,2,140,2|0|0,3:2|0:2|0:2,0:2:0:0:
33,159,92369,1,0,0:2:0:0:
224,358,92519,1,8,0:2:0:0:
224,358,92819,2,0,L|291:340,1,70,0|0,0:2|0:2,0:2:0:0:
241,272,93119,2,0,L|308:254,1,70,2|0,3:2|0:2,0:2:0:0:
266,46,93419,6,0,P|193:111|198:156,2,140,2|0|0,3:2|0:2|0:2,0:2:0:0:
131,29,94169,1,0,3:2:0:0:
300,212,94319,1,8,0:2:0:0:
300,212,94619,2,0,P|336:180|349:100,1,122.5,2|0,3:2|0:2,0:2:0:0:
370,95,94919,2,0,P|415:81|482:114,1,122.5,2|0,3:2|0:2,0:2:0:0:
510,186,95219,6,0,B|459:199|421:167|421:167|420:194|399:222,1,140,6|0,3:3|0:2,0:2:0:0:
360,297,95669,2,0,P|291:296|235:334,1,140,0|0,0:2|0:2,0:2:0:0:
492,369,96119,1,8,0:2:0:0:
482,125,96419,2,0,L|421:63,1,70,0|0,0:2|0:2,0:2:0:0:
440,199,96719,2,0,L|379:137,1,70,2|0,3:2|0:2,0:2:0:0:
208,332,97019,6,0,P|249:264|106:170,1,280,6|0,3:3|0:2,0:2:0:0:
118,164,97919,1,8,3:2:0:0:
62,100,98069,1,0,3:2:0:0:
144,84,98219,1,0,3:2:0:0:
35,185,98369,1,0,3:2:0:0:
85,22,98519,2,0,P|127:1|173:3,1,70,0|0,3:2|0:2,0:2:0:0:
309,182,98819,6,0,B|209:151,1,105.000004005432,6|0,3:1|0:2,0:2:0:0:
438,202,99419,2,0,P|433:228|423:252,1,52.5000020027161,2|0,0:2|0:2,0:2:0:0:
233,265,99719,1,10,0:2:0:0:
233,265,100019,2,0,P|276:260|339:302,1,105.000004005432,0|2,3:2|0:2,2:2:0:0:
440,384,100619,5,2,3:2:0:0:
413,156,100919,2,0,P|425:114|489:73,1,105.000004005432,2|2,0:2|0:2,0:2:0:0:
509,281,101519,1,10,0:2:0:0:
311,117,101819,1,2,3:2:0:0:
378,259,102119,6,0,P|419:300|515:274,1,157.500006008148,2|0,3:2|0:2,0:2:0:0:
451,227,102719,1,2,0:2:0:0:
246,330,103019,1,10,0:2:0:0:
261,118,103319,2,0,P|217:86|148:88,1,105.000004005432,0|2,3:2|0:2,0:2:0:0:
246,330,103919,5,0,3:0:0:0:
261,118,104219,1,0,0:0:0:0:
322,189,104369,2,0,P|351:152|342:74,1,105.000004005432
288,26,104819,1,10,0:2:0:0:
162,274,105119,1,2,3:2:0:0:
288,26,105419,6,0,P|327:48|336:172,1,157.500006008148,2|0,3:2|0:2,0:2:0:0:
307,233,106019,1,2,0:2:0:0:
29,119,106319,1,10,0:2:0:0:
29,119,106619,2,0,P|68:150|122:153,1,105.000004005432,0|0,3:2|0:2,0:2:0:0:
235,179,107219,2,0,P|277:209|328:211,2,105.000004005432,0|2|2,3:2|0:2|0:2,0:2:0:0:
363,66,108119,2,0,P|414:68|456:98,1,105.000004005432,10|2,0:2|3:2,0:2:0:0:
121,153,108719,6,0,P|142:117|208:89,1,105.000004005432,2|0,3:2|0:2,0:2:0:0:
275,47,109169,2,0,P|286:97|265:146,1,105.000004005432,2|0,0:2|0:2,0:2:0:0:
44,129,109619,1,8,0:2:0:0:
44,129,109919,2,0,P|44:180|74:223,1,105.000004005432,0|0,3:2|0:2,0:2:0:0:
400,200,110519,6,0,B|367:217|367:217|344:278,1,91.8750035047532,2|0,3:2|0:2,0:2:0:0:
343,279,110819,2,0,L|312:359,1,85.7499973831178,2|0,3:2|0:2,0:2:0:0:
298,354,111119,2,0,B|251:349|251:349|221:329,1,79.6249963550569,2|0,3:2|0:2,0:2:0:0:
214,327,111419,2,0,B|169:321|169:321|142:340,1,73.4999977569581,2|0,3:2|0:2,0:2:0:0:
133,340,111719,2,0,B|89:342|89:342|62:329,1,67.3750020561219,2|0,3:2|0:2,0:2:0:0:
36,255,112019,6,0,B|96:252|96:252|134:215,1,105.000004005432,6|0,3:3|0:2,0:2:0:0:
277,89,112619,1,2,0:2:0:0:
367,251,112919,1,10,0:2:0:0:
367,251,113219,2,0,P|299:243|252:275,1,105.000004005432,0|0,3:2|0:2,0:2:0:0:
136,340,113819,5,0,3:2:0:0:
394,332,114119,1,2,0:2:0:0:
329,173,114419,1,2,0:2:0:0:
317,372,114719,1,10,0:2:0:0:
257,128,115019,1,2,3:2:0:0:
53,353,115319,6,0,B|30:243|30:243|82:151,1,210.000008010865,2|0,3:2|0:2,0:2:0:0:
165,344,116219,1,10,0:2:0:0:
30,91,116519,2,0,P|75:77|144:107,1,105.000004005432,0|0,3:2|0:2,0:2:0:0:
21,229,117119,5,0,3:2:0:0:
217,61,117419,2,0,P|233:137|211:172,1,105.000004005432,2|2,0:2|0:2,0:2:0:0:
45,74,118019,1,10,0:2:0:0:
21,229,118319,1,2,3:2:0:0:
231,320,118619,6,0,P|289:288|281:187,1,157.500006008148,2|0,3:2|0:2,0:2:0:0:
226,243,119219,2,0,P|177:263|168:273,1,52.5000020027161,2|0,0:2|0:2,0:2:0:0:
285,381,119519,1,10,0:2:0:0:
180,149,119819,1,0,3:2:0:0:
231,320,120119,1,0,0:2:0:0:
229,83,120419,5,0,3:2:0:0:
258,248,120719,1,2,0:2:0:0:
285,22,121019,1,2,0:2:0:0:
285,173,121319,1,10,0:2:0:0:
152,74,121619,1,2,3:2:0:0:
363,136,121921,6,0,P|370:190|299:261,1,140,6|0,3:1|3:2,0:2:0:0:
247,115,122371,2,0,L|286:174,1,70,0|2,3:2|0:2,0:2:0:0:
397,58,122671,1,0,3:2:0:0:
356,317,122821,2,0,P|429:243|442:141,1,210,10|0,0:2|0:2,0:2:0:0:
275,272,123421,2,0,P|265:306|267:341,1,70,0|0,3:2|0:2,0:2:0:0:
306,115,123721,5,6,3:1:0:0:
290,23,123871,1,2,3:2:0:0:
378,54,124021,1,2,3:2:0:0:
233,173,124171,1,2,3:2:0:0:
306,115,124321,1,2,3:2:0:0:
321,210,124471,1,2,3:2:0:0:
148,139,124621,5,10,3:2:0:0:
306,115,124771,1,10,3:2:0:0:
248,262,124921,1,2,3:2:0:0:
148,139,125071,1,10,3:2:0:0:
233,173,125221,1,10,3:2:0:0:
160,232,125371,1,10,3:2:0:0:
124,50,125521,6,0,B|80:20|80:20|-12:19,1,140,4|2,3:1|0:2,0:2:0:0:
17,96,125971,2,0,P|19:131|36:162,1,70,0|0,3:2|0:2,0:2:0:0:
148,139,126271,1,0,3:2:0:0:
92,297,126421,2,0,P|42:309|14:300,1,70,8|2,0:2|0:2,0:2:0:0:
239,348,126721,2,0,P|204:351|172:341,1,70,2|0,0:2|0:2,0:2:0:0:
108,209,127021,2,0,P|158:221|186:212,1,70,0|2,3:2|0:2,0:2:0:0:
30,151,127321,6,0,L|145:71,1,140,0|2,3:2|0:2,0:2:0:0:
108,209,127771,2,0,L|50:248,1,70,0|0,3:2|0:2,0:2:0:0:
101,319,128071,1,0,3:2:0:0:
239,348,128221,2,0,L|296:307,1,70,10|0,0:2|0:2,0:2:0:0:
364,243,128521,2,0,P|387:285|386:339,1,70,0|0,3:2|0:2,0:2:0:0:
396,47,128821,6,0,B|323:48|323:48|264:80,1,140,4|2,3:2|0:2,0:2:0:0:
278,185,129271,2,0,P|312:176|340:155,1,70,0|0,3:2|0:2,0:2:0:0:
264,80,129571,1,0,3:2:0:0:
115,59,129721,2,0,P|96:89|91:124,1,70,10|2,0:2|0:2,0:2:0:0:
110,270,130021,2,0,P|132:241|141:207,1,70,2|0,0:2|0:2,0:2:0:0:
39,350,130321,2,0,P|16:321|7:287,1,70,0|2,3:2|0:2,0:2:0:0:
302,138,130621,6,0,B|328:192|328:192|304:273,1,140,0|2,3:2|0:2,0:2:0:0:
236,348,131071,2,0,P|214:322|203:289,1,70,0|0,3:2|0:2,0:2:0:0:
227,200,131371,1,0,3:2:0:0:
388,287,131521,2,0,L|420:348,1,70,10|0,0:2|0:2,0:2:0:0:
481,243,131821,2,0,L|448:181,1,70,0|0,3:2|0:2,0:2:0:0:
229,63,132121,6,0,B|271:111|271:111|275:192,1,140,4|2,3:2|0:2,0:2:0:0:
130,61,132571,2,0,P|135:26|153:-2,1,70,0|0,3:2|0:2,0:2:0:0:
161,149,132871,1,0,3:2:0:0:
10,83,133021,2,0,P|24:114|52:136,1,70,10|2,0:2|0:2,0:2:0:0:
126,229,133321,2,0,P|93:241|58:237,1,70,2|0,0:2|0:2,0:2:0:0:
156,338,133621,2,0,P|190:333|218:312,1,70,0|2,3:2|0:2,0:2:0:0:
341,137,133921,6,0,B|352:204|352:204|300:271,1,140,0|2,3:2|0:2,0:2:0:0:
270,83,134371,2,0,P|295:58|328:47,1,70,0|0,3:2|0:2,0:2:0:0:
265,184,134671,1,0,3:2:0:0:
109,149,134821,2,0,L|176:129,1,70,10|0,0:2|0:2,0:2:0:0:
148,239,135121,2,0,L|81:259,1,70,0|0,3:2|0:2,0:2:0:0:
384,326,135421,6,0,L|247:284,1,140,4|2,3:1|0:2,0:2:0:0:
348,210,135871,2,0,L|416:230,1,70,0|0,3:2|0:2,0:2:0:0:
399,125,136171,1,0,3:2:0:0:
232,93,136321,2,0,P|199:108|177:136,1,70,10|2,0:2|0:2,0:2:0:0:
92,172,136621,2,0,P|113:203|156:222,1,70,2|0,0:2|0:2,0:2:0:0:
110,306,136921,2,0,P|144:311|178:303,1,70,0|2,3:2|0:2,0:2:0:0:
368,171,137221,6,0,B|389:106|389:106|347:47,1,140,4|2,3:1|0:2,0:2:0:0:
303,229,137671,2,0,P|332:248|366:256,1,70,0|0,3:2|0:2,0:2:0:0:
474,135,137971,1,0,3:2:0:0:
440,317,138121,2,0,B|415:341|415:341|382:354,1,70,10|0,3:2|0:2,0:2:0:0:
242,141,138421,2,0,B|273:124|273:124|308:120,1,70,2|0,3:2|0:2,0:2:0:0:
178,297,138721,2,0,B|202:321|202:321|235:333,1,70,2|0,3:2|0:2,0:2:0:0:
445,138,139021,6,0,L|307:120,1,140,4|2,3:1|0:2,0:2:0:0:
302,24,139471,2,0,L|372:32,1,70,0|0,3:2|0:2,0:2:0:0:
478,46,139771,1,0,3:2:0:0:
365,233,139921,2,0,L|296:243,1,70,10|2,0:2|0:2,0:2:0:0:
198,322,140221,2,0,L|268:332,1,70,2|0,0:2|0:2,0:2:0:0:
391,316,140521,2,0,P|432:366|438:399,1,70,0|2,3:2|0:2,0:2:0:0:
276,122,140821,6,0,P|307:91|425:105,1,140,0|2,3:2|0:2,0:2:0:0:
194,162,141271,2,0,P|184:128|187:93,1,70,0|0,3:2|0:2,0:2:0:0:
297,0,141571,1,0,3:2:0:0:
459,213,141721,2,0,P|382:279|284:255,1,210,10|0,0:2|0:2,0:2:0:0:
283,139,142321,6,0,B|343:105|343:105|426:120,1,140,4|2,3:2|0:2,0:2:0:0:
196,162,142771,2,0,P|193:127|206:95,1,70,0|0,3:2|0:2,0:2:0:0:
275,47,143071,1,0,3:2:0:0:
371,281,143221,2,0,P|405:273|432:252,1,70,10|2,0:2|0:2,0:2:0:0:
488,115,143521,2,0,P|490:149|479:182,1,70,2|0,0:2|0:2,0:2:0:0:
447,345,143821,2,0,P|480:323|511:272,1,70,0|2,3:2|0:2,0:2:0:0:
277,281,144121,6,0,B|243:341|243:341|163:358,1,140,0|2,3:2|0:2,0:2:0:0:
365,262,144571,2,0,P|367:296|356:329,1,70,0|0,3:2|0:2,0:2:0:0:
303,196,144871,1,0,3:2:0:0:
84,151,145021,2,0,P|84:186|99:217,1,70,10|0,0:2|0:2,0:2:0:0:
176,169,145321,2,0,L|225:85,1,70,0|0,3:2|0:2,0:2:0:0:
112,366,145621,6,0,B|50:337|50:337|20:249,1,140,4|2,3:2|0:2,0:2:0:0:
16,132,146071,2,0,L|111:158,1,70,0|0,3:2|0:2,0:2:0:0:
211,108,146371,1,0,3:2:0:0:
219,294,146521,2,0,P|257:308|316:294,1,70,10|2,0:2|0:2,0:2:0:0:
474,313,146821,2,0,P|436:299|377:313,1,70,2|0,0:2|0:2,0:2:0:0:
280,186,147121,2,0,P|315:185|348:199,1,70,0|2,3:2|0:2,0:2:0:0:
149,49,147421,6,0,B|96:92|96:92|90:180,1,140,0|2,3:2|0:2,0:2:0:0:
119,260,147871,2,0,P|150:246|173:220,1,70,0|0,3:2|0:2,0:2:0:0:
37,229,148171,1,0,3:2:0:0:
258,87,148321,2,0,P|283:109|294:142,1,70,10|0,0:2|0:2,0:2:0:0:
242,0,148621,2,0,P|276:-1|308:13,1,70,0|0,3:2|0:2,0:2:0:0:
24,130,148921,6,0,B|38:66|38:66|93:17,1,140,4|2,3:1|0:2,0:2:0:0:
119,143,149371,2,0,L|107:212,1,70,0|0,3:2|0:2,0:2:0:0:
17,216,149671,1,0,3:2:0:0:
203,41,149821,2,0,L|219:138,1,70,10|2,0:2|0:2,0:2:0:0:
292,209,150121,2,0,L|308:112,1,70,2|0,0:2|0:2,0:2:0:0:
374,28,150421,2,0,L|390:126,1,70,0|2,3:2|0:2,0:2:0:0:
346,324,150721,6,0,P|307:295|298:196,1,140,4|2,3:1|0:2,0:2:0:0:
396,136,151171,1,0,3:2:0:0:
376,241,151321,1,0,3:2:0:0:
477,208,151471,1,0,3:2:0:0:
346,324,151621,2,0,B|306:333|306:333|270:320,1,70,10|2,3:2|0:2,0:2:0:0:
99,331,151921,2,0,B|139:340|139:340|175:327,1,70,2|0,3:2|0:2,0:2:0:0:
281,216,152221,6,0,P|215:195|154:226,1,140,4|0,3:2|0:2,0:2:0:0:
84,127,154471,5,2,0:2:0:0:
84,127,154771,1,2,0:2:0:0:
84,127,155971,5,2,0:2:0:0:
84,127,156271,1,2,0:2:0:0:
83,127,157771,5,2,0:2:0:0:
83,127,158071,1,2,0:2:0:0:
84,127,159271,5,2,0:2:0:0:
84,127,159571,1,2,0:2:0:0:
84,127,161071,5,2,0:2:0:0:
84,127,161371,1,2,0:2:0:0:
84,127,162571,5,2,0:2:0:0:
84,127,162871,1,2,0:2:0:0:
84,127,164371,6,0,B|115:112|115:112|146:126|146:126|208:80|283:100|283:100|314:70|314:70|353:80,1,297.5,2|0,0:2|0:2,0:2:0:0:
424,144,165721,6,0,L|425:306,1,140,6|2,3:1|0:2,0:2:0:0:
509,156,166171,2,0,L|510:78,1,70,0|0,3:2|0:2,2:2:0:0:
432,50,166471,1,0,3:2:0:0:
271,213,166621,2,0,P|294:187|326:173,1,70,10|2,0:2|0:2,0:2:0:0:
199,254,166921,2,0,P|223:280|255:294,1,70,2|0,0:2|0:2,0:2:0:0:
189,172,167221,2,0,P|156:182|130:206,1,70,0|0,3:2|0:2,0:2:0:0:
297,68,167521,6,0,B|366:52|366:52|430:93,1,140,2|2,3:2|0:2,0:2:0:0:
216,95,167971,2,0,B|209:60|209:60|225:27,1,70,0|2,3:2|0:2,0:2:0:0:
348,134,168271,1,0,3:2:0:0:
181,172,168421,2,0,B|202:202|202:202|255:224,1,70,10|0,0:2|0:2,0:2:0:0:
297,68,168721,2,0,B|329:51|329:51|380:54,1,70,0|0,3:2|0:2,0:2:0:0:
512,292,169021,6,0,B|495:226|495:226|425:185,1,140,6|2,3:2|0:2,0:2:0:0:
340,190,169471,2,0,B|348:226|348:226|370:250,1,70,0|0,3:2|0:2,0:2:0:0:
461,100,169771,1,0,3:2:0:0:
298,73,169921,2,0,B|328:53|328:53|379:51,1,70,10|2,0:2|0:2,0:2:0:0:
340,190,170221,2,0,B|331:226|331:226|297:263,1,70,2|0,0:2|0:2,0:2:0:0:
181,115,170521,2,0,B|189:78|189:78|224:42,1,70,2|0,3:2|0:2,0:2:0:0:
203,264,170821,6,0,B|194:300|194:300|160:337,1,70,2|0,3:2|0:2,0:2:0:0:
98,68,171121,2,0,B|106:31|106:31|128:7,1,70,2|0,0:2|3:2,0:2:0:0:
54,303,171421,2,0,B|45:339|45:339|11:376,1,70,2|0,0:2|3:2,0:2:0:0:
216,47,171721,2,0,B|238:17|238:17|269:6,1,70,10|0,0:2|0:2,0:2:0:0:
64,200,172021,2,0,B|32:219|32:219|-1:220,1,70,2|0,3:2|0:2,0:2:0:0:
292,88,172321,6,0,B|384:88|384:88|416:125,1,140,6|0,3:2|0:2,0:2:0:0:
216,47,172771,2,0,P|207:81|213:116,1,70,0|0,3:2|0:2,0:2:0:0:
288,4,173071,1,2,3:2:0:0:
312,204,173221,2,0,B|352:196|352:196|368:204|368:204|384:196|384:196|412:208|439:201|472:184,1,140,8|0,0:2|0:2,0:2:0:0:
384,296,173671,1,0,0:2:0:0:
147,209,173821,6,0,L|150:261,2,46.6666666666667,2|0|0,0:0|0:0|0:0,0:0:0:0:
54,217,174121,2,0,B|53:183|70:132|131:120|131:120|119:75|161:27,1,210,2|0,3:2|3:2,0:2:0:0:
317,253,174871,1,2,3:2:0:0:
212,223,175021,2,8,L|138:260,1,70,8|0,0:2|0:2,0:2:0:0:
333,350,175321,2,8,L|395:318,1,70,2|0,0:2|0:2,0:2:0:0:
420,56,175621,6,0,B|487:90|487:90|507:183,1,140,6|2,3:1|0:1,0:1:0:0:
340,70,176071,2,0,P|340:35|355:3,1,70,0|0,3:2|0:2,0:2:0:0:
502,11,176371,1,0,3:2:0:0:
330,152,176521,2,0,P|319:185|296:211,1,70,10|2,0:2|0:2,0:2:0:0:
232,137,176821,2,0,B|205:107|205:107|202:57,1,70,2|0,0:2|0:2,0:2:0:0:
203,221,177121,2,0,B|204:250|204:250|231:280,1,70,2|0,3:2|0:2,0:2:0:0:
354,3,177421,6,0,B|460:-33|502:51|502:51|486:38|458:46,1,210,6|0,3:1|3:2,0:2:0:0:
467,43,178171,1,0,3:2:0:0:
415,225,178321,5,10,3:2:0:0:
495,194,178471,1,2,3:2:0:0:
489,270,178621,1,0,3:2:0:0:
339,253,178771,1,10,0:2:0:0:
406,308,178921,1,2,3:2:0:0:
495,194,179071,1,10,3:2:0:0:
349,160,179221,6,0,B|285:177|285:177|250:251,1,140,6|2,3:1|0:2,0:2:0:0:
434,145,179671,2,0,P|423:111|400:85,1,70,0|0,3:2|0:2,0:2:0:0:
319,69,179971,1,0,3:2:0:0:
326,325,180121,2,0,B|293:344|293:344|260:342,1,70,10|2,0:2|0:2,0:2:0:0:
180,292,180421,1,2,0:2:0:0:
336,235,180571,2,8,B|368:237|368:237|401:218,1,70,0|0,0:2|3:2,0:2:0:0:
470,147,180871,1,0,0:2:0:0:
311,139,181021,6,0,B|278:158|278:158|245:156,1,70,2|0,3:2|0:2,0:2:0:0:
173,79,181321,1,0,0:2:0:0:
327,40,181471,2,0,B|358:41|358:41|391:22,1,70,2|0,3:2|0:2,0:2:0:0:
486,0,181771,1,0,3:2:0:0:
311,139,181921,2,0,B|278:158|278:158|245:156,1,70,10|0,0:2|0:2,0:2:0:0:
119,20,182221,2,0,B|152:1|152:1|185:3,1,70,2|0,3:2|0:2,0:2:0:0:
395,133,182521,6,0,B|375:199|375:199|283:242,1,140,6|2,3:2|0:2,0:2:0:0:
221,243,182971,2,0,P|231:277|256:301,1,70,0|0,3:2|0:2,0:2:0:0:
344,304,183271,1,0,3:2:0:0:
175,129,183421,2,0,B|136:134|136:134|102:169,1,70,10|2,0:2|0:2,0:2:0:0:
265,113,183721,2,0,B|262:78|262:78|243:49,1,70,2|0,0:2|0:2,0:2:0:0:
336,166,184021,2,0,B|369:157|369:157|394:133,1,70,2|0,3:2|0:2,0:2:0:0:
320,368,184321,6,0,B|394:359|394:359|449:295,1,140,2|0,3:2|0:2,0:2:0:0:
303,267,184771,2,0,L|224:275,1,70,0|0,3:2|0:2,0:2:0:0:
140,284,185071,1,0,3:2:0:0:
394,244,185221,2,0,B|376:206|376:206|333:180,1,70,10|0,0:2|0:2,0:2:0:0:
94,213,185521,2,0,B|71:228|71:228|53:266,1,70,2|0,3:2|0:2,0:2:0:0:
82,35,185821,6,4,B|128:28|152:48|152:48|178:37|178:37|197:56|197:56|237:42|287:65,1,210,6|0,3:2|3:2,0:2:0:0:
388,141,186421,1,0,0:2:0:0:
286,168,186571,1,0,3:2:0:0:
472,143,186721,2,0,P|456:192|428:215,1,70,10|2,0:2|0:2,0:2:0:0:
388,141,187021,5,2,0:2:0:0:
356,230,187171,1,2,0:2:0:0:
286,168,187321,1,2,3:2:0:0:
256,255,187471,1,2,0:2:0:0:
158,142,187621,6,0,B|217:130|217:130|296:174,1,140,2|2,3:2|0:2,0:2:0:0:
69,133,188071,2,0,P|79:99|101:72,1,70,0|0,3:2|0:2,0:2:0:0:
179,57,188371,1,0,3:2:0:0:
197,220,188521,2,0,B|224:245|224:245|266:257,1,70,10|0,0:2|0:2,0:2:0:0:
495,149,188821,2,0,B|459:159|459:159|416:150,1,70,2|0,3:2|0:2,0:2:0:0:
65,128,189121,6,0,B|38:193|38:193|84:280,1,140,6|2,3:1|0:2,0:2:0:0:
141,76,189571,2,0,P|117:50|86:37,1,70,0|0,3:2|0:2,0:2:0:0:
0,60,189871,1,0,3:2:0:0:
159,255,190021,2,0,B|189:246|189:246|216:219,1,70,10|2,0:2|0:2,0:2:0:0:
286,150,190321,2,0,B|259:123|259:123|206:109,1,70,2|0,0:2|0:2,0:2:0:0:
342,237,190621,2,0,B|369:210|369:210|383:157,1,70,0|2,3:2|0:2,0:2:0:0:
123,45,190921,6,0,B|106:68|106:68|89:78|89:78|88:96|88:96|70:105|70:105|67:130|67:130|25:157|41:247,1,210,6|0,3:1|3:2,0:2:0:0:
207,12,191671,1,0,3:2:0:0:
215,111,191821,2,0,P|204:111|181:118,3,35,10|0|0|0,3:2|0:2|0:2|0:2,0:2:0:0:
105,44,192121,2,0,P|110:60|111:77,3,35,2|0|0|0,3:2|0:2|0:2|0:2,0:2:0:0:
54,166,192421,2,0,P|70:160|87:159,3,35,2|0|0|0,3:2|0:2|0:2|0:2,0:2:0:0:
167,199,192721,6,0,P|206:212|271:188,1,105.000004005432,6|0,3:1|0:2,0:2:0:0:
340,28,193321,1,2,0:2:0:0:
218,299,193621,1,10,0:2:0:0:
378,174,193921,2,0,P|409:135|400:61,1,105.000004005432,0|0,3:2|0:2,0:2:0:0:
436,294,194521,5,0,3:2:0:0:
270,170,194821,1,2,0:2:0:0:
184,142,194971,2,0,P|129:132|66:162,1,105.000004005432,2|2,0:2|0:2,0:2:0:0:
12,206,195421,1,10,0:2:0:0:
270,170,195721,1,0,3:2:0:0:
107,332,196021,6,0,P|121:284|178:244,1,105.000004005432,2|0,3:2|0:2,0:2:0:0:
313,284,196621,1,2,0:2:0:0:
156,153,196921,1,10,0:2:0:0:
374,212,197221,2,0,P|401:252|401:313,1,105.000004005432,0|0,3:2|0:2,0:2:0:0:
311,149,197821,6,0,P|341:128|413:131,1,105.000004005432,2|2,3:2|0:2,0:2:0:0:
356,30,198271,2,0,B|310:20|310:20|233:33,1,105.000004005432,2|0,0:2|0:2,0:2:0:0:
172,61,198721,1,10,0:2:0:0:
207,265,199021,1,0,3:2:0:0:
23,125,199321,6,0,P|23:80|65:23,1,105.000004005432,2|0,3:2|0:2,0:2:0:0:
112,103,199771,2,0,L|172:117,2,52.5000020027161,0|2|0,0:2|0:2|0:2,0:2:0:0:
96,346,200221,1,10,0:2:0:0:
96,346,200521,2,0,L|196:313,1,105.000004005432,0|0,3:2|0:2,0:2:0:0:
220,166,201121,5,0,3:2:0:0:
372,205,201421,1,2,0:2:0:0:
404,284,201571,2,0,P|383:343|336:373,1,105.000004005432,2|0,0:2|0:2,0:2:0:0:
265,373,202021,1,10,0:2:0:0:
372,205,202321,1,0,3:2:0:0:
201,49,202621,6,0,P|171:90|191:188,1,157.500006008148,2|0,3:2|0:2,0:2:0:0:
311,136,203221,2,0,L|238:118,1,52.5000020027161,2|0,0:2|0:2,0:2:0:0:
35,28,203521,1,10,0:2:0:0:
116,232,203821,2,0,P|156:264|213:268,1,105.000004005432,0|0,3:2|0:2,0:2:0:0:
311,190,204421,6,0,B|347:155|347:155|395:170,1,91.8750035047532,2|0,3:2|0:2,0:2:0:0:
397,173,204721,2,0,L|485:213,1,85.7499973831178,2|0,3:2|0:2,0:2:0:0:
478,220,205021,2,0,L|399:255,1,79.6249963550569,2|0,3:2|0:2,0:2:0:0:
413,264,205321,2,0,L|483:295,1,73.4999977569581,2|0,3:2|0:2,0:2:0:0:
480,304,205621,2,0,L|414:333,1,67.3750020561219,2|0,3:2|0:2,0:2:0:0:
340,324,205921,6,0,P|319:288|327:221,1,105.000004005432,6|0,3:3|0:2,0:2:0:0:
426,61,206521,1,2,0:2:0:0:
137,135,206821,1,10,0:2:0:0:
278,95,207121,2,0,P|255:47|203:7,1,105.000004005432,2|2,3:2|0:2,0:2:0:0:
227,168,207721,6,0,P|279:184|341:160,1,105.000004005432,0|2,3:2|0:2,0:2:0:0:
426,61,208321,1,2,0:2:0:0:
130,141,208621,1,10,0:2:0:0:
355,246,208921,1,2,3:2:0:0:
102,50,209221,6,0,P|65:70|35:137,1,105.000004005432,2|0,3:2|0:2,0:2:0:0:
79,204,209671,2,0,P|55:214|29:215,2,52.5000020027161,0|2|0,0:2|0:2|0:2,0:2:0:0:
248,60,210121,1,10,0:2:0:0:
303,196,210421,2,0,P|254:213|203:201,1,105.000004005432,2|2,3:2|0:2,0:2:0:0:
377,151,211021,6,0,P|389:201|371:250,1,105.000004005432,0|2,3:2|0:2,0:2:0:0:
248,60,211621,1,2,0:2:0:0:
425,353,211921,1,10,0:2:0:0:
256,304,212221,1,2,3:2:0:0:
505,333,212521,6,0,P|484:294|408:269,1,105.000004005432,2|0,3:2|0:2,0:2:0:0:
349,291,212971,2,0,P|376:334|424:352,1,105.000004005432,2|0,0:2|0:2,0:2:0:0:
329,164,213421,1,10,0:2:0:0:
163,172,213721,2,0,P|116:218|115:275,1,105.000004005432,2|2,3:2|0:2,0:2:0:0:
248,160,214321,6,0,P|217:102|163:84,1,105.000004005432,2|2,3:2|0:2,0:2:0:0:
36,83,214921,1,2,0:2:0:0:
200,11,215221,1,10,0:2:0:0:
28,174,215521,1,2,3:2:0:0:
290,59,215821,6,0,P|385:66|421:122,1,140,6|0,3:1|0:2,0:2:0:0:
288,195,216271,2,0,L|338:130,1,70,0|2,0:2|0:2,0:2:0:0:
441,178,216571,1,0,0:2:0:0:
283,287,216721,2,0,P|241:276|193:188,1,140,10|0,0:2|0:2,0:2:0:0:
430,253,217321,1,0,3:2:0:0:
226,362,217621,5,6,3:1:0:0:
168,300,217771,1,0,3:2:0:0:
257,286,217921,1,0,3:2:0:0:
136,379,218071,1,0,3:2:0:0:
111,236,218221,1,0,3:2:0:0:
257,286,218371,1,0,3:2:0:0:
83,316,218521,5,10,3:2:0:0:
199,222,218671,1,8,3:2:0:0:
168,300,218821,1,0,3:2:0:0:
22,245,218971,1,8,3:2:0:0:
61,163,219121,1,8,3:2:0:0:
111,236,219271,1,0,3:2:0:0:
29,85,219421,6,0,B|89:42|89:42|174:28,1,140,4|2,3:1|0:2,0:2:0:0:
204,154,219871,2,0,P|208:188|198:221,1,70,0|0,3:2|0:2,0:2:0:0:
249,68,220171,1,0,3:2:0:0:
468,221,220321,2,0,P|464:156|442:130,1,70,10|2,0:2|0:2,0:2:0:0:
380,219,220621,2,0,P|387:252|408:279,1,70,2|0,0:2|0:2,0:2:0:0:
425,71,220921,2,0,P|381:119|379:153,1,70,0|2,3:2|0:2,0:2:0:0:
258,329,221221,6,0,L|151:194,1,140,0|2,3:2|0:2,0:2:0:0:
226,135,221671,2,0,L|269:189,1,70,0|0,3:2|0:2,0:2:0:0:
318,259,221971,1,0,3:2:0:0:
242,46,222121,2,0,P|191:49|158:72,1,70,10|0,0:2|0:2,0:2:0:0:
319,103,222421,2,0,P|369:98|402:74,1,70,0|0,3:2|0:2,0:2:0:0:
171,219,222721,6,0,B|100:227|100:227|37:294,1,140,4|2,3:2|0:2,0:2:0:0:
227,141,223171,2,0,P|252:166|267:198,1,70,0|0,3:2|0:2,0:2:0:0:
239,285,223471,1,0,3:2:0:0:
90,84,223621,2,0,P|54:76|-10:92,1,70,10|2,0:2|0:2,0:2:0:0:
186,40,223921,2,0,P|222:32|286:48,1,70,2|0,0:2|0:2,0:2:0:0:
225,134,224221,2,0,P|189:142|125:126,1,70,0|2,3:2|0:2,0:2:0:0:
376,254,224521,6,0,B|400:184|400:184|383:120,1,140,0|2,3:2|0:2,0:2:0:0:
338,45,224971,2,0,P|372:34|406:38,1,70,0|0,3:2|0:2,0:2:0:0:
469,94,225271,1,0,3:2:0:0:
287,236,225421,2,0,P|283:270|293:303,1,70,10|0,0:2|0:2,0:2:0:0:
246,150,225721,2,0,P|211:146|178:156,1,70,0|0,3:2|0:2,0:2:0:0:
63,355,226021,6,0,B|81:287|81:287|146:221,1,140,4|2,3:2|0:2,0:2:0:0:
217,226,226471,2,0,P|208:278|185:309,1,70,0|0,3:2|0:2,0:2:0:0:
150,357,226771,1,0,3:2:0:0:
90,159,226921,2,0,P|123:150|158:156,1,70,10|2,0:2|0:2,0:2:0:0:
337,154,227221,2,0,P|304:145|269:151,1,70,2|0,0:2|0:2,0:2:0:0:
213,76,227521,2,0,P|253:62|292:60,1,70,0|2,3:2|0:2,0:2:0:0:
463,277,227821,6,0,B|393:303|393:303|313:279,1,140,0|2,3:2|0:2,0:2:0:0:
248,252,228271,2,0,P|239:285|248:319,1,70,0|0,3:2|0:2,0:2:0:0:
325,370,228571,1,0,3:2:0:0:
425,193,228721,2,0,P|379:187|351:197,1,70,10|0,0:2|0:2,0:2:0:0:
190,149,229021,2,0,P|236:156|264:145,1,70,0|0,0:2|0:2,0:2:0:0:
488,133,229321,6,0,B|429:108|429:108|335:117,1,140,4|2,3:1|0:1,0:1:0:0:
483,44,229771,2,0,P|452:31|405:29,1,70,0|0,3:2|0:2,0:2:0:0:
337,33,230071,1,0,3:2:0:0:
378,233,230221,2,0,P|356:260|316:280,1,70,10|2,0:2|0:2,0:2:0:0:
286,120,230521,2,0,P|286:155|299:188,1,70,2|0,0:2|0:2,0:2:0:0:
375,140,230821,2,0,P|410:145|440:163,1,70,0|2,3:2|0:2,0:2:0:0:
194,258,231121,6,0,B|139:226|139:226|45:229,1,140,4|2,3:1|0:2,0:2:0:0:
280,260,231571,2,0,P|273:294|253:322,1,70,0|0,3:2|0:2,0:2:0:0:
169,347,231871,1,0,3:2:0:0:
232,52,232021,2,0,B|257:86|257:86|270:133,1,70,10|0,3:2|0:2,0:2:0:0:
390,125,232321,2,0,B|383:166|383:166|359:209,1,70,2|0,3:2|0:2,0:2:0:0:
468,280,232621,2,0,B|434:305|434:305|387:318,1,70,2|0,3:2|0:2,0:2:0:0:
328,52,232921,6,0,B|388:17|388:17|479:34,1,140,4|2,3:1|0:2,0:2:0:0:
298,133,233371,2,0,P|267:116|247:88,1,70,0|0,3:2|0:2,0:2:0:0:
257,7,233671,1,0,3:2:0:0:
395,195,233821,2,0,L|323:253,1,70,10|2,0:2|0:2,0:2:0:0:
202,303,234121,2,0,L|256:259,1,70,2|0,0:2|0:2,0:2:0:0:
298,133,234421,2,0,L|226:191,1,70,0|2,3:2|0:2,0:2:0:0:
60,80,234721,6,0,B|101:29|101:29|194:21,1,140,0|2,3:2|0:2,0:2:0:0:
90,161,235171,2,0,P|56:168|23:160,1,70,0|0,3:2|0:2,0:2:0:0:
168,120,235471,1,0,3:2:0:0:
338,181,235621,2,0,P|252:235|156:203,1,210,10|0,0:2|0:2,0:2:0:0:
304,104,236221,6,0,B|231:96|231:96|168:120,1,140,4|2,3:2|0:2,0:2:0:0:
110,53,236671,2,0,L|190:22,1,70,0|0,3:2|0:2,0:2:0:0:
270,19,236971,1,0,3:2:0:0:
141,222,237121,2,0,L|196:265,1,70,10|2,0:2|0:2,0:2:0:0:
285,224,237421,2,0,L|341:268,1,70,2|0,0:2|0:2,0:2:0:0:
412,201,237721,2,0,L|467:244,1,70,0|2,3:2|0:2,0:2:0:0:
229,48,238021,6,0,B|203:107|203:107|224:188,1,140,0|2,3:2|0:2,0:2:0:0:
285,224,238471,2,0,P|299:191|281:132,1,70,0|0,3:2|0:2,0:2:0:0:
300,75,238771,1,0,3:2:0:0:
160,259,238921,2,0,P|172:291|194:318,1,70,10|0,0:2|0:2,0:2:0:0:
344,276,239221,2,0,P|366:249|378:216,1,70,0|0,3:2|0:2,0:2:0:0:
149,30,239521,6,0,B|84:89|84:89|87:173,1,140,4|2,3:2|0:2,0:2:0:0:
51,14,239971,2,0,B|21:37|21:37|3:69,1,70,0|0,3:2|0:2,0:2:0:0:
243,76,240271,1,0,3:2:0:0:
171,173,240421,2,0,P|152:202|123:221,1,70,10|2,0:2|0:2,0:2:0:0:
110,93,240721,2,0,P|129:64|159:46,1,70,2|0,0:2|0:2,0:2:0:0:
243,9,241021,2,0,P|252:43|243:77,1,70,0|2,3:2|0:2,0:2:0:0:
19,61,241321,6,0,B|14:129|14:129|67:183,1,140,0|2,3:2|0:2,0:2:0:0:
156,142,241771,2,0,P|138:112|109:92,1,70,0|0,3:2|0:2,0:2:0:0:
144,233,242071,1,0,3:2:0:0:
308,49,242221,2,0,P|273:42|240:50,1,70,10|0,0:2|0:2,0:2:0:0:
393,113,242521,2,0,L|470:176,1,70,0|0,3:2|0:2,0:2:0:0:
276,293,242821,6,0,B|229:231|229:231|252:142,1,140,6|0,3:1|0:2,0:2:0:0:
171,108,243271,2,0,L|153:181,1,70,0|0,3:2|0:2,0:2:0:0:
137,262,243571,1,0,3:2:0:0:
360,316,243721,2,0,L|391:232,1,70,10|2,0:2|0:2,0:2:0:0:
484,140,244021,2,0,L|453:224,1,70,2|0,3:2|0:2,0:2:0:0:
345,161,244321,2,0,L|376:77,1,70,0|2,3:2|0:2,0:2:0:0:
159,316,244621,5,6,3:1:0:0:
105,243,244771,1,0,3:2:0:0:
193,228,244921,1,0,3:2:0:0:
70,327,245071,1,0,3:2:0:0:
43,170,245221,1,0,3:2:0:0:
193,228,245371,1,0,3:2:0:0:
70,327,245521,6,0,P|27:293|17:258,1,70,10|0,3:2|0:2,0:2:0:0:
140,156,245821,2,0,P|190:135|226:144,1,70,0|0,3:2|0:2,0:2:0:0:
353,232,246121,2,0,P|369:201|369:166,1,70,0|0,3:2|0:2,0:2:0:0:
288,369,246421,6,0,L|159:316,1,140,4|2,3:1|0:2,0:2:0:0:
14,316,246871,2,0,L|77:344,1,70,0|0,3:2|0:2,0:2:0:0:
158,315,247171,1,0,3:2:0:0:
95,95,247321,2,0,P|63:82|29:85,1,70,10|2,0:2|0:2,0:2:0:0:
50,161,247621,2,0,P|20:189|10:241,1,70,2|0,3:2|0:2,0:2:0:0:
152,45,247921,2,0,P|181:25|215:21,1,70,0|2,3:2|0:2,0:2:0:0:
198,226,248221,6,0,L|345:287,1,140,0|2,3:2|0:2,0:2:0:0:
412,204,248671,2,0,L|347:177,1,70,0|0,3:2|0:2,0:2:0:0:
327,279,248971,1,0,3:2:0:0:
229,136,249121,2,0,P|132:153|108:261,1,210,10|0,0:2|0:2,0:2:0:0:
92,61,249721,6,4,B|153:32|153:32|253:43,1,140,4|2,3:2|0:2,0:2:0:0:
198,226,250171,2,0,L|263:253,1,70,0|0,3:2|0:2,0:2:0:0:
229,136,250471,1,0,3:2:0:0:
361,15,250621,2,0,P|344:52|352:110,1,70,10|2,0:2|0:2,0:2:0:0:
421,132,250921,2,0,P|438:169|430:227,1,70,2|0,0:2|0:2,0:2:0:0:
392,343,251221,2,0,P|394:308|410:277,1,70,0|2,3:2|0:2,0:2:0:0:
343,80,251521,6,0,P|278:85|225:153,1,140,0|2,3:2|0:2,0:2:0:0:
359,168,251971,2,0,P|392:155|417:131,1,70,0|0,3:2|0:2,0:2:0:0:
423,53,252271,1,0,3:2:0:0:
290,210,252421,2,0,P|260:228|225:233,1,70,10|0,0:2|0:2,0:2:0:0:
221,313,252721,2,0,P|249:332|266:362,1,70,0|0,3:2|0:2,0:2:0:0:
56,289,253021,6,0,B|11:244|11:244|-9:146,1,140,4|2,3:2|0:2,0:2:0:0:
133,257,253471,2,0,P|141:291|133:325,1,70,0|0,3:2|0:2,0:2:0:0:
62,375,253771,1,0,3:2:0:0:
208,205,253921,2,0,P|213:152|195:117,1,70,10|2,0:2|0:2,0:2:0:0:
264,283,254221,2,0,L|344:230,1,70,2|0,0:2|0:2,0:2:0:0:
314,357,254521,2,0,P|367:352|402:370,1,70,0|2,3:2|0:2,0:2:0:0:
497,141,254821,6,0,B|472:107|472:107|465:79|465:79|433:74|433:74|403:49,1,140,0|2,3:2|0:2,0:2:0:0:
407,147,255271,2,0,P|417:195|452:222,1,70,0|0,3:2|0:2,0:2:0:0:
512,234,255571,1,0,3:2:0:0:
362,272,255721,2,0,P|403:298|446:293,1,70,10|0,0:2|0:2,0:2:0:0:
308,199,256021,2,0,P|281:228|272:275,1,70,0|0,3:2|0:2,0:2:0:0:
68,33,256321,6,0,B|107:26|107:26|135:42|135:42|171:25|171:25|208:43|208:43|234:22|296:-13|371:30|378:105|378:105,1,363.999983337403,6|0,3:1|0:2,0:1:0:0:
275,124,257071,1,0,3:2:0:0:
87,124,257221,2,0,B|48:157|48:157|39:224,1,90.9999958343508,10|2,0:2|0:2,0:2:0:0:
187,370,257521,2,0,B|226:337|226:337|235:270,1,90.9999958343508,2|0,0:2|0:2,0:2:0:0:
166,154,257821,2,0,B|123:121|123:121|72:125,1,90.9999958343508,0|2,3:2|0:2,0:2:0:0:
335,237,258121,6,0,B|331:216|351:196|351:196|335:168|335:168|371:120|348:51,1,167.999994873047,6|2,3:1|0:2,0:2:0:0:
239,245,258571,2,0,B|254:296|254:296|277:315,1,83.9999974365235,0|0,3:2|0:2,0:2:0:0:
391,361,258871,1,0,3:2:0:0:
250,104,259021,2,0,B|198:119|198:119|165:158,1,83.9999974365235,10|0,3:2|0:2,0:2:0:0:
335,237,259321,2,0,B|381:215|381:215|409:169,1,83.9999974365235,2|0,3:2|0:2,0:2:0:0:
156,312,259621,2,0,B|109:333|109:333|81:379,1,83.9999974365235,2|0,3:2|0:2,0:2:0:0:
378,367,259921,6,0,L|217:272,1,154.000004699707,4|2,3:1|0:2,0:2:0:0:
400,276,260371,2,0,L|311:222,1,77.0000023498536,0|0,3:2|0:2,0:2:0:0:
460,216,260671,1,0,3:2:0:0:
329,107,260821,2,0,P|284:130|260:170,1,70,10|2,0:2|0:2,0:2:0:0:
417,57,261121,2,0,L|505:109,1,70,2|0,0:2|0:2,0:2:0:0:
331,280,261421,2,0,B|310:262|310:262|287:256|287:256|272:242,1,70,0|2,3:2|0:2,0:2:0:0:
395,366,261721,6,0,P|322:384|244:346,1,140,0|2,3:2|0:2,0:2:0:0:
425,289,262171,2,0,P|455:308|473:338,1,70,0|0,3:2|0:2,0:2:0:0:
394,201,262471,1,0,3:2:0:0:
214,297,262621,2,0,L|155:259,1,70,10|0,0:2|0:2,0:2:0:0:
245,213,262921,2,0,L|337:187,1,70,0|0,3:2|0:2,0:2:0:0:
0,201,263221,6,0,B|2:265|2:265|84:325,1,140,4|2,3:2|0:2,0:2:0:0:
155,259,263671,2,0,L|96:221,1,70,0|0,3:2|0:2,0:2:0:0:
159,149,263971,1,0,3:2:0:0:
320,289,264121,2,0,L|389:280,1,70,10|2,0:2|0:2,0:2:0:0:
295,206,264421,2,0,L|196:218,1,70,2|0,0:2|0:2,0:2:0:0:
307,124,264721,2,0,L|376:115,1,70,0|2,3:2|0:2,0:2:0:0:
429,353,265021,6,0,P|469:297|457:231,1,140,0|2,3:2|0:2,0:2:0:0:
438,147,265471,2,0,P|472:147|505:160,1,70,0|0,3:2|0:2,0:2:0:0:
457,231,265771,1,0,3:2:0:0:
298,234,265921,2,0,B|258:255|258:255|212:236|212:236|149:259|91:243,1,210,10|0,0:2|0:2,0:2:0:0:
340,151,266521,6,0,B|382:197|382:197|383:286,1,140,4|2,3:2|0:2,0:2:0:0:
318,68,266971,2,0,P|353:65|386:76,1,70,0|0,3:2|0:2,0:2:0:0:
444,149,267271,1,0,3:2:0:0:
231,290,267421,2,0,B|192:302|192:302|146:292,1,70,10|2,0:2|0:2,0:2:0:0:
164,58,267721,2,0,B|203:46|203:46|249:56,1,70,2|0,0:2|0:2,0:2:0:0:
324,317,268021,2,0,B|304:353|304:353|265:378,1,70,0|2,3:2|0:2,0:2:0:0:
169,202,268321,5,2,3:2:0:0:
297,174,268471,1,2,0:2:0:0:
81,230,268621,2,0,P|81:175|100:137,1,70,2|0,0:2|3:2,0:2:0:0:
391,150,268921,2,0,P|391:205|372:243,1,70,2|0,0:2|3:2,0:2:0:0:
148,293,269221,2,0,B|176:318|176:318|207:324,1,70,10|0,0:2|0:2,0:2:0:0:
377,320,269521,2,0,B|349:345|349:345|317:352,1,70,0|0,0:2|0:2,0:2:0:0:
44,107,269821,6,0,B|95:39|95:39|183:21,1,167.999994873047,6|0,3:1|0:2,0:2:0:0:
237,204,270271,1,2,3:2:0:0:
153,141,270421,1,0,0:2:0:0:
276,112,270571,1,0,3:2:0:0:
120,240,270721,2,0,B|80:223|80:223|52:172,1,83.9999974365235,10|2,0:2|0:2,0:2:0:0:
276,112,271021,2,0,B|316:129|316:129|344:180,1,83.9999974365235,2|0,0:2|0:2,0:2:0:0:
176,308,271321,2,0,B|135:324|135:324|79:308,1,83.9999974365235,0|2,3:2|0:2,0:2:0:0:
276,112,271621,6,0,B|339:111|339:111|451:219,1,181.999991668702,4|2,3:1|0:2,0:2:0:0:
280,220,272071,1,0,3:2:0:0:
218,29,272221,1,0,0:2:0:0:
398,51,272371,1,0,3:2:0:0:
194,225,272521,2,0,P|243:298|273:305,1,90.9999958343508,10|0,3:2|0:2,0:2:0:0:
386,271,272821,2,0,P|424:192|415:163,1,90.9999958343508,0|0,3:2|0:2,0:2:0:0:
124,169,273121,2,0,P|107:255|124:281,1,90.9999958343508,0|0,3:2|0:2,0:2:0:0:
250,39,273421,6,0,B|327:30|327:30|437:90,1,195.999994018555,4|2,3:1|0:2,0:2:0:0:
178,89,273871,2,0,P|161:48|177:-10,1,97.9999970092774,0|0,3:2|0:2,0:2:0:0:
256,122,274171,1,0,3:2:0:0:
90,127,274321,2,0,P|119:165|165:182,1,97.9999970092774,10|2,0:2|0:2,0:2:0:0:
332,77,274621,2,0,B|286:42|286:42|221:41,1,97.9999970092774,2|0,0:2|0:2,0:2:0:0:
165,182,274921,2,0,B|197:212|197:212|277:215,1,97.9999970092774,0|2,3:2|0:2,0:2:0:0:
102,65,275221,6,0,P|48:108|42:233,1,195.999994018555,0|2,3:2|0:2,0:2:0:0:
327,222,275671,2,0,P|314:169|274:140,1,97.9999970092774,0|0,3:2|0:2,0:2:0:0:
165,182,275971,1,0,3:2:0:0:
355,297,276121,2,0,P|394:269|408:223,1,97.9999970092774,10|0,0:2|0:2,0:2:0:0:
288,65,276421,2,0,P|243:73|202:121,1,97.9999970092774,0|0,0:2|0:2,0:2:0:0:
408,223,276721,6,0,B|460:173|460:173|449:50,1,195.999994018555,4|2,3:2|0:2,0:2:0:0:
365,40,277171,2,0,L|376:138,1,97.9999970092774,0|0,3:2|0:2,0:2:0:0:
408,223,277471,1,0,3:2:0:0:
136,115,277621,1,10,0:2:0:0:
161,253,277771,1,2,0:2:0:0:
246,171,277921,2,0,B|280:214|280:214|293:266,1,97.9999970092774,2|0,0:2|0:2,0:2:0:0:
117,338,278221,2,0,B|127:296|127:296|162:253,1,97.9999970092774,0|2,3:2|0:2,0:2:0:0:
390,180,278521,6,0,B|409:265|409:265|367:370,1,195.999994018555,0|2,3:2|0:2,0:2:0:0:
313,113,278971,2,0,P|348:83|405:75,1,97.9999970092774,0|0,3:2|0:2,0:2:0:0:
468,131,279271,1,0,3:2:0:0:
292,259,279421,2,0,P|249:273|196:263,1,97.9999970092774,10|0,0:2|0:2,0:2:0:0:
150,66,279721,2,0,P|105:69|57:102,1,97.9999970092774,0|0,3:2|0:2,0:2:0:0:
59,200,280021,5,6,3:2:0:0:
90,215,280096,1,0,0:2:0:0:
124,220,280171,1,0,0:2:0:0:
158,214,280246,1,0,0:2:0:0:
194,203,280321,2,0,L|217:228,3,35,2|0|0|0,0:2|0:2|3:2|0:2,0:2:0:0:
216,120,280621,2,0,L|187:102,3,35,2|0|0|0,0:2|0:2|3:2|0:2,0:2:0:0:
280,170,280921,6,0,L|313:180,3,35,10|0|0|0,0:2|0:2|0:2|0:2,0:2:0:0:
324,80,281221,2,0,L|290:79,3,35,2|0|0|0,0:2|0:2|0:2|0:2,0:2:0:0:
396,128,281521,2,0,L|430:120,3,35,2|0|0|0,3:2|0:2|0:2|0:2,0:2:0:0:
440,8,281821,6,0,L|410:25,3,35,2|0|0|0,3:2|0:2|0:2|0:2,0:2:0:0:
496,64,282121,1,2,0:2:0:0:
510,106,282196,1,0,0:2:0:0:
502,149,282271,1,0,3:2:0:0:
475,184,282346,1,0,0:2:0:0:
440,206,282421,2,0,P|420:211|353:181,1,70,2|0,0:2|3:2,0:2:0:0:
232,12,282721,6,0,B|265:14|265:14|301:28|301:28|328:9|363:-1|406:9|429:42,1,210,10|0,0:2|0:2,0:2:0:0:
260,218,283321,5,6,3:1:0:0:
239,206,283396,1,0,0:2:0:0:
223,186,283471,1,0,0:2:0:0:
218,165,283546,1,0,0:2:0:0:
218,144,283621,2,0,L|224:89,1,35,2|0,0:2|0:2,0:2:0:0:
307,21,283771,1,0,0:0:0:0:
314,40,283846,1,0,0:0:0:0:
320,59,283921,2,0,L|314:114,3,35,2|0|0|0,0:2|0:2|3:2|0:2,0:2:0:0:
391,188,284221,6,0,L|387:222,1,35,10|0,0:2|0:2,0:2:0:0:
443,125,284371,1,2,0:0:0:0:
452,110,284446,1,0,0:0:0:0:
461,95,284521,2,0,L|457:60,3,35,2|0|0|0,0:2|0:2|0:2|0:2,0:2:0:0:
509,194,284821,2,0,L|512:228,3,35,2|0|0|0,3:2|0:2|0:2|0:2,0:2:0:0:
443,293,285121,5,6,3:1:0:0:
401,309,285196,1,0,0:2:0:0:
356,304,285271,1,0,0:2:0:0:
319,278,285346,1,0,0:2:0:0:
303,236,285421,2,0,L|288:175,1,48.9999985046387,2|0,0:2|0:2,0:2:0:0:
206,142,285571,1,0,0:0:0:0:
201,166,285646,1,0,0:0:0:0:
195,189,285721,2,0,L|183:235,3,48.9999985046387,2|0|0|0,0:2|0:2|3:2|0:2,0:2:0:0:
103,297,286021,6,0,L|91:248,3,48.9999985046387,10|0|0|0,0:2|0:2|0:2|0:2,0:2:0:0:
56,147,286321,2,0,L|120:123,1,48.9999985046387,2|0,0:0|0:0,0:0:0:0:
211,40,286471,1,0,0:0:0:0:
218,68,286546,1,0,0:0:0:0:
223,96,286621,2,0,L|199:160,3,48.9999985046387,2|0|0|0,0:0|0:0|0:0|0:0,0:0:0:0:
332,113,286921,6,0,B|364:109|386:65|386:65|430:161|377:226|309:257|240:222,1,363.999983337403,6|0,3:1|3:2,0:2:0:0:
61,295,287671,1,2,0:2:0:0:
18,119,287821,2,0,P|54:62|117:39,2,136.499993751526,10|0|0,0:2|0:2|0:2,0:2:0:0:
88,198,288421,2,0,P|118:232|160:250,1,90.9999958343508,2|0,3:2|0:2,0:2:0:0:
199,70,288721,6,0,P|156:44|98:41,1,90.9999958343508,0|2,3:2|0:2,0:2:0:0:
160,250,289021,2,0,B|180:296|180:296|223:325,1,90.9999958343508,2|0,0:2|3:2,0:2:0:0:
264,197,289321,1,2,0:2:0:0:
155,160,289471,1,2,3:2:0:0:
375,221,289621,2,0,B|365:171|365:171|328:134,1,90.9999958343508,10|0,0:2|0:2,0:2:0:0:
176,8,289921,2,0,B|142:30|142:30|122:76,1,90.9999958343508,2|0,3:2|0:2,0:2:0:0:
421,295,290221,6,0,B|453:257|453:257|460:209,2,97.9999970092774,4|0|2,3:2|0:2|0:2,0:2:0:0:
336,301,290671,2,0,P|353:347|391:377,1,97.9999970092774,0|0,3:2|0:2,0:2:0:0:
347,205,290971,1,0,3:2:0:0:
246,345,291121,1,10,0:2:0:0:
421,295,291271,1,2,0:2:0:0:
243,157,291421,2,0,P|190:177|162:231,1,97.9999970092774,2|0,3:2|0:2,0:2:0:0:
35,368,291721,2,0,P|82:354|114:317,1,97.9999970092774,0|2,3:2|0:2,0:2:0:0:
185,90,292021,6,0,B|238:129|238:129|253:259,1,195.999994018555,0|0,3:2|0:2,0:0:0:0:
211,350,292471,2,0,P|255:360|315:340,1,97.9999970092774,0|0,3:2|0:2,0:2:0:0:
364,173,292771,1,0,3:2:0:0:
122,35,292921,2,0,P|100:74|109:136,1,97.9999970092774,10|0,0:2|0:2,0:2:0:0:
252,258,293221,2,0,P|273:214|269:166,1,97.9999970092774,0|0,3:2|0:2,0:2:0:0:
405,15,293521,6,0,B|367:24|338:14|338:14|294:31|294:31|264:8|216:12,1,195.999994018555,4|2,3:2|0:2,0:2:0:0:
189,200,293971,2,0,P|183:148|211:102,1,97.9999970092774,0|0,3:2|0:2,0:2:0:0:
358,122,294271,1,2,3:2:0:0:
189,200,294421,2,0,P|224:241|351:160,1,195.999994018555,10|0,2:2|2:2,2:2:0:0:
267,167,294871,1,0,0:2:0:0:
115,145,295021,1,2,3:2:0:0:
151,284,295171,1,2,0:2:0:0:
136,36,295321,6,0,L|185:34,3,48.9999985046387,2|0|0|0,3:2|0:2|0:2|0:2,0:2:0:0:
254,70,295621,1,2,0:2:0:0:
287,86,295696,1,0,0:2:0:0:
314,109,295771,1,0,3:2:0:0:
335,140,295846,1,0,0:2:0:0:
350,173,295921,6,0,L|368:230,1,48.9999985046387,2|0,0:2|0:2,0:2:0:0:
277,234,296071,1,0,0:0:0:0:
270,262,296146,1,0,0:0:0:0:
261,290,296221,2,0,L|245:339,3,48.9999985046387,10|0|0|0,0:2|0:2|0:2|0:2,0:2:0:0:
181,222,296521,2,0,L|166:173,3,48.9999985046387,2|0|0|0,3:2|0:2|0:2|0:2,0:2:0:0:
129,82,296821,5,6,3:1:0:0:
101,85,296896,1,0,0:2:0:0:
75,97,296971,1,0,0:2:0:0:
54,114,297046,1,0,0:2:0:0:
38,137,297121,1,2,0:2:0:0:
29,164,297196,1,0,0:2:0:0:
27,192,297271,1,0,3:2:0:0:
33,219,297346,1,0,0:2:0:0:
44,245,297421,2,0,L|58:276,3,35,2|0|0|0,0:2|0:2|3:2|0:2,0:2:0:0:
115,347,297721,6,0,L|129:316,1,35,10|0,0:2|0:2,0:2:0:0:
177,232,297871,1,2,0:0:0:0:
201,235,297946,1,0,0:0:0:0:
225,239,298021,2,0,L|239:270,1,35,2|0,3:2|0:2,0:2:0:0:
260,359,298171,1,0,0:0:0:0:
284,356,298246,1,0,0:0:0:0:
308,352,298321,2,0,L|322:321,3,35,2|0|0|0,3:2|0:2|0:2|0:2,0:2:0:0:
345,249,298621,5,6,3:1:0:0:
367,238,298696,1,0,0:2:0:0:
386,223,298771,1,0,0:2:0:0:
401,204,298846,1,0,0:2:0:0:
412,182,298921,1,2,0:2:0:0:
418,158,298996,1,0,0:2:0:0:
418,134,299071,1,0,3:2:0:0:
412,110,299146,1,0,0:2:0:0:
397,91,299221,2,0,L|357:49,1,35,2|0,0:2|0:2,0:2:0:0:
251,37,299371,2,0,L|291:79,1,35,2|0,3:2|0:2,0:2:0:0:
295,149,299521,5,10,0:0:0:0:
286,171,299596,1,2,0:0:0:0:
269,189,299671,1,2,0:0:0:0:
246,198,299746,1,2,0:0:0:0:
221,198,299821,2,0,L|196:172,1,35,2|0,3:2|0:2,0:2:0:0:
52,24,299971,6,2,B|54:45|21:84|21:84|32:133|32:133|-31:260|30:294|30:294|26:252|56:215,1,357.000006809235,2|0,0:2|0:2,0:1:0:0:
364,162,302371,5,2,0:2:0:0:
364,162,302671,1,2,0:2:0:0:
364,162,303871,5,2,0:2:0:0:
364,162,304171,1,2,0:2:0:0:
364,162,305671,5,2,0:2:0:0:
364,162,305971,1,2,0:2:0:0:
364,162,307171,5,2,0:2:0:0:
364,162,307471,1,2,0:2:0:0:
364,162,308971,5,2,0:2:0:0:
364,162,309271,1,2,0:2:0:0:
363,162,310471,5,2,0:2:0:0:
363,162,310771,1,2,0:2:0:0:
364,162,312271,5,2,0:2:0:0:
364,162,312571,1,2,0:2:0:0:
