osu file format v14

[General]
AudioFilename: audio.mp3
AudioLeadIn: 0
PreviewTime: 27918
Countdown: 0
SampleSet: Soft
StackLeniency: 0.4
Mode: 0
LetterboxInBreaks: 0
WidescreenStoryboard: 0

[Editor]
Bookmarks: 62648,64898,65231,66564,67231,67898,70231,70564,71564,71731,71898,72064,72564,73231,75564,75898,77231,77898,80898,81231,82231,82398,82564,82731,83231,83918,94918,105251,114584,126584,128918
DistanceSpacing: 1.2
BeatDivisor: 4
GridSize: 4
TimelineZoom: 3.399999

[Metadata]
Title:EXEC_RIG=VEDA/.
TitleUnicode:EXEC_RIG=VEDA/.
Artist:Noriko Mitose
ArtistUnicode:みとせのりこ
Creator:Bariton
Version:Metafalica
Source:アルトネリコ ~世界の終わりで詩い続ける少女~
Tags:mir ar tonelico melody of elemia trynna
BeatmapID:1501909
BeatmapSetID:710523

[Difficulty]
HPDrainRate:7.2
CircleSize:4.1
OverallDifficulty:8
ApproachRate:9
SliderMultiplier:2.2
SliderTickRate:1

[Events]
//Background and Video events
0,0,"mir.png",0,0
//Break Periods
2,118584,125918
//Storyboard Layer 0 (Background)
//Storyboard Layer 1 (Fail)
//Storyboard Layer 2 (Pass)
//Storyboard Layer 3 (Foreground)
//Storyboard Sound Samples

[TimingPoints]
1372,665.926748057714,4,2,0,25,1,0
1372,-111.111111111111,4,2,0,25,0,0
11898,-100,4,2,0,45,0,0
11918,666.666666666667,4,2,0,45,1,0
17251,-66.6666666666667,4,2,0,45,0,1
17584,-83.3333333333333,4,2,0,45,0,0
26564,-76.9230769230769,4,2,0,45,0,0
27918,-66.6666666666667,4,2,0,45,0,1
38584,-66.6666666666667,4,2,0,45,0,0
41231,-117.647058823529,4,2,0,45,0,0
62564,-83.3333333333333,4,2,0,45,0,0
67231,-81.3008130081301,4,2,0,45,0,0
67564,-83.3333333333333,4,2,0,45,0,0
77912,-81.3008130081301,4,2,0,45,0,0
78245,-83.3333333333333,4,2,0,45,0,0
83251,-55.5555555555556,4,2,0,45,0,0
83898,-83.3333333333333,4,2,0,45,0,0
94584,-71.4285714285714,4,2,0,45,0,1
94751,-71.4285714285714,4,2,0,45,0,0
95251,-66.6666666666667,4,2,0,45,0,0
95918,-71.4285714285714,4,2,0,45,0,0
97918,-66.6666666666667,4,2,0,45,0,0
98584,-71.4285714285714,4,2,0,45,0,0
99918,-71.4285714285714,4,2,0,45,0,0
100584,-66.6666666666667,4,2,0,45,0,0
101251,-71.4285714285714,4,2,0,45,0,0
103251,-66.6666666666667,4,2,0,45,0,0
104584,-66.6666666666667,4,2,0,45,0,0
105251,-66.6666666666667,4,2,0,45,0,1
105584,-66.6666666666667,4,2,0,45,0,0
105918,-62.5,4,2,0,45,0,0
106584,-66.6666666666667,4,2,0,45,0,0
115918,-100,4,2,0,45,0,0
129251,-62.5,4,2,0,75,0,1
139584,-62.5,4,2,0,75,0,0
139918,-62.5,4,2,0,75,0,1
150251,-62.5,4,2,0,75,0,0
150584,-62.5,4,2,0,75,0,1
160918,-62.5,4,2,0,75,0,0
161251,-58.8235294117647,4,2,0,75,0,1
171584,-58.8235294117647,4,2,0,75,0,0
171918,-55.5555555555556,4,2,0,75,0,1
182251,-200,4,2,0,75,0,0
182584,-58.8235294117647,4,2,0,75,0,0

[Colours]
Combo1 : 163,123,168
Combo2 : 118,113,138

[HitObjects]
116,96,11918,6,0,L|176:96,1,55,0|0,0:0|0:0,0:0:0:0:
289,137,12251,2,0,P|263:144|236:140,1,55,0|0,0:0|0:0,0:0:0:0:
338,78,12584,2,0,P|364:71|392:76,1,55,0|0,0:0|0:0,0:0:0:0:
289,137,12918,2,0,L|289:197,1,55,0|0,0:0|0:0,0:0:0:0:
340,304,13251,6,0,L|340:248,1,55,0|0,0:0|0:0,0:0:0:0:
272,344,13584,2,0,P|245:350|218:346,1,55,0|0,0:0|0:0,0:0:0:0:
108,296,13918,2,0,P|134:289|161:293,1,55,0|0,0:0|0:0,0:0:0:0:
36,328,14251,2,0,P|29:301|33:274,1,55,0|0,0:0|0:0,0:0:0:0:
84,164,14584,6,0,L|84:224,1,55,0|0,0:0|0:0,0:0:0:0:
20,112,14918,2,0,L|20:52,1,55,0|0,0:0|0:0,0:0:0:0:
84,164,15251,2,0,P|111:171|138:167,1,55,0|0,0:0|0:0,0:0:0:0:
248,112,15584,2,0,P|221:105|194:109,1,55,0|0,0:0|0:0,0:0:0:0:
256,192,15918,12,0,17084,0:0:0:0:
111,107,17251,6,0,B|191:135|191:79|271:107,1,165.000006294251,0|0,0:0|0:0,0:0:0:0:
344,140,17751,1,0,0:0:0:0:
448,96,17918,2,0,P|456:52|444:12,1,65.9999979858399,0|0,0:0|0:0,0:0:0:0:
271,107,18251,2,0,P|263:151|275:191,1,65.9999979858399,0|0,0:0|0:0,0:0:0:0:
457,249,18584,6,0,P|392:224|324:260,1,131.99999597168,0|0,0:0|0:0,0:0:0:0:
184,216,19251,2,0,P|176:176|188:136,1,65.9999979858399,0|0,0:0|0:0,0:0:0:0:
252,48,19584,2,0,P|260:88|248:128,1,65.9999979858399,0|0,0:0|0:0,0:0:0:0:
124,97,19918,6,0,L|268:113,1,131.99999597168,0|0,0:0|0:0,0:0:0:0:
336,245,20584,2,0,P|324:316|253:351,1,131.99999597168,0|0,0:0|0:0,0:0:0:0:
256,272,21084,1,0,0:0:0:0:
176,172,21251,6,0,P|164:212|176:260,1,65.9999979858399,0|0,0:0|0:0,0:0:0:0:
248,127,21584,2,0,P|260:87|248:39,1,65.9999979858399,0|0,0:0|0:0,0:0:0:0:
116,116,21918,6,0,L|254:127,1,131.99999597168,0|0,0:0|0:0,0:0:0:0:
376,184,22584,6,0,B|416:140|392:84|392:84|410:33,1,131.99999597168,0|0,0:0|0:0,0:0:0:0:
476,84,23084,1,0,0:0:0:0:
376,184,23251,2,0,P|352:244|388:308,1,131.99999597168,0|0,0:0|0:0,0:0:0:0:
238,229,23918,6,0,P|298:264|370:221,1,131.99999597168,0|0,0:0|0:0,0:0:0:0:
400,180,24418,1,0,0:0:0:0:
296,128,24584,2,0,P|241:170|253:253,1,131.99999597168,0|0,0:0|0:0,0:0:0:0:
238,228,25251,6,0,B|262:280|262:280|252:320|208:324,1,131.99999597168,0|0,0:0|0:0,0:0:0:0:
192,128,25918,2,0,P|152:120|112:132,1,65.9999979858399,0|0,0:0|0:0,0:0:0:0:
20,188,26251,2,0,P|60:196|100:184,1,65.9999979858399,0|0,0:0|0:0,0:0:0:0:
201,57,26584,6,0,L|189:149,1,71.4999967269899,0|0,0:0|0:0,0:0:0:0:
93,262,26918,2,0,L|81:170,1,71.4999967269899,0|0,0:0|0:0,0:0:0:0:
192,128,27251,1,0,0:0:0:0:
224,256,27418,1,0,0:0:0:0:
83,177,27584,1,0,0:0:0:0:
432,340,27918,6,0,B|392:260|464:260|432:181,1,165.000006294251,0|0,0:0|0:0,0:0:0:0:
380,120,28417,1,0,0:0:0:0:
223,77,28584,2,0,L|311:73,1,82.5000031471254,0|0,0:0|0:0,0:0:0:0:
168,12,28918,1,0,0:0:0:0:
192,160,29084,1,0,0:0:0:0:
306,74,29251,6,0,L|280:240,1,165.000006294251,0|0,0:0|0:0,0:0:0:0:
264,316,29751,1,0,0:0:0:0:
192,160,29918,2,0,P|152:147|112:154,1,82.5000031471254,0|0,0:0|0:0,0:0:0:0:
280,237,30251,1,0,0:0:0:0:
306,74,30418,1,0,0:0:0:0:
276,260,30584,6,0,P|348:300|424:256,1,165.000006294251,0|0,0:0|0:0,0:0:0:0:
447,195,31084,1,0,0:0:0:0:
376,72,31251,2,0,P|368:108|384:156,1,82.5000031471254,0|0,0:0|0:0,0:0:0:0:
495,258,31584,2,0,P|481:223|441:192,1,82.5000031471254,0|0,0:0|0:0,0:0:0:0:
284,216,31918,5,0,0:0:0:0:
448,108,32084,1,0,0:0:0:0:
220,144,32251,2,0,L|340:124,1,82.5000031471254,0|0,0:0|0:0,0:0:0:0:
172,60,32584,5,0,0:0:0:0:
208,236,32751,1,0,0:0:0:0:
36,120,32918,1,0,0:0:0:0:
192,48,33084,1,0,0:0:0:0:
128,216,33251,6,0,P|140:288|220:320,1,165.000006294251,0|0,0:0|0:0,0:0:0:0:
280,272,33751,1,0,0:0:0:0:
424,308,33918,2,0,L|344:328,1,82.5000031471254,0|0,0:0|0:0,0:0:0:0:
456,156,34251,1,0,0:0:0:0:
372,232,34418,1,0,0:0:0:0:
332,84,34584,6,0,B|412:116|412:56|492:84,1,165.000006294251,0|0,0:0|0:0,0:0:0:0:
456,156,35084,1,0,0:0:0:0:
332,84,35251,2,0,P|320:44|328:4,1,82.5000031471254,0|0,0:0|0:0,0:0:0:0:
456,156,35584,2,0,P|468:196|460:236,1,82.5000031471254,0|0,0:0|0:0,0:0:0:0:
268,196,35918,6,0,B|146:170|146:170|191:151,1,165.000006294251,0|0,0:0|0:0,0:0:0:0:
252,116,36418,1,0,0:0:0:0:
344,236,36584,2,0,B|352:276|352:276|340:316,1,82.5000031471254,0|0,0:0|0:0,0:0:0:0:
160,336,36918,2,0,B|152:296|152:296|164:256,1,82.5000031471254,0|0,0:0|0:0,0:0:0:0:
252,116,37251,5,0,0:0:0:0:
416,176,37418,1,0,0:0:0:0:
252,216,37584,1,0,0:0:0:0:
348,36,37751,1,0,0:0:0:0:
436,184,37918,5,0,0:0:0:0:
252,116,38084,1,0,0:0:0:0:
436,72,38251,1,0,0:0:0:0:
396,256,38418,1,0,0:0:0:0:
440,52,38584,5,0,0:0:0:0:
348,36,39251,5,0,0:0:0:0:
280,92,39918,5,0,0:0:0:0:
336,164,40584,5,0,0:0:0:0:
279,231,41251,6,0,B|211:203|211:259|143:231,1,140.250002675057,0|0,0:0|0:0,0:0:0:0:
88,288,41918,2,0,P|116:224|84:168,1,140.250002675057,0|0,0:0|0:0,0:0:0:0:
136,108,42584,2,0,B|184:88|240:108|240:108|212:84,1,140.250002675057,0|0,0:0|0:0,0:0:0:0:
296,160,43251,2,0,P|360:188|420:160,1,140.250002675057,0|0,0:0|0:0,0:0:0:0:
464,92,43918,6,0,L|452:248,1,140.250002675057,0|0,0:0|0:0,0:0:0:0:
396,288,44584,2,0,P|332:308|268:272,1,140.250002675057,0|0,0:0|0:0,0:0:0:0:
204,316,45251,2,0,P|232:256|176:184,1,140.250002675057,0|0,0:0|0:0,0:0:0:0:
116,140,45918,1,0,0:0:0:0:
296,48,46584,6,0,B|364:72|363:21|432:48,1,140.250002675057,0|0,0:0|0:0,0:0:0:0:
396,120,47251,2,0,P|368:176|400:244,1,140.250002675057,0|0,0:0|0:0,0:0:0:0:
456,296,47918,2,0,L|316:296,1,140.250002675057,0|0,0:0|0:0,0:0:0:0:
212,256,48584,2,0,P|176:220|228:232,1,140.250002675057,0|0,0:0|0:0,0:0:0:0:
120,288,49251,6,0,P|100:216|136:156,1,140.250002675057,0|0,0:0|0:0,0:0:0:0:
188,108,49918,2,0,B|232:104|256:128|256:128|280:104|320:108,1,140.250002675057,0|0,0:0|0:0,0:0:0:0:
392,72,50584,2,0,P|376:124|420:84,1,140.250002675057,0|0,0:0|0:0,0:0:0:0:
316,28,51251,1,0,0:0:0:0:
468,192,51918,6,0,B|444:260|500:260|468:328,1,140.250002675057,0|0,0:0|0:0,0:0:0:0:
400,292,52584,2,0,P|384:232|404:152,1,140.250002675057,0|0,0:0|0:0,0:0:0:0:
448,92,53251,2,0,B|460:64|456:36|456:36|416:24|368:48,1,140.250002675057,0|0,0:0|0:0,0:0:0:0:
288,88,53918,2,0,P|228:112|156:76,1,140.250002675057,0|0,0:0|0:0,0:0:0:0:
112,16,54584,6,0,L|120:156,1,140.250002675057,0|0,0:0|0:0,0:0:0:0:
72,216,55251,2,0,P|48:280|84:344,1,140.250002675057,0|0,0:0|0:0,0:0:0:0:
128,276,55918,2,0,B|172:264|172:264|212:300|260:280,1,140.250002675057,0|0,0:0|0:0,0:0:0:0:
352,232,56584,1,0,0:0:0:0:
224,68,57251,6,0,L|232:236,1,140.250002675057,0|0,0:0|0:0,0:0:0:0:
292,256,57918,2,0,B|360:228|360:280|428:256,1,140.250002675057,0|0,0:0|0:0,0:0:0:0:
472,192,58584,2,0,P|488:132|440:68,1,140.250002675057,0|0,0:0|0:0,0:0:0:0:
356,28,59251,2,0,B|300:40|300:40|240:28|240:28|248:56,1,140.250002675057,0|0,0:0|0:0,0:0:0:0:
176,104,59918,6,0,P|112:132|48:100,1,140.250002675057,0|0,0:0|0:0,0:0:0:0:
112,152,60584,2,0,B|96:216|96:216|88:256|120:284,1,140.250002675057,0|0,0:0|0:0,0:0:0:0:
192,256,61251,2,0,P|244:256|192:276,1,140.250002675057,0|0,0:0|0:0,0:0:0:0:
260,164,61918,1,0,0:0:0:0:
260,164,62584,6,0,B|296:200|360:204|400:160|400:160|448:176,1,197.99999395752,0|0,0:0|0:0,0:0:0:0:
328,112,63251,2,0,P|312:64|428:72,1,197.99999395752,0|0,0:0|0:0,0:0:0:0:
328,112,63918,2,0,B|232:152|232:76|136:112,1,197.99999395752,0|0,0:0|0:0,0:0:0:0:
176,244,64584,1,0,0:0:0:0:
176,244,64918,2,0,P|188:212|184:180,1,65.9999979858399,0|0,0:0|0:0,0:0:0:0:
98,288,65251,6,0,P|146:328|258:280,1,197.99999395752,0|0,0:0|0:0,0:0:0:0:
332,344,65918,2,0,B|404:312|404:360|476:344|476:344|440:340|428:320,1,197.99999395752,0|0,0:0|0:0,0:0:0:0:
380,236,66584,2,0,L|380:100,1,131.99999597168,0|0,0:0|0:0,0:0:0:0:
380,104,67251,2,0,B|356:168|408:168|380:236,1,135.300002064514,0|0,0:0|0:0,0:0:0:0:
380,104,67918,6,0,P|288:136|224:68,1,197.99999395752,0|0,0:0|0:0,0:0:0:0:
184,168,68584,2,0,B|176:220|216:252|216:252|196:288|200:328|200:328|184:308,1,197.99999395752,0|0,0:0|0:0,0:0:0:0:
52,272,69251,2,0,B|56:312|92:348|156:344|184:308|184:308|216:348,1,197.99999395752,0|0,0:0|0:0,0:0:0:0:
280,304,69918,1,0,0:0:0:0:
348,348,70251,1,0,0:0:0:0:
412,296,70584,6,0,B|369:194|465:202|408:108,1,197.99999395752,0|0,0:0|0:0,0:0:0:0:
324,56,71251,2,0,P|264:84|204:60,1,131.99999597168,0|0,0:0|0:0,0:0:0:0:
196,52,71751,1,0,0:0:0:0:
256,180,71918,2,0,P|268:150|266:114,1,65.9999979858399,0|0,0:0|0:0,0:0:0:0:
92,252,72418,1,0,0:0:0:0:
172,312,72584,2,0,B|268:348|268:272|364:312,1,197.99999395752,0|0,0:0|0:0,0:0:0:0:
420,236,73251,6,0,P|396:280|500:296,1,197.99999395752,0|0,0:0|0:0,0:0:0:0:
420,236,73918,2,0,B|364:204|312:236|312:236|344:204|332:156,1,197.99999395752,0|0,0:0|0:0,0:0:0:0:
212,138,74584,2,0,P|216:223|314:235,1,197.99999395752,0|0,0:0|0:0,0:0:0:0:
272,80,75251,2,0,P|228:56|148:84,1,131.99999597168,0|0,0:0|0:0,0:0:0:0:
52,184,75918,6,0,B|37:216|52:248|52:248|16:288|40:352|92:352|112:336,1,197.99999395752,0|0,0:0|0:0,0:0:0:0:
180,284,76584,2,0,B|276:244|276:320|372:284,1,197.99999395752,0|0,0:0|0:0,0:0:0:0:
448,236,77251,2,0,L|460:100,1,131.99999597168,0|0,0:0|0:0,0:0:0:0:
459,104,77918,2,0,B|447:154|447:154|455:204|455:204|448:240,1,135.300002064514,0|0,0:0|0:0,0:0:0:0:
459,104,78584,6,0,P|376:76|320:160,1,197.99999395752,0|0,0:0|0:0,0:0:0:0:
322,250,79251,2,0,B|362:142|278:170|321:59,1,197.99999395752,0|0,0:0|0:0,0:0:0:0:
322,250,79918,2,0,P|248:300|164:244,1,197.99999395752,0|0,0:0|0:0,0:0:0:0:
111,143,80584,1,0,0:0:0:0:
168,88,80918,2,0,P|176:60|172:24,1,65.9999979858399,0|0,0:0|0:0,0:0:0:0:
111,143,81251,6,0,B|135:107|215:103|239:135|239:135|243:167|215:207,1,197.99999395752,0|0,0:0|0:0,0:0:0:0:
216,344,81918,2,0,P|168:308|172:236,1,131.99999597168,0|0,0:0|0:0,0:0:0:0:
227,188,82418,1,0,0:0:0:0:
312,236,82584,5,0,0:0:0:0:
420,176,82751,1,0,0:0:0:0:
476,232,82918,2,0,P|478:261|466:295,1,65.9999979858399,0|0,0:0|0:0,0:0:0:0:
340,152,83251,6,0,B|300:104|332:40|376:32|376:32|360:52|360:112,1,197.99999395752,0|0,0:0|0:0,0:0:0:0:
420,176,83751,1,0,0:0:0:0:
200,340,83918,5,0,0:0:0:0:
200,340,84918,5,0,0:0:0:0:
200,340,85251,1,0,0:0:0:0:
304,240,85918,5,0,0:0:0:0:
200,340,86584,5,0,0:0:0:0:
200,340,87584,5,0,0:0:0:0:
200,340,87917,1,0,0:0:0:0:
304,240,88584,5,0,0:0:0:0:
200,340,89251,5,0,0:0:0:0:
200,340,90251,5,0,0:0:0:0:
200,340,90584,1,0,0:0:0:0:
304,240,91251,5,0,0:0:0:0:
200,340,91918,5,0,0:0:0:0:
200,340,92918,5,0,0:0:0:0:
200,340,93251,1,0,0:0:0:0:
304,240,93918,5,0,0:0:0:0:
204,120,94584,6,0,P|184:80|188:40,1,76.9999976501466,0|0,0:0|0:0,0:0:0:0:
300,120,94918,2,0,P|320:80|316:40,1,76.9999976501466,0|0,0:0|0:0,0:0:0:0:
196,128,95251,6,0,P|168:93|163:53,1,82.5000031471254,0|0,0:0|0:0,0:0:0:0:
308,128,95584,2,0,P|335:93|340:53,1,82.5000031471254,0|0,0:0|0:0,0:0:0:0:
148,204,95918,5,0,0:0:0:0:
280,264,96084,1,0,0:0:0:0:
368,200,96251,1,0,0:0:0:0:
444,236,96418,1,0,0:0:0:0:
356,344,96584,5,0,0:0:0:0:
440,148,96750,1,0,0:0:0:0:
476,312,96917,1,0,0:0:0:0:
368,200,97084,1,0,0:0:0:0:
468,68,97251,6,0,P|423:65|386:83,1,76.9999976501466,0|0,0:0|0:0,0:0:0:0:
226,67,97584,2,0,P|270:64|307:82,1,76.9999976501466,0|0,0:0|0:0,0:0:0:0:
480,64,97918,6,0,P|440:43|398:46,1,82.5000031471254,0|0,0:0|0:0,0:0:0:0:
212,64,98251,2,0,P|252:43|293:46,1,82.5000031471254,0|0,0:0|0:0,0:0:0:0:
492,64,98584,5,0,0:0:0:0:
320,124,98751,1,0,0:0:0:0:
456,216,98918,1,0,0:0:0:0:
412,136,99084,1,0,0:0:0:0:
432,296,99251,6,0,P|464:300|504:284,1,76.9999976501466,0|0,0:0|0:0,0:0:0:0:
368,212,99584,1,0,0:0:0:0:
344,352,99751,1,0,0:0:0:0:
176,228,99918,6,0,B|148:240|120:236|120:236|144:248,1,76.9999976501466,0|0,0:0|0:0,0:0:0:0:
304,156,100251,2,0,B|332:168|360:164|360:164|336:176,1,76.9999976501466,0|0,0:0|0:0,0:0:0:0:
168,220,100584,6,0,B|138:225|111:216|111:216|132:232,1,82.5000031471254,0|0,0:0|0:0,0:0:0:0:
312,148,100918,2,0,B|341:153|368:144|368:144|347:160,1,82.5000031471254,0|0,0:0|0:0,0:0:0:0:
146,142,101251,6,0,P|138:102|150:66,1,76.9999976501466,0|0,0:0|0:0,0:0:0:0:
312,148,101584,1,0,0:0:0:0:
224,224,101751,1,0,0:0:0:0:
149,69,101918,6,0,P|178:40|214:30,1,76.9999976501466,0|0,0:0|0:0,0:0:0:0:
336,112,102251,2,0,P|294:112|262:93,1,76.9999976501466,0|0,0:0|0:0,0:0:0:0:
411,55,102584,6,0,P|425:93|420:133,1,76.9999976501466,0|0,0:0|0:0,0:0:0:0:
342,269,102917,2,0,P|344:228|365:193,1,76.9999976501466,0|0,0:0|0:0,0:0:0:0:
397,57,103251,6,0,P|416:92|420:133,1,82.5000031471254,0|0,0:0|0:0,0:0:0:0:
354,277,103584,2,0,P|349:236|362:197,1,82.5000031471254,0|0,0:0|0:0,0:0:0:0:
397,57,103918,5,0,0:0:0:0:
361,197,104085,1,0,0:0:0:0:
488,180,104252,1,0,0:0:0:0:
340,116,104418,1,0,0:0:0:0:
428,244,104585,5,0,0:0:0:0:
272,184,104752,1,0,0:0:0:0:
144,240,104918,1,0,0:0:0:0:
48,184,105085,1,0,0:0:0:0:
160,60,105251,6,0,L|152:152,1,82.5000031471254,0|0,0:0|0:0,0:0:0:0:
56,288,105584,2,0,L|48:196,1,82.5000031471254,0|0,0:0|0:0,0:0:0:0:
168,56,105918,6,0,L|160:148,1,88,0|0,0:0|0:0,0:0:0:0:
64,292,106251,2,0,L|56:200,1,88,0|0,0:0|0:0,0:0:0:0:
220,320,106584,5,0,0:0:0:0:
160,144,106751,1,0,0:0:0:0:
64,292,106918,1,0,0:0:0:0:
252,208,107084,1,0,0:0:0:0:
412,328,107251,6,0,P|372:344|324:336,1,82.5000031471254,0|0,0:0|0:0,0:0:0:0:
320,144,107584,2,0,P|360:128|408:136,1,82.5000031471254,0|0,0:0|0:0,0:0:0:0:
252,208,107918,5,0,0:0:0:0:
272,56,108084,1,0,0:0:0:0:
464,192,108251,1,0,0:0:0:0:
409,39,108417,1,0,0:0:0:0:
387,213,108584,6,0,L|401:112,1,82.5000031471254,0|0,0:0|0:0,0:0:0:0:
263,289,108918,2,0,L|249:188,1,82.5000031471254,0|0,0:0|0:0,0:0:0:0:
392,344,109251,5,0,0:0:0:0:
252,208,109418,1,0,0:0:0:0:
456,280,109584,1,0,0:0:0:0:
268,308,109751,1,0,0:0:0:0:
312,140,109918,6,0,P|320:96|308:60,1,82.5000031471254,0|0,0:0|0:0,0:0:0:0:
128,140,110251,2,0,P|120:96|132:60,1,82.5000031471254,0|0,0:0|0:0,0:0:0:0:
204,204,110584,5,0,0:0:0:0:
32,148,110751,1,0,0:0:0:0:
204,104,110918,1,0,0:0:0:0:
116,228,111084,1,0,0:0:0:0:
228,320,111251,6,0,P|272:332|312:320,1,82.5000031471254,0|0,0:0|0:0,0:0:0:0:
400,196,111584,2,0,P|360:218|340:255,1,82.5000031471254,0|0,0:0|0:0,0:0:0:0:
484,336,111918,5,0,0:0:0:0:
452,128,112084,1,0,0:0:0:0:
420,276,112251,1,0,0:0:0:0:
484,212,112418,1,0,0:0:0:0:
376,80,112584,6,0,L|292:72,1,82.5000031471254,0|0,0:0|0:0,0:0:0:0:
116,132,112918,2,0,L|200:124,1,82.5000031471254,0|0,0:0|0:0,0:0:0:0:
40,68,113251,5,0,0:0:0:0:
96,232,113418,1,0,0:0:0:0:
198,124,113584,1,0,0:0:0:0:
31,163,113751,1,0,0:0:0:0:
272,168,113918,6,0,P|284:128|276:88,1,82.5000031471254,0|0,0:0|0:0,0:0:0:0:
37,85,114251,2,0,P|24:124|32:164,1,82.5000031471254,0|0,0:0|0:0,0:0:0:0:
148,304,114584,5,0,0:0:0:0:
276,344,114751,1,0,0:0:0:0:
416,296,114918,1,0,0:0:0:0:
484,148,115084,1,0,0:0:0:0:
312,16,115251,5,0,0:0:0:0:
220,136,115418,1,0,0:0:0:0:
272,312,115584,1,0,0:0:0:0:
476,352,115751,1,0,0:0:0:0:
328,124,115918,5,0,0:0:0:0:
328,124,116251,1,0,0:0:0:0:
328,124,117084,1,0,0:0:0:0:
280,184,117251,1,0,0:0:0:0:
328,244,117418,1,0,0:0:0:0:
248,104,117584,5,0,0:0:0:0:
256,192,126584,12,0,128918,0:0:0:0:
100,192,129251,6,0,B|188:220|188:160|272:192,1,176,12|8,0:3|0:3,0:0:0:0:
360,248,129751,1,0,0:0:0:0:
456,112,129918,2,0,P|432:152|432:192,1,88,2|0,0:3|0:3,0:0:0:0:
392,52,130251,1,2,0:0:0:0:
456,272,130418,1,2,0:0:0:0:
298,96,130584,6,0,P|230:100|186:192,1,176,4|8,0:3|0:3,0:0:0:0:
236,284,131084,1,0,0:0:0:0:
353,160,131251,2,0,P|332:118|298:96,1,88,2|0,0:3|0:3,0:0:0:0:
98,190,131584,1,2,0:0:0:0:
270,176,131751,1,2,0:0:0:0:
117,44,131918,6,0,P|69:104|111:199,1,176,4|8,0:3|0:3,0:0:0:0:
188,248,132418,1,0,0:0:0:0:
312,106,132584,2,0,P|272:94|208:118,1,88,2|0,0:3|0:3,0:0:0:0:
336,260,132918,2,0,P|362:227|365:159,1,88,2|2,0:0|0:0,0:0:0:0:
228,104,133251,5,8,0:3:0:0:
336,260,133418,1,8,0:3:0:0:
396,108,133584,1,2,0:0:0:0:
270,176,133751,1,2,0:0:0:0:
472,188,133918,5,8,0:3:0:0:
436,24,134084,1,8,0:3:0:0:
360,184,134251,1,2,0:0:0:0:
480,104,134418,1,2,0:0:0:0:
276,56,134584,6,0,B|224:40|188:72|188:72|148:92|108:60,1,176,12|8,0:3|0:3,0:0:0:0:
44,132,135084,1,0,0:0:0:0:
244,212,135251,2,0,P|256:168|244:124,1,88,2|0,0:3|0:3,0:0:0:0:
111,62,135584,1,2,0:0:0:0:
160,256,135751,1,2,0:0:0:0:
364,148,135918,6,0,P|456:192|456:272,1,176,4|8,0:3|0:3,0:0:0:0:
368,244,136418,1,0,0:0:0:0:
456,72,136584,2,0,P|468:120|452:168,1,88,2|0,0:3|0:3,0:0:0:0:
292,284,136918,2,0,P|280:236|296:188,1,88,2|2,0:0|0:0,0:0:0:0:
180,36,137251,6,0,P|208:120|152:176,1,176,4|8,0:3|0:3,0:0:0:0:
88,112,137751,1,0,0:0:0:0:
28,256,137918,2,0,P|15:214|25:171,1,88,2|0,0:3|0:3,0:0:0:0:
176,264,138251,2,0,P|147:296|106:312,1,88,2|2,0:0|0:0,0:0:0:0:
88,112,138584,5,8,0:3:0:0:
176,264,138751,1,8,0:3:0:0:
248,132,138918,1,2,0:0:0:0:
152,175,139084,1,2,0:0:0:0:
340,196,139251,5,8,0:3:0:0:
256,32,139418,1,8,0:3:0:0:
152,175,139584,1,2,0:0:0:0:
248,132,139751,1,2,0:0:0:0:
100,96,139918,6,0,P|60:168|96:248,1,176,12|8,0:3|0:3,0:0:0:0:
172,288,140418,1,0,0:0:0:0:
328,240,140584,2,0,P|286:227|243:236,1,88,2|0,0:3|0:3,0:0:0:0:
414,326,140918,2,0,P|371:335|329:322,1,88,2|2,0:0|0:0,0:0:0:0:
421,180,141251,6,0,P|457:268|409:328,1,176,4|8,0:3|0:3,0:0:0:0:
329,322,141751,1,0,0:0:0:0:
421,180,141918,2,0,P|463:169|506:180,1,88,2|0,0:3|0:3,0:0:0:0:
316,80,142251,2,0,P|358:90|400:79,1,88,2|2,0:0|0:0,0:0:0:0:
240,156,142584,6,0,B|157:179|156:115|69:155,1,176,4|8,0:3|0:3,0:0:0:0:
120,232,143084,1,0,0:0:0:0:
240,156,143251,2,0,P|250:114|239:72,1,88,2|0,0:3|0:3,0:0:0:0:
120,232,143584,2,0,P|110:274|121:316,1,88,2|2,0:0|0:0,0:0:0:0:
344,256,143918,5,8,0:3:0:0:
192,272,144084,1,8,0:3:0:0:
328,340,144251,1,2,0:0:0:0:
264,176,144418,1,2,0:0:0:0:
336,360,144584,5,8,0:3:0:0:
192,272,144751,1,8,0:3:0:0:
348,172,144918,1,2,0:0:0:0:
220,96,145084,1,2,0:0:0:0:
344,256,145251,6,0,P|404:236|424:132,1,176,12|8,0:3|0:3,0:0:0:0:
367,67,145751,1,0,0:0:0:0:
272,211,145918,2,0,P|301:242|342:255,1,88,2|0,0:3|0:3,0:0:0:0:
449,48,146251,2,0,P|406:46|368:66,1,88,2|2,0:0|0:0,0:0:0:0:
272,211,146584,6,0,P|196:228|134:157,1,176,4|8,0:3|0:3,0:0:0:0:
217,144,147084,1,0,0:0:0:0:
60,208,147251,2,0,P|50:166|61:124,1,88,2|0,0:3|0:3,0:0:0:0:
210,59,147584,2,0,P|223:97|217:142,1,88,2|2,0:0|0:0,0:0:0:0:
20,284,147918,6,0,B|104:316|104:248|190:283,1,176,4|8,0:3|0:3,0:0:0:0:
264,340,148418,1,0,0:0:0:0:
396,280,148584,2,0,P|408:236|396:192,1,88,2|0,0:3|0:3,0:0:0:0:
260,168,148918,2,0,P|281:206|318:229,1,88,2|2,0:0|0:0,0:0:0:0:
424,124,149251,5,8,0:3:0:0:
340,152,149418,1,8,0:3:0:0:
480,180,149584,1,2,0:0:0:0:
444,48,149751,1,2,0:0:0:0:
492,196,149918,5,8,0:3:0:0:
364,68,150084,1,8,0:3:0:0:
504,100,150251,1,2,0:0:0:0:
324,160,150418,1,2,0:0:0:0:
172,88,150584,6,0,B|128:60|68:80|52:104|52:104|72:124|108:116,1,176,12|8,0:3|0:3,0:0:0:0:
188,100,151084,1,0,0:0:0:0:
100,204,151251,2,0,P|88:248|100:292,1,88,2|0,0:3|0:3,0:0:0:0:
236,312,151584,2,0,P|213:272|173:249,1,88,2|2,0:0|0:0,0:0:0:0:
352,232,151918,6,0,B|340:216|340:216|428:224|428:224|472:256|524:224,1,176,4|8,0:3|0:3,0:0:0:0:
476,160,152418,1,0,0:0:0:0:
416,28,152584,2,0,P|400:72|408:112,1,88,2|0,0:3|0:3,0:0:0:0:
319,239,152918,2,0,P|335:195|327:155,1,88,2|2,0:0|0:0,0:0:0:0:
173,222,153251,6,0,P|249:272|329:224,1,176,4|8,0:3|0:3,0:0:0:0:
327,155,153751,1,0,0:0:0:0:
183,138,153918,2,0,P|167:198|179:234,1,88,2|0,0:3|0:3,0:0:0:0:
327,155,154251,2,0,P|343:95|331:59,1,88,2|2,0:0|0:0,0:0:0:0:
88,124,154584,5,8,0:3:0:0:
260,104,154751,1,8,0:3:0:0:
160,36,154918,1,2,0:0:0:0:
252,192,155084,1,2,0:0:0:0:
248,20,155251,5,8,0:3:0:0:
92,204,155418,1,8,0:3:0:0:
260,104,155584,1,2,0:0:0:0:
72,36,155751,1,2,0:0:0:0:
252,192,155918,6,0,P|296:264|248:336,1,176,12|8,0:3|0:3,0:0:0:0:
184,268,156418,1,0,0:0:0:0:
351,167,156584,2,0,L|447:179,1,88,2|0,0:3|0:3,0:0:0:0:
336,56,156918,2,0,L|240:68,1,88,2|2,0:0|0:0,0:0:0:0:
244,209,157251,6,0,P|290:137|241:63,1,176,4|8,0:3|0:3,0:0:0:0:
163,63,157751,1,0,0:0:0:0:
244,208,157918,2,0,P|296:220|344:200,1,88,2|0,0:3|0:3,0:0:0:0:
248,66,158251,2,0,P|196:54|148:74,1,88,2|2,0:0|0:0,0:0:0:0:
328,210,158584,6,0,B|388:176|448:220|448:220|420:212|396:220,1,176,4|8,0:3|0:3,0:0:0:0:
284,288,159084,1,0,0:0:0:0:
448,220,159251,2,0,P|460:168|440:120,1,88,2|0,0:3|0:3,0:0:0:0:
327,31,159584,2,0,P|315:83|335:131,1,88,2|2,0:0|0:0,0:0:0:0:
448,220,159918,5,8,0:3:0:0:
324,115,160084,1,8,0:3:0:0:
380,312,160251,1,2,0:0:0:0:
456,112,160418,1,2,0:0:0:0:
244,156,160584,5,8,0:3:0:0:
448,220,160751,1,8,0:3:0:0:
324,115,160918,1,2,0:0:0:0:
268,304,161084,1,2,0:0:0:0:
324,115,161251,6,0,P|256:68|164:108,1,187.000003566742,12|8,0:3|0:3,0:0:0:0:
320,212,161751,1,0,0:0:0:0:
444,96,161918,2,0,P|456:52|440:0,1,93.500001783371,2|0,0:3|0:3,0:0:0:0:
320,212,162251,2,0,P|308:256|324:308,1,93.500001783371,2|2,0:0|0:0,0:0:0:0:
376,356,162501,1,0,0:0:0:0:
376,356,162584,6,0,B|328:352|328:352|298:338|298:338|264:352|220:336|220:336|252:308,1,187.000003566742,4|8,0:3|0:3,0:0:0:0:
332,220,163084,1,0,0:0:0:0:
240,62,163251,2,0,B|256:157,1,93.500001783371,2|0,0:3|0:3,0:0:0:0:
414,280,163584,2,0,B|430:185,1,93.500001783371,2|2,0:0|0:0,0:0:0:0:
432,172,163834,1,0,0:0:0:0:
435,159,163918,6,0,B|347:199|347:115|255:155,1,187.000003566742,4|8,0:3|0:3,0:0:0:0:
156,216,164418,1,0,0:0:0:0:
348,158,164584,2,0,P|360:114|348:66,1,93.500001783371,2|0,0:3|0:3,0:0:0:0:
240,240,164918,2,0,P|228:284|240:332,1,93.500001783371,2|2,0:0|0:0,0:0:0:0:
436,212,165251,5,8,0:3:0:0:
240,88,165418,1,8,0:3:0:0:
332,244,165584,1,2,0:0:0:0:
436,48,165751,1,2,0:0:0:0:
456,224,165918,5,8,0:3:0:0:
221,75,166085,1,8,0:3:0:0:
331,262,166251,1,2,0:0:0:0:
456,27,166418,1,2,0:0:0:0:
268,160,166584,6,0,B|180:204|180:124|88:160,1,187.000003566742,12|8,0:3|0:3,0:0:0:0:
204,264,167084,1,0,0:0:0:0:
348,132,167251,2,0,P|336:208|316:228,1,93.500001783371,2|0,0:3|0:3,0:0:0:0:
204,36,167584,2,0,P|184:77|189:123,1,93.500001783371,2|2,0:0|0:0,0:0:0:0:
242,190,167834,1,0,0:0:0:0:
242,190,167918,6,0,P|326:218|404:160,1,187.000003566742,4|8,0:3|0:3,0:0:0:0:
344,52,168418,1,0,0:0:0:0:
328,218,168584,2,0,L|320:318,1,93.500001783371,2|0,0:3|0:3,0:0:0:0:
488,188,168918,2,0,L|480:88,1,93.500001783371,2|2,0:0|0:0,0:0:0:0:
408,128,169168,1,0,0:0:0:0:
400,132,169251,6,0,B|312:172|312:88|220:127,1,187.000003566742,4|8,0:3|0:3,0:0:0:0:
116,172,169751,1,0,0:0:0:0:
260,284,169918,2,0,P|272:240|260:192,1,93.500001783371,2|0,0:3|0:3,0:0:0:0:
117,82,170251,2,0,P|105:126|117:174,1,93.500001783371,2|2,0:0|0:0,0:0:0:0:
364,248,170584,5,8,0:3:0:0:
184,232,170751,1,8,0:3:0:0:
48,340,170918,1,2,0:0:0:0:
192,252,171084,1,2,0:0:0:0:
368,272,171251,5,8,0:3:0:0:
200,268,171418,1,8,0:3:0:0:
56,356,171584,1,2,0:0:0:0:
208,288,171751,1,2,0:0:0:0:
396,356,171918,6,0,P|440:320|404:192,1,197.99999395752,12|8,0:3|0:3,0:0:0:0:
260,208,172418,1,0,0:0:0:0:
412,196,172584,2,0,L|420:96,1,98.9999969787599,2|0,0:3|0:3,0:0:0:0:
244,32,172918,1,2,0:0:0:0:
260,208,173084,1,2,0:0:0:0:
260,208,173168,1,0,0:0:0:0:
260,208,173251,6,0,P|172:240|104:172,1,197.99999395752,4|8,0:3|0:3,0:0:0:0:
168,104,173751,1,0,0:0:0:0:
80,292,173918,1,2,0:3:0:0:
44,112,174084,1,0,0:3:0:0:
200,280,174251,1,2,0:0:0:0:
184,84,174418,2,0,L|188:148,1,49.4999984893799,2|0,0:0|0:0,0:0:0:0:
184,304,174584,6,0,P|276:340|344:280,1,197.99999395752,4|8,0:3|0:3,0:0:0:0:
276,148,175084,1,0,0:0:0:0:
184,304,175251,1,2,0:3:0:0:
380,196,175418,1,0,0:3:0:0:
212,96,175584,2,0,L|92:112,1,98.9999969787599,2|2,0:0|0:0,0:0:0:0:
276,148,175834,1,0,0:0:0:0:
276,148,175918,5,8,0:3:0:0:
240,20,176084,1,8,0:3:0:0:
200,244,176251,1,2,0:0:0:0:
324,64,176418,1,2,0:0:0:0:
308,288,176584,5,8,0:3:0:0:
276,148,176751,1,8,0:3:0:0:
228,352,176918,1,2,0:0:0:0:
368,212,177084,1,2,0:0:0:0:
368,212,177168,1,0,0:0:0:0:
368,212,177251,6,0,B|384:52|384:52|368:8,1,197.99999395752,12|8,0:3|0:3,0:0:0:0:
192,104,177751,1,0,0:0:0:0:
372,16,177918,1,2,0:3:0:0:
136,32,178084,1,0,0:3:0:0:
304,68,178251,2,0,L|292:180,1,98.9999969787599,2|2,0:0|0:0,0:0:0:0:
280,244,178501,1,0,0:0:0:0:
280,256,178584,6,0,B|244:240|244:240|208:256|208:256|176:228|128:224|96:260,1,197.99999395752,4|8,0:3|0:3,0:0:0:0:
244,332,179084,1,0,0:0:0:0:
384,216,179251,2,0,B|384:204|384:204|396:176|396:176|392:152|392:152|400:136|400:136|400:112,1,98.9999969787599,2|0,0:3|0:3,0:0:0:0:
188,56,179584,2,0,B|196:76|196:76|196:100|196:100|212:136|212:136|200:168,1,98.9999969787599,2|2,0:0|0:0,0:0:0:0:
408,48,179918,5,4,0:3:0:0:
204,232,180084,1,8,0:3:0:0:
472,184,180251,1,4,0:3:0:0:
472,184,180584,5,2,0:3:0:0:
268,56,180751,1,8,0:3:0:0:
268,56,181084,1,8,0:3:0:0:
312,284,181251,5,8,0:3:0:0:
184,32,181418,1,8,0:3:0:0:
192,324,181584,5,2,0:0:0:0:
268,56,181751,1,2,0:0:0:0:
324,304,181918,5,8,0:3:0:0:
176,16,182085,1,8,0:3:0:0:
189,330,182251,6,0,L|193:318,8,6.875,2|0|0|0|0|0|0|0|0,0:0|0:0|0:0|0:0|0:0|0:0|0:0|0:0|0:0,0:0:0:0:
