osu file format v14

[General]
AudioFilename: audio.mp3
AudioLeadIn: 0
PreviewTime: 71104
Countdown: 0
SampleSet: Soft
StackLeniency: 0.7
Mode: 2
LetterboxInBreaks: 0
WidescreenStoryboard: 1

[Editor]
Bookmarks: 14955,21127,27984,38955,49927,60898,70584,71870,83527,96555,107527,118498,131870,142841,153812,164784,175755,200441,212527,222384,249812,271755,293698,314441,337927,349927,360898,371870,391070,415755,443184
DistanceSpacing: 1.6
BeatDivisor: 8
GridSize: 4
TimelineZoom: 3.8

[Metadata]
Title:Duel Alternatives
TitleUnicode:Duel Alternatives
Artist:Noriko Mitose
ArtistUnicode:みとせのりこ
Creator:Benny-
Version:Verethragna
Source:ウルスラグナ〜征戦のデュエリスト〜
Tags:c89 electro.muster El Dorado Verethragna ~Seisen no Duelist~ visual novel taishi cosmic record electro muster sinker electro.sinker dnb drum and bass drumstep Benny BennyBananas
BeatmapID:1128661
BeatmapSetID:532668

[Difficulty]
HPDrainRate:6
CircleSize:4
OverallDifficulty:9.5
ApproachRate:9.5
SliderMultiplier:1.8
SliderTickRate:2

[Events]
//Background and Video events
0,0,"DepthStar.jpg",0,0
//Break Periods
2,119870,128951
2,228075,232835
//Storyboard Layer 0 (Background)
//Storyboard Layer 1 (Fail)
//Storyboard Layer 2 (Pass)
//Storyboard Layer 3 (Foreground)
//Storyboard Sound Samples

[TimingPoints]
4676,342.857142857143,4,2,1,50,1,0
14961,-100,4,2,1,70,0,0
26790,-100,4,2,1,50,0,0
27990,-100,4,2,1,50,0,0
38961,-90.9090909090909,4,2,1,70,0,0
60904,-90.9090909090909,4,2,1,80,0,0
71876,-100,4,2,1,100,0,1
81476,-100,4,2,1,100,0,0
82847,-100,4,2,1,100,0,1
93818,-100,4,2,1,60,0,0
96561,-100,4,2,1,50,0,0
107875,-100,3,2,1,50,0,0
108904,-200,3,2,1,50,0,0
113018,-100,3,2,1,50,0,0
118504,-100,4,2,1,40,0,0
131875,342.857142857143,4,2,1,40,1,0
142847,-100,4,2,1,50,0,0
153817,-90.9090909090909,4,2,1,70,0,0
164790,-90.9090909090909,4,2,1,80,0,0
175760,-100,4,2,1,100,0,1
185360,-100,4,2,1,100,0,0
186732,-100,4,2,1,100,0,1
197703,-100,4,2,1,50,0,0
200446,-100,4,2,1,60,0,0
224789,-100,4,2,1,55,0,0
225132,-100,4,2,1,50,0,0
225475,-100,4,2,1,45,0,0
225817,-100,4,2,1,40,0,0
226160,-100,4,2,1,35,0,0
226503,-100,4,2,1,30,0,0
226846,-100,4,2,1,25,0,0
227189,-100,4,2,1,20,0,0
227532,-100,4,2,1,15,0,0
227875,-100,4,2,1,10,0,0
233360,-133.333333333333,4,2,1,60,0,0
241933,-100,4,2,1,20,0,0
242618,-100,4,2,1,30,0,0
243304,-100,4,2,1,40,0,0
243990,-100,4,2,1,50,0,0
245533,-100,4,2,1,5,0,0
245703,-200,4,2,1,50,0,0
249818,-100,4,2,1,50,0,0
271761,-100,4,2,1,60,0,0
293703,-90.9090909090909,4,2,1,70,0,0
312903,-71.4285714285714,4,2,1,50,0,0
314446,-100,4,2,1,100,0,1
316332,-100,4,2,1,100,0,0
317017,-100,4,2,1,100,0,1
317703,-100,4,2,1,100,0,0
318389,-83.3333333333333,4,2,1,100,0,1
326617,-83.3333333333333,4,2,1,100,0,0
327989,-83.3333333333333,4,2,1,100,0,1
330732,-83.3333333333333,4,2,1,100,0,0
331075,-83.3333333333333,4,2,1,100,0,1
334846,-83.3333333333333,4,2,1,100,0,0
336217,-83.3333333333333,4,2,1,100,0,1
337932,-100,4,2,1,60,0,0
340332,-66.6666666666667,4,2,1,60,0,0
341017,-100,4,2,1,60,0,0
345132,-50,4,2,1,60,0,0
345475,-100,4,2,1,60,0,0
349932,-90.9090909090909,4,2,1,70,0,0
360218,-133.333333333333,4,2,1,30,0,0
371875,-117.647058823529,4,2,1,30,0,0
380103,-200,4,2,1,20,0,0
387303,-200,4,2,1,30,0,0
387646,-200,4,2,1,35,0,0
387989,-200,4,2,1,40,0,0
388332,-200,4,2,1,45,0,0
388675,-200,4,2,1,50,0,0
389017,-200,4,2,1,55,0,0
389360,-200,4,2,1,60,0,0
389703,-200,4,2,1,65,0,0
390046,-200,4,2,1,5,0,0
390389,-100,4,2,1,60,0,0
391075,-100,4,2,1,100,0,1
400675,-100,4,2,1,100,0,0
402046,-83.3333333333333,4,2,1,100,0,1
415760,-100,4,2,1,40,0,0
421589,-83.3333333333333,4,2,1,70,0,1
421932,-83.3333333333333,4,2,1,70,0,0
422617,-83.3333333333333,4,2,1,70,0,1
430846,-83.3333333333333,4,2,1,70,0,0
431360,-133.333333333333,4,2,1,70,0,0
432217,-100,4,2,1,40,0,0
434275,-100,4,2,1,70,0,1
437703,-133.333333333333,4,2,1,70,0,0
439075,-100,4,2,1,70,0,1
443189,-100,4,2,1,50,0,0
465475,-100,4,2,1,40,0,0
466160,-100,4,2,1,30,0,0
466846,-100,4,2,1,20,0,0
467532,-100,4,2,1,10,0,0
468217,-100,4,2,1,5,0,0

[Colours]
Combo1 : 89,0,179
Combo2 : 255,128,0
Combo3 : 0,221,221
Combo4 : 242,208,13

[HitObjects]
164,92,4676,6,0,P|76:126|124:206,1,180,6|0,0:2|0:0,0:0:0:0:
240,192,5190,2,0,P|336:144|304:80,1,180
176,192,5704,2,0,B|112:144|112:144|190:92|190:92|208:80,1,180
52,92,6218,2,0,L|164:92,1,90
288,144,6561,2,0,B|208:189|112:144,1,180
260,160,7076,2,0,L|356:160,1,90
32,96,7418,6,0,P|32:160|128:192,1,135,2|0,0:0|0:0,0:0:0:0:
144,192,7761,1,0,0:0:0:0:
288,192,7933,2,0,P|352:160|336:80,1,135,0|0,0:0|0:0,0:0:0:0:
320,64,8276,1,0,0:0:0:0:
168,188,8447,1,0,0:0:0:0:
120,172,8533,1,0,0:0:0:0:
104,124,8618,1,0,0:0:0:0:
120,76,8704,1,0,0:0:0:0:
168,60,8790,5,0,0:0:0:0:
312,64,8961,2,0,L|197:48,1,90
456,48,9304,2,0,P|488:80|440:192,1,180,0|0,0:0|0:0,0:0:0:0:
368,208,9733,1,0,0:0:0:0:
160,208,9818,1,8,0:0:0:0:
244,160,9990,2,0,L|196:144,1,45
32,176,10161,6,0,L|27:77,1,90,6|0,0:2|0:0,0:0:0:0:
24,44,10418,1,0,0:0:0:0:
96,96,10504,2,0,L|102:146,1,45
28,86,10676,2,0,L|32:176,1,90
192,224,11018,2,0,L|197:179,1,45
272,192,11190,2,0,L|267:248,1,45
192,224,11361,1,0,0:0:0:0:
336,240,11533,6,0,L|247:237,2,90
480,240,12047,2,0,P|488:192|376:96,1,180
360,88,12476,1,0,0:0:0:0:
296,80,12561,1,0,0:0:0:0:
440,48,12733,1,0,0:0:0:0:
128,203,12904,6,0,P|80:160|128:112,1,135,2|0,0:0|0:0,0:0:0:0:
176,96,13247,1,0,0:0:0:0:
320,96,13418,2,0,P|375:148|325:195,1,135,0|0,0:0|0:0,0:0:0:0:
304,224,13761,1,0,0:0:0:0:
160,224,13933,2,0,L|115:219,1,45
160,192,14104,2,0,L|205:187,1,45,0|0,0:0|0:0,0:0:0:0:
160,160,14276,5,0,0:0:0:0:
288,144,14447,1,0,0:0:0:0:
464,144,14618,2,0,P|456:104|376:64,1,135
192,68,14961,6,0,L|304:68,1,90
24,216,15304,2,0,P|54:158|119:146,1,135
368,256,15647,6,0,L|448:304,1,90,6|0,0:2|0:0,0:0:0:0:
400,304,15904,1,0,0:0:0:0:
192,208,15990,2,0,P|176:256|192:304,1,90,8|0,0:0|0:0,0:0:0:0:
304,288,16333,2,0,L|336:256,1,45,2|0,0:0|0:0,0:0:0:0:
256,240,16504,2,0,L|208:288,1,45
400,192,16676,2,0,L|272:192,1,90,8|0,0:0|0:0,0:0:0:0:
64,176,17018,5,2,0:0:0:0:
48,128,17104,1,0,0:0:0:0:
80,96,17190,1,0,0:0:0:0:
144,80,17276,1,0,0:0:0:0:
368,192,17361,2,0,L|488:192,1,90,8|0,0:0|0:0,0:0:0:0:
224,96,17704,6,0,L|176:96,1,45,2|0,0:0|0:0,0:0:0:0:
256,64,17876,2,0,L|320:64,1,45,2|0,0:0|0:0,0:0:0:0:
48,192,18047,2,0,L|32:80,1,90,8|0,0:0|0:0,0:0:0:0:
320,112,18390,6,0,L|333:171,1,45,2|0,0:0|0:0,0:0:0:0:
248,184,18561,2,0,L|264:248,1,45
104,304,18733,2,0,L|16:272,1,90,8|0,0:0|0:0,0:0:0:0:
259,227,19076,6,0,L|307:211,1,45,2|0,0:0|0:0,0:0:0:0:
387,195,19247,2,0,L|435:163,1,45,2|0,0:0|0:0,0:0:0:0:
259,227,19418,2,0,L|155:227,1,90,8|0,0:0|0:0,0:0:0:0:
400,160,19761,6,0,L|464:165,1,45,2|0,0:0|0:0,0:0:0:0:
368,128,19933,2,0,L|301:131,1,45,0|0,0:0|0:0,0:0:0:0:
96,224,20104,2,0,L|16:176,1,90,8|0,0:0|0:0,0:0:0:0:
256,96,20447,2,0,L|304:85,1,45
112,80,20618,1,6,0:0:0:0:
256,80,20790,2,0,B|277:134|239:203,1,90,8|0,0:0|0:0,0:0:0:0:
208,176,21047,1,0,0:0:0:0:
48,176,21133,5,6,0:2:0:0:
192,284,21304,1,0,0:0:0:0:
147,256,21390,1,0,0:0:0:0:
102,224,21476,1,8,0:0:0:0:
448,208,21647,2,0,L|336:204,2,90,6|0|0,0:0|0:0|0:0,0:0:0:0:
200,244,22161,1,6,0:0:0:0:
344,176,22333,2,0,L|392:176,1,45
344,176,22504,5,8,0:0:0:0:
80,164,22676,2,0,L|174:167,2,90,6|0|0,0:0|0:0|0:0,0:0:0:0:
328,224,23190,2,0,L|432:224,1,90,8|0,0:0|0:0,0:0:0:0:
464,224,23447,1,0,0:0:0:0:
244,224,23533,2,0,L|140:228,1,90,6|0,0:0|0:0,0:0:0:0:
272,192,23876,6,0,L|368:192,1,90,2|0,0:2|0:0,0:0:0:0:
320,160,24133,1,0,0:0:0:0:
112,176,24218,2,0,L|224:128,1,90,8|0,0:0|0:0,0:0:0:0:
320,112,24561,2,0,L|385:109,1,45,0|0,0:0|0:0,0:0:0:0:
144,64,24733,1,2,0:0:0:0:
272,64,24904,2,0,L|368:80,1,90,8|0,0:0|0:0,0:0:0:0:
412,128,25161,1,0,0:0:0:0:
192,128,25247,6,0,L|90:122,1,90,6|0,0:2|0:0,0:0:0:0:
368,128,25590,2,0,L|424:152,2,45,8|0|0,0:0|0:0|0:0,0:0:0:0:
136,192,25933,1,2,0:0:0:0:
64,152,26104,2,0,L|121:137,1,45
288,104,26276,1,8,0:0:0:0:
336,72,26361,1,0,0:0:0:0:
288,72,26447,1,0,0:0:0:0:
240,72,26533,1,0,0:0:0:0:
464,72,26618,1,2,0:0:0:0:
256,192,26790,8,6,27990,0:0:0:0:
352,256,28333,6,0,P|416:224|368:112,1,180,0|0,0:0|0:0,0:0:0:0:
336,80,28847,1,0,0:0:0:0:
240,64,29018,1,0,0:0:0:0:
144,96,29190,1,0,0:0:0:0:
80,208,29361,1,0,0:0:0:0:
144,304,29533,1,0,0:0:0:0:
320,192,29704,6,0,P|416:240|416:320,2,180,0|0|0,0:0|0:0|0:0,0:0:0:0:
440,188,30561,1,0,0:0:0:0:
179,175,30733,6,0,P|121:289|224:336,1,270,2|0,0:0|0:0,0:0:0:0:
304,320,31418,1,0,0:0:0:0:
384,256,31590,1,0,0:0:0:0:
432,160,31761,1,0,0:0:0:0:
400,64,31933,1,0,0:0:0:0:
224,64,32104,5,0,0:0:0:0:
144,96,32276,1,0,0:0:0:0:
96,176,32447,1,0,0:0:0:0:
128,272,32618,1,0,0:0:0:0:
224,336,32790,1,0,0:0:0:0:
352,320,32961,1,0,0:0:0:0:
32,288,33133,2,0,L|108:236,1,90,8|0,0:0|0:0,0:0:0:0:
160,232,33390,1,0,0:0:0:0:
360,214,33476,6,0,L|422:135,1,90,4|0,0:0|0:0,0:0:0:0:
230,154,33818,2,0,P|166:138|142:14,2,180
332,200,34676,1,0,0:0:0:0:
296,296,34847,5,0,0:0:0:0:
112,252,35018,2,0,L|0:204,2,90
292,260,35533,2,0,L|404:260,1,90
200,216,35876,2,0,L|148:120,1,90
480,208,36218,6,0,P|496:160|352:0,1,270,2|0,0:0|0:0,0:0:0:0:
256,48,36904,1,0,0:0:0:0:
160,128,37076,1,0,0:0:0:0:
336,128,37247,2,0,P|384:176|316:280,1,180
160,288,37761,2,0,L|52:288,2,90
344,232,38276,2,0,L|336:128,1,90
48,128,38618,2,0,L|128:48,1,90,8|0,0:0|0:0,0:0:0:0:
160,64,38876,1,0,0:0:0:0:
304,192,38961,6,0,L|432:192,1,99.0000030212403,6|0,0:0|0:0,0:0:0:0:
352,160,39218,1,0,0:0:0:0:
208,160,39304,2,0,L|80:160,1,99.0000030212403,8|0,0:0|0:0,0:0:0:0:
208,112,39647,2,0,L|272:96,1,49.5000015106202
176,96,39818,2,0,L|112:80,1,49.5000015106202,2|0,0:0|0:0,0:0:0:0:
320,64,39990,2,0,L|432:80,1,99.0000030212403,8|0,0:0|0:0,0:0:0:0:
176,224,40333,5,2,0:0:0:0:
152,192,40418,1,0,0:0:0:0:
176,160,40504,1,0,0:0:0:0:
232,128,40590,1,0,0:0:0:0:
400,128,40676,2,0,L|488:40,1,99.0000030212403,8|0,0:0|0:0,0:0:0:0:
168,64,41018,6,0,L|272:64,1,99.0000030212403,0|2,0:0|0:0,0:0:0:0:
224,120,41276,1,0,0:0:0:0:
48,120,41361,2,0,L|176:120,1,99.0000030212403,8|0,0:0|0:0,0:0:0:0:
400,128,41704,6,0,L|488:48,1,99.0000030212403,2|0,0:0|0:0,0:0:0:0:
432,72,41961,1,0,0:0:0:0:
272,96,42047,1,8,0:0:0:0:
152,72,42218,2,0,L|251:72,1,99.0000030212403
304,96,42476,1,0,0:0:0:0:
344,136,42561,1,2,0:0:0:0:
328,184,42647,1,0,0:0:0:0:
160,184,42733,2,0,L|61:184,1,99.0000030212403,8|0,0:0|0:0,0:0:0:0:
328,184,43076,5,2,0:0:0:0:
304,144,43161,1,0,0:0:0:0:
264,112,43247,1,0,0:0:0:0:
208,96,43333,1,0,0:0:0:0:
48,96,43418,2,0,L|96:8,1,99.0000030212403,8|0,0:0|0:0,0:0:0:0:
360,160,43761,5,0,0:0:0:0:
416,120,43847,1,0,0:0:0:0:
432,64,43933,1,2,0:0:0:0:
400,8,44018,1,0,0:0:0:0:
208,8,44104,2,0,L|104:8,1,99.0000030212403,8|0,0:0|0:0,0:0:0:0:
464,168,44447,6,0,L|352:168,1,99.0000030212403,6|0,0:0|0:0,0:0:0:0:
320,136,44704,1,0,0:0:0:0:
496,136,44790,1,8,0:0:0:0:
268,88,44961,2,0,P|200:144|268:200,1,198.000006042481,6|6,0:0|0:0,0:0:0:0:
496,136,45476,2,0,L|372:136,1,99.0000030212403
332,136,45733,1,0,0:0:0:0:
96,136,45818,5,8,0:0:0:0:
328,144,45990,2,0,P|388:68|320:16,1,198.000006042481,6|6,0:0|0:0,0:0:0:0:
96,136,46504,2,0,L|195:136,1,99.0000030212403,8|0,0:0|0:0,0:0:0:0:
456,328,46847,2,0,L|484:208,1,99.0000030212403,8|0,0:0|0:0,0:0:0:0:
184,328,47190,6,0,L|120:328,1,49.5000015106202,2|0,0:0|0:0,0:0:0:0:
184,264,47361,2,0,L|264:264,1,49.5000015106202
72,212,47533,2,0,L|0:192,1,49.5000015106202,8|0,0:0|0:0,0:0:0:0:
264,228,47704,2,0,L|296:180,1,49.5000015106202
124,156,47876,6,0,L|108:108,1,49.5000015106202,2|0,0:0|0:0,0:0:0:0:
312,148,48047,2,0,L|376:116,1,49.5000015106202,2|0,0:0|0:0,0:0:0:0:
184,100,48218,2,0,L|200:36,1,49.5000015106202,8|0,0:0|0:0,0:0:0:0:
376,68,48390,2,0,L|440:68,1,49.5000015106202
184,100,48561,1,2,0:0:0:0:
304,192,49247,6,0,L|400:144,1,99.0000030212403,2|0,0:0|0:0,0:0:0:0:
432,128,49504,1,0,0:0:0:0:
176,112,49590,2,0,P|128:128|112:224,1,148.50000453186,8|0,0:0|0:0,0:0:0:0:
140,241,49890,1,0,0:0:0:0:
320,256,49933,6,0,L|448:256,1,99.0000030212403,6|0,0:0|0:0,0:0:0:0:
160,192,50276,2,0,L|32:192,1,99.0000030212403,8|0,0:0|0:0,0:0:0:0:
224,160,50618,2,0,P|272:128|224:16,1,198.000006042481,2|8,0:0|0:0,0:0:0:0:
80,16,51133,6,0,P|16:80|64:160,1,198.000006042481
336,176,51647,2,0,L|448:160,1,99.0000030212403,8|0,0:0|0:0,0:0:0:0:
144,144,51990,2,0,L|48:80,3,99.0000030212403,2|0|8|0,0:0|0:0|0:0|0:0,0:0:0:0:
304,123,52676,6,0,L|400:96,3,99.0000030212403,2|0|8|0,0:0|0:0|0:0|0:0,0:0:0:0:
144,112,53361,2,0,P|80:176|144:272,1,198.000006042481,2|8,0:0|0:0,0:0:0:0:
288,272,53876,6,0,L|400:232,1,99.0000030212403,0|2,0:0|0:0,0:0:0:0:
452,144,54218,1,0,0:0:0:0:
80,112,54390,2,0,P|32:160|112:272,1,198.000006042481,8|2,0:0|0:0,0:0:0:0:
224,272,54904,2,0,L|304:272,1,49.5000015106202,2|0,0:0|0:0,0:0:0:0:
80,256,55076,2,0,P|32:208|80:112,1,148.50000453186,8|0,0:0|0:0,0:0:0:0:
268,140,55418,6,0,P|336:156|368:284,1,198.000006042481,6|8,0:0|0:0,0:0:0:0:
120,144,55933,2,0,P|72:188|128:304,1,198.000006042481,6|0,0:0|0:0,0:0:0:0:
368,300,56447,6,0,P|445:250|387:136,1,198.000006042481,8|0,0:0|0:0,0:0:0:0:
152,164,56961,1,4,0:0:0:0:
52,104,57133,2,0,L|166:105,1,99.0000030212403,8|0,0:0|0:0,0:0:0:0:
400,128,57476,2,6,L|476:208,1,99.0000030212403,6|0,0:0|0:0,0:0:0:0:
128,176,57818,2,8,L|64:264,1,99.0000030212403,8|0,0:0|0:0,0:0:0:0:
408,144,58161,6,0,L|312:171,1,99.0000030212403,2|0,0:0|0:0,0:0:0:0:
456,192,58504,2,0,L|360:219,1,99.0000030212403,8|0,0:0|0:0,0:0:0:0:
105,144,58847,2,0,L|200:171,1,99.0000030212403,2|0,0:0|0:0,0:0:0:0:
57,192,59190,2,0,L|152:219,1,99.0000030212403,8|0,0:0|0:0,0:0:0:0:
468,212,59533,6,0,L|356:188,1,99.0000030212403,2|0,0:0|0:0,0:0:0:0:
116,144,59876,2,0,L|197:202,2,99.0000030212403,8|0|2,0:0|0:0|0:0,0:0:0:0:
272,96,60390,1,0,0:0:0:0:
32,224,60561,2,0,L|64:116,1,99.0000030212403,8|0,0:0|0:0,0:0:0:0:
312,184,60904,6,0,L|380:184,1,49.5000015106202,6|0,0:0|0:0,0:0:0:0:
312,184,61076,2,0,L|244:184,1,49.5000015106202
428,168,61247,2,0,L|452:120,1,49.5000015106202,8|0,0:0|0:0,0:0:0:0:
364,128,61418,2,0,L|332:200,1,49.5000015106202
488,128,61590,5,2,0:0:0:0:
464,176,61676,1,0,0:0:0:0:
432,208,61761,1,0,0:0:0:0:
368,224,61847,1,0,0:0:0:0:
144,224,61933,2,0,L|128:168,1,49.5000015106202,8|0,0:0|0:0,0:0:0:0:
216,180,62104,2,0,L|232:244,1,49.5000015106202
56,224,62276,5,2,0:0:0:0:
32,180,62361,1,0,0:0:0:0:
48,136,62447,1,0,0:0:0:0:
104,108,62533,1,0,0:0:0:0:
368,64,62618,1,8,0:0:0:0:
416,96,62704,1,0,0:0:0:0:
436,156,62790,1,0,0:0:0:0:
400,208,62876,1,0,0:0:0:0:
128,240,62961,6,0,L|48:240,1,49.5000015106202,2|0,0:0|0:0,0:0:0:0:
80,192,63133,2,0,L|144:192,1,49.5000015106202,0|0,0:0|0:0,0:0:0:0:
288,192,63304,1,8,0:0:0:0:
352,176,63390,1,0,0:0:0:0:
352,112,63476,1,0,0:0:0:0:
288,80,63561,1,0,0:0:0:0:
64,96,63647,6,0,L|48:164,1,49.5000015106202,2|0,0:0|0:0,0:0:0:0:
140,144,63818,2,0,L|204:144,1,49.5000015106202
276,172,63990,2,0,L|300:248,1,49.5000015106202,8|0,0:0|0:0,0:0:0:0:
204,224,64161,2,0,L|155:224,1,49.5000015106202
432,192,64333,5,2,0:0:0:0:
460,152,64418,1,0,0:0:0:0:
448,108,64504,1,0,0:0:0:0:
392,88,64590,1,0,0:0:0:0:
212,88,64676,2,0,L|168:20,1,49.5000015106202,8|0,0:0|0:0,0:0:0:0:
272,48,64847,2,0,L|308:112,1,49.5000015106202
136,232,65018,5,2,0:0:0:0:
186,196,65104,1,0,0:0:0:0:
236,168,65190,1,0,0:0:0:0:
286,136,65276,1,0,0:0:0:0:
40,160,65361,1,8,0:0:0:0:
56,96,65447,1,0,0:0:0:0:
92,60,65533,1,0,0:0:0:0:
136,48,65618,1,0,0:0:0:0:
288,196,65704,5,2,0:0:0:0:
344,220,65790,1,0,0:0:0:0:
376,256,65876,1,0,0:0:0:0:
384,292,65961,1,0,0:0:0:0:
192,148,66047,1,8,0:0:0:0:
200,104,66133,1,0,0:0:0:0:
248,68,66218,1,0,0:0:0:0:
304,56,66304,1,0,0:0:0:0:
96,160,66390,6,0,P|32:192|112:288,1,198.000006042481,6|0,0:0|0:0,0:0:0:0:
304,304,66904,2,0,P|400:304|432:212,1,198.000006042481,6|0,0:0|0:0,0:0:0:0:
204,216,67418,6,0,P|116:208|76:112,1,198.000006042481,6|0,0:0|0:0,0:0:0:0:
396,68,67933,2,0,P|468:124|372:176,1,198.000006042481,6|0,0:0|0:0,0:0:0:0:
144,192,68447,6,0,L|48:96,1,99.0000030212403,6|0,0:0|0:0,0:0:0:0:
321,80,68790,2,0,P|401:96|463:151,1,148.50000453186,6|0,0:0|0:0,0:0:0:0:
284,216,69133,2,0,L|352:144,1,99.0000030212403,6|0,0:0|0:0,0:0:0:0:
116,192,69476,5,8,0:0:0:0:
240,192,69647,2,0,L|304:192,1,49.5000015106202
240,160,69818,2,0,L|176:160,1,49.5000015106202
240,112,69990,1,2,0:0:0:0:
468,116,70161,2,0,P|488:176|420:260,1,148.50000453186,8|0,0:0|0:0,0:0:0:0:
231,283,70504,6,0,P|177:247|299:109,1,297.000009063721,4|0,0:0|0:0,0:0:0:0:
364,258,71190,5,0,0:0:0:0:
236,218,71361,1,0,0:0:0:0:
399,189,71533,2,0,P|467:152|456:88,1,148.50000453186
248,152,71876,6,0,L|144:176,1,90,6|0,0:0|0:0,0:0:0:0:
402,121,72218,2,0,L|304:88,1,90,8|0,0:0|0:0,0:0:0:0:
266,92,72476,1,0,0:0:0:0:
112,113,72561,6,0,L|90:173,1,45,2|0,0:0|0:0,0:0:0:0:
172,169,72733,2,0,L|187:220,1,45
28,264,72904,2,0,L|130:273,1,90,8|0,0:0|0:0,0:0:0:0:
383,270,73247,6,0,L|387:141,1,90,2|0,0:0|0:0,0:0:0:0:
153,216,73590,2,0,L|108:216,1,45,8|0,0:0|0:0,0:0:0:0:
107,168,73761,2,0,L|152:168,1,45
239,128,73933,6,0,L|220:88,1,45,2|0,0:0|0:0,0:0:0:0:
134,87,74104,2,0,L|152:128,1,45
328,128,74276,2,0,L|368:224,1,90,8|0,0:0|0:0,0:0:0:0:
32,224,74618,6,0,L|128:176,1,90,2|0,0:0|0:0,0:0:0:0:
360,232,74961,1,8,0:0:0:0:
384,192,75047,1,0,0:0:0:0:
360,160,75133,1,0,0:0:0:0:
304,136,75218,1,0,0:0:0:0:
140,140,75304,2,0,L|120:92,1,45,2|0,0:0|0:0,0:0:0:0:
288,96,75476,2,0,L|306:137,1,45
124,190,75647,2,0,L|27:186,1,90,8|0,0:0|0:0,0:0:0:0:
358,184,75990,6,0,L|464:196,1,90,2|0,0:0|0:0,0:0:0:0:
215,229,76333,1,8,0:0:0:0:
357,229,76504,1,0,0:0:0:0:
127,225,76676,6,0,L|111:273,1,45,2|0,0:0|0:0,0:0:0:0:
201,271,76847,2,0,L|218:221,1,45
25,177,77018,2,0,L|98:110,1,90,8|0,0:0|0:0,0:0:0:0:
330,134,77361,6,0,L|228:109,1,90,2|0,0:0|0:0,0:0:0:0:
483,126,77704,2,0,L|461:77,1,45,8|0,0:0|0:0,0:0:0:0:
396,66,77876,2,0,L|328:70,1,45
155,145,78047,6,0,L|180:108,1,45,2|0,0:0|0:0,0:0:0:0:
350,156,78218,2,0,L|316:212,1,45
136,200,78390,2,0,L|27:182,1,90,8|0,0:0|0:0,0:0:0:0:
296,192,78733,6,0,L|376:136,1,90,2|0,0:0|0:0,0:0:0:0:
365,104,78990,1,0,0:0:0:0:
192,128,79076,2,0,L|160:184,2,45,8|0|0,0:0|0:0|0:0,0:0:0:0:
260,128,79333,1,0,0:0:0:0:
416,128,79418,6,0,P|448:176|416:224,1,90,2|0,0:0|0:0,0:0:0:0:
272,240,79676,2,8,P|208:224|192:176,1,90,8|0,0:0|0:0,0:0:0:0:
360,144,79933,2,0,L|315:144,1,45,8|0,0:0|0:0,0:0:0:0:
57,172,80104,6,0,L|132:122,1,90,2|0,0:0|0:0,0:0:0:0:
185,113,80361,1,0,0:0:0:0:
328,112,80447,2,0,L|403:113,1,45,8|0,0:0|0:0,0:0:0:0:
328,112,80618,2,0,L|262:113,1,45
470,255,80790,6,0,L|482:311,1,45,2|0,0:0|0:0,0:0:0:0:
316,308,80961,2,0,L|240:308,1,45
56,268,81133,2,0,L|40:168,1,90,8|0,0:0|0:0,0:0:0:0:
384,192,81476,5,6,0:0:0:0:
264,144,81647,1,0,0:0:0:0:
309,127,81733,1,0,0:0:0:0:
354,120,81818,1,0,0:0:0:0:
40,296,81990,2,0,P|42:198|194:146,1,270,6|6,0:0|0:0,0:0:0:0:
32,144,82676,1,2,0:0:0:0:
288,148,82847,6,0,L|384:220,1,90,6|0,0:0|0:0,0:0:0:0:
84,220,83190,2,0,L|37:134,1,90,8|0,0:0|0:0,0:0:0:0:
352,184,83533,2,0,L|384:144,1,45,2|0,0:0|0:0,0:0:0:0:
292,136,83704,2,0,L|264:180,1,45
432,196,83876,2,0,L|424:304,1,90,8|0,0:0|0:0,0:0:0:0:
184,276,84218,6,0,L|139:192,1,90,2|0,0:0|0:0,0:0:0:0:
201,183,84476,1,0,0:0:0:0:
374,209,84561,2,0,L|422:209,1,45,8|0,0:0|0:0,0:0:0:0:
422,169,84733,2,0,L|358:169,1,45,0|0,0:0|0:0,0:0:0:0:
220,129,84904,2,0,L|196:81,1,45,2|0,0:0|0:0,0:0:0:0:
292,89,85076,2,0,L|324:145,1,45
160,161,85247,2,0,L|56:201,1,90,8|0,0:0|0:0,0:0:0:0:
344,208,85590,6,0,L|472:176,1,90,2|0,0:0|0:0,0:0:0:0:
472,152,85847,1,0,0:0:0:0:
223,177,85933,2,0,L|217:131,1,45,8|0,0:0|0:0,0:0:0:0:
271,116,86104,2,0,L|322:130,1,45
140,252,86276,6,0,L|119:308,1,45,2|0,0:0|0:0,0:0:0:0:
297,291,86447,2,0,L|320:358,1,45
107,305,86618,2,0,L|152:256,1,45,8|0,0:0|0:0,0:0:0:0:
348,264,86790,2,0,L|304:220,1,45
31,218,86961,6,0,L|121:218,1,90,2|0,0:0|0:0,0:0:0:0:
408,137,87304,1,8,0:0:0:0:
144,88,87476,2,0,L|244:40,2,90,2|0|0,0:0|0:0|0:0,0:0:0:0:
400,120,87990,2,0,L|480:160,1,90,8|0,0:0|0:0,0:0:0:0:
424,176,88247,1,0,0:0:0:0:
208,208,88333,6,0,L|256:120,1,90,2|0,0:0|0:0,0:0:0:0:
314,123,88590,1,0,0:0:0:0:
480,128,88676,2,0,L|440:40,1,90,8|0,0:0|0:0,0:0:0:0:
380,52,88933,1,0,0:0:0:0:
168,191,89018,6,0,L|139:134,1,45,2|0,0:0|0:0,0:0:0:0:
237,140,89190,2,0,L|251:88,1,45
96,96,89361,2,0,L|0:160,1,90,8|0,0:0|0:0,0:0:0:0:
328,192,89704,6,0,L|448:180,1,90,2|0,0:0|0:0,0:0:0:0:
368,156,89961,1,0,0:0:0:0:
184,128,90047,2,0,L|144:88,1,45,8|0,0:0|0:0,0:0:0:0:
244,96,90218,2,0,L|276:127,1,45
456,212,90390,2,0,L|496:256,2,45,2|0|0,0:0|0:0|0:0,0:0:0:0:
272,240,90647,2,0,P|208:224|192:176,1,90,8|0,0:0|0:0,0:0:0:0:
384,144,90904,2,0,L|464:144,1,45,8|0,0:0|0:0,0:0:0:0:
208,144,91076,6,0,L|160:144,1,45,6|0,0:0|0:0,0:0:0:0:
208,96,91247,2,0,L|256:96,1,45,2|0,0:0|0:0,0:0:0:0:
64,96,91418,2,0,L|0:96,1,45,8|0,0:0|0:0,0:0:0:0:
240,192,91590,2,0,L|288:192,1,45,2|0,0:0|0:0,0:0:0:0:
240,240,91761,6,0,L|192:240,1,45,2|0,0:0|0:0,0:0:0:0:
400,240,91933,2,0,L|448:208,1,45,8|0,0:0|0:0,0:0:0:0:
272,208,92104,2,0,L|256:160,1,45,2|0,0:0|0:0,0:0:0:0:
416,192,92276,2,8,L|464:128,1,45,2|0,0:0|0:0,0:0:0:0:
267,159,92447,6,0,L|211:147,1,45,8|0,0:0|0:0,0:0:0:0:
48,144,92618,2,0,L|84:76,1,45,2|0,0:0|0:0,0:0:0:0:
246,72,92790,2,0,L|306:72,1,45,2|0,0:0|0:0,0:0:0:0:
464,144,92961,2,0,L|440:80,1,45,2|0,0:0|0:0,0:0:0:0:
192,320,93133,6,0,L|128:320,1,45,8|0,0:0|0:0,0:0:0:0:
144,272,93304,2,0,L|189:272,1,45,2|0,0:0|0:0,0:0:0:0:
352,272,93476,2,8,L|416:272,1,45
92,176,93647,2,8,L|140:176,1,45
408,172,93818,2,0,P|472:112|288:12,1,360,6|0,0:0|0:0,0:0:0:0:
288,224,95190,6,0,L|192:160,1,90,2|0,0:0|0:0,0:0:0:0:
376,144,95447,2,0,L|280:80,1,90,2|0,0:0|0:0,0:0:0:0:
136,80,95704,2,0,L|216:128,1,90,2|0,0:0|0:0,0:0:0:0:
480,72,96047,1,2,0:0:0:0:
320,112,96218,1,2,0:0:0:0:
480,72,96390,1,2,0:0:0:0:
208,64,96561,5,2,0:0:0:0:
288,108,96733,1,0,0:0:0:0:
340,196,96904,1,0,0:0:0:0:
320,280,97076,1,2,0:0:0:0:
32,256,97247,1,8,0:0:0:0:
69,181,97418,1,0,0:0:0:0:
158,166,97590,1,0,0:0:0:0:
243,216,97761,1,2,0:0:0:0:
472,220,97933,6,0,L|432:119,1,90,2|0,0:0|0:0,0:0:0:0:
286,125,98276,1,0,0:0:0:0:
362,205,98447,1,2,0:0:0:0:
95,225,98618,2,0,L|-3:210,2,90,8|0|2,0:0|0:0|0:0,0:0:0:0:
201,250,99133,1,0,0:0:0:0:
455,250,99304,6,0,L|346:221,2,90,6|0|0,0:0|0:0|0:0,0:0:0:0:
311,294,99818,1,2,0:0:0:0:
62,299,99990,2,0,L|21:195,1,90,8|0,0:0|0:0,0:0:0:0:
157,201,100333,1,2,0:0:0:0:
451,217,100504,6,0,P|471:170|381:89,1,180
351,93,100933,1,0,0:0:0:0:
200,120,101018,2,0,L|87:112,1,90,8|0,0:0|0:0,0:0:0:0:
368,220,101361,2,0,L|304:148,1,90,8|0,0:0|0:0,0:0:0:0:
160,152,101704,1,2,0:0:0:0:
57,283,101876,1,0,0:0:0:0:
336,285,102047,6,0,L|453:267,1,90,6|0,0:0|0:0,0:0:0:0:
278,236,102390,2,0,L|172:236,1,90
432,128,102733,1,8,0:0:0:0:
312,80,102904,2,0,L|402:91,2,90,0|0|2,0:0|0:0|0:0,0:0:0:0:
56,112,103418,6,0,L|27:235,1,90,2|0,0:0|0:0,0:0:0:0:
177,206,103761,1,0,0:0:0:0:
42,202,103933,1,2,0:0:0:0:
355,240,104104,2,0,L|410:335,1,90,8|0,0:0|0:0,0:0:0:0:
116,246,104447,2,0,L|79:346,1,90,2|0,0:0|0:0,0:0:0:0:
386,206,104790,6,0,L|352:102,1,90,6|0,0:0|0:0,0:0:0:0:
248,120,105133,1,0,0:0:0:0:
354,93,105304,1,2,0:0:0:0:
121,102,105476,2,0,L|23:148,1,90,8|0,0:0|0:0,0:0:0:0:
302,208,105818,2,0,L|409:261,1,90,2|0,0:0|0:0,0:0:0:0:
127,254,106161,6,0,L|11:298,1,90,6|0,0:0|0:0,0:0:0:0:
72,240,106418,1,0,0:0:0:0:
128,216,106504,1,0,0:0:0:0:
12,245,106676,1,2,0:0:0:0:
198,241,106847,1,2,0:0:0:0:
288,214,107018,1,0,0:0:0:0:
331,128,107190,1,2,0:0:0:0:
270,46,107361,1,0,0:0:0:0:
20,172,107533,6,0,L|112:240,1,90,6|0,0:0|0:0,0:0:0:0:
272,248,107876,2,0,L|360:232,1,90,2|0,0:0|0:0,0:0:0:0:
192,160,108218,2,0,P|128:160|132:340,1,270,2|0,0:0|0:0,0:0:0:0:
416,320,108904,6,0,B|504:292|504:292|328:232|328:232|436:208|436:208|268:148|268:148|404:112|404:112|264:36|80:56,1,1035,6|0,0:0|0:0,0:0:0:0:
264,88,113018,6,0,L|296:188,1,90,6|0,0:0|0:0,0:0:0:0:
160,288,113361,2,0,L|80:196,1,90,2|0,0:0|0:0,0:0:0:0:
284,164,113704,2,0,P|348:164|352:348,1,270,2|0,0:0|0:0,0:0:0:0:
128,324,114390,2,0,L|8:300,1,90,2|0,0:0|0:0,0:0:0:0:
328,296,114733,6,0,B|496:220|496:220|152:132|152:132|328:177|328:177|496:108|496:108|148:16|148:16|416:256|416:256|256:328|256:328|356:284,1,1890,2|0,0:0|0:0,0:0:0:0:
56,88,118504,5,6,0:0:0:0:
256,192,129476,12,0,131704,0:0:0:0:
96,260,131875,5,6,0:0:0:0:
352,256,132217,2,0,P|416:224|368:112,1,180
192,192,133589,6,0,P|96:240|96:320,2,180
464,192,134617,2,0,P|464:256|288:336,1,270,0|0,0:0|0:0,0:0:0:0:
160,256,135475,1,0,0:0:0:0:
256,128,135989,1,0,0:0:0:0:
400,224,137360,6,0,P|448:176|400:64,1,180,6|0,0:0|0:0,0:0:0:0:
192,128,138046,2,0,P|128:160|128:272,1,180
384,304,138903,6,0,L|496:256,2,90
208,304,139417,2,0,L|112:352,1,90,0|0,0:0|0:0,0:0:0:0:
304,288,139760,2,0,L|400:240,1,90,0|0,0:0|0:0,0:0:0:0:
232,240,140103,6,0,P|176:224|224:112,1,180
300,120,140617,2,0,L|120:100,1,180
236,96,141132,2,0,P|264:56|164:8,1,180
360,100,141646,2,0,P|472:104|536:68,1,180
344,168,142160,2,0,L|256:224,1,90
428,248,142503,2,0,P|416:224|300:204,1,135,0|0,0:0|0:0,0:0:0:0:
112,208,142846,6,0,L|32:128,1,90,6|0,0:0|0:0,0:0:0:0:
232,132,143189,2,0,L|324:80,1,90,0|2,0:0|0:0,0:0:0:0:
28,124,143532,2,0,L|107:80,2,90,2|0|0,0:0|0:0|0:0,0:0:0:0:
304,128,144046,2,0,P|372:160|344:252,1,180,2|2,0:0|0:0,0:0:0:0:
100,248,144560,6,0,L|9:188,1,90,2|0,0:0|0:0,0:0:0:0:
176,180,144903,2,0,L|285:158,1,90,2|0,0:0|0:0,0:0:0:0:
96,144,145246,2,0,L|-24:132,1,90,2|0,0:0|0:0,0:0:0:0:
328,136,145589,6,0,L|376:56,1,90,2|0,0:0|0:0,0:0:0:0:
256,54,145932,1,0,0:0:0:0:
112,66,146103,2,0,L|79:181,1,90,2|0,0:0|0:0,0:0:0:0:
232,160,146446,1,2,0:0:0:0:
87,152,146617,2,0,P|87:104|199:56,1,180,2|0,0:0|0:0,0:0:0:0:
264,112,147132,1,2,0:0:0:0:
96,128,147303,6,0,P|64:80|112:32,1,135,4|0,0:0|0:0,0:0:0:0:
214,36,147646,2,0,P|262:68|294:164,1,135
192,208,147989,2,0,P|112:176|96:112,1,135
304,176,148332,6,0,L|400:176,1,90,2|0,0:0|0:0,0:0:0:0:
224,144,148675,1,0,0:0:0:0:
400,144,148846,6,0,P|448:160|384:304,1,270,4|2,0:0|0:0,0:0:0:0:
208,304,149532,2,0,L|304:240,1,90,0|0,0:0|0:0,0:0:0:0:
112,240,149875,6,0,P|80:160|164:108,1,180,4|0,0:0|0:0,0:0:0:0:
376,112,150389,2,0,L|492:88,1,90
144,192,150732,2,0,L|48:176,1,90,0|0,0:0|0:0,0:0:0:0:
368,192,151075,6,0,P|416:144|352:64,1,180,2|0,0:0|0:0,0:0:0:0:
192,80,151589,2,0,L|288:32,1,90
128,32,151932,1,0,0:0:0:0:
272,96,152103,1,0,0:0:0:0:
128,128,152275,6,0,P|80:144|176:240,1,270
32,224,152960,2,0,L|0:192,2,45,2|0|2,0:0|0:0|0:0,0:0:0:0:
336,112,153475,2,0,P|384:128|400:208,1,135,2|0,0:0|0:0,0:0:0:0:
192,256,153817,6,0,L|64:256,1,99.0000030212403,6|0,0:0|0:0,0:0:0:0:
352,192,154160,2,0,L|480:192,1,99.0000030212403,8|0,0:0|0:0,0:0:0:0:
288,160,154503,2,0,P|240:128|288:16,1,198.000006042481,2|8,0:0|0:0,0:0:0:0:
432,16,155017,6,0,P|496:80|448:160,1,198.000006042481,0|0,0:0|0:0,0:0:0:0:
176,176,155532,2,0,L|64:160,1,99.0000030212403,8|0,0:0|0:0,0:0:0:0:
368,144,155875,2,0,L|464:80,3,99.0000030212403,2|0|8|0,0:0|0:0|0:0|0:0,0:0:0:0:
207,123,156560,6,0,L|112:96,3,99.0000030212403,2|0|8|0,0:0|0:0|0:0|0:0,0:0:0:0:
368,112,157246,2,0,P|432:176|368:272,1,198.000006042481,2|8,0:0|0:0,0:0:0:0:
224,272,157760,6,0,L|102:245,1,99.0000030212403,0|2,0:0|0:0,0:0:0:0:
68,136,158103,1,0,0:0:0:0:
432,112,158275,2,0,P|480:160|400:272,1,198.000006042481,8|2,0:0|0:0,0:0:0:0:
288,272,158789,2,0,L|208:272,1,49.5000015106202
432,256,158960,2,0,P|480:208|432:112,1,148.50000453186,8|0,0:0|0:0,0:0:0:0:
244,140,159303,6,0,P|176:156|144:284,1,198.000006042481,6|8,0:0|0:0,0:0:0:0:
392,144,159817,2,0,P|440:188|384:304,1,198.000006042481,6|0,0:0|0:0,0:0:0:0:
80,224,160332,2,0,P|100:162|231:127,1,198.000006042481,4|0,0:0|0:0,0:0:0:0:
475,185,160846,1,4,0:0:0:0:
337,204,161017,2,0,L|220:200,1,99.0000030212403,8|0,0:0|0:0,0:0:0:0:
475,185,161360,2,0,L|480:72,1,99.0000030212403,6|0,0:0|0:0,0:0:0:0:
248,88,161703,2,0,L|376:88,1,99.0000030212403,8|0,0:0|0:0,0:0:0:0:
116,168,162046,5,2,0:0:0:0:
40,136,162217,1,2,0:0:0:0:
144,120,162389,1,8,0:0:0:0:
24,88,162560,1,2,0:0:0:0:
320,176,162732,5,2,0:0:0:0:
416,144,162903,1,2,0:0:0:0:
288,128,163075,1,8,0:0:0:0:
432,96,163246,1,2,0:0:0:0:
128,144,163417,6,0,L|0:80,1,99.0000030212403,2|2,0:0|0:0,0:0:0:0:
320,96,163760,1,8,0:0:0:0:
348,192,163932,1,2,0:0:0:0:
312,272,164103,1,2,0:0:0:0:
192,304,164275,1,2,0:0:0:0:
480,224,164446,2,0,L|352:272,1,99.0000030212403,8|2,0:0|0:0,0:0:0:0:
96,256,164789,6,0,L|32:256,1,49.5000015106202,2|0,0:0|0:0,0:0:0:0:
240,192,164960,2,0,L|304:192,1,49.5000015106202
240,160,165132,2,0,L|176:160,1,49.5000015106202,8|0,0:0|0:0,0:0:0:0:
384,128,165303,2,0,L|464:128,1,49.5000015106202
192,128,165475,6,0,L|128:128,1,49.5000015106202,2|0,0:0|0:0,0:0:0:0:
144,176,165646,2,0,L|208:176,1,49.5000015106202,0|0,0:0|0:0,0:0:0:0:
400,176,165817,2,0,L|464:176,1,49.5000015106202,8|0,0:0|0:0,0:0:0:0:
240,256,165989,1,0,0:0:0:0:
196,228,166075,1,0,0:0:0:0:
288,224,166160,5,2,0:0:0:0:
304,192,166246,1,0,0:0:0:0:
288,144,166332,1,0,0:0:0:0:
224,128,166417,1,0,0:0:0:0:
448,64,166503,1,8,0:0:0:0:
480,112,166589,1,0,0:0:0:0:
464,176,166675,1,0,0:0:0:0:
400,208,166760,1,0,0:0:0:0:
319,208,166846,6,0,L|303:160,1,49.5000015106202,2|0,0:0|0:0,0:0:0:0:
384,161,167017,2,0,L|400:209,1,49.5000015106202,0|0,0:0|0:0,0:0:0:0:
160,256,167189,1,8,0:0:0:0:
96,256,167275,1,0,0:0:0:0:
96,192,167360,1,0,0:0:0:0:
160,192,167446,1,0,0:0:0:0:
336,192,167532,6,0,L|400:192,1,49.5000015106202,2|0,0:0|0:0,0:0:0:0:
336,160,167703,2,0,L|272:160,1,49.5000015106202
448,160,167875,2,0,L|480:96,1,49.5000015106202,8|0,0:0|0:0,0:0:0:0:
384,112,168046,2,0,L|361:156,1,49.5000015106202,0|0,0:0|0:0,0:0:0:0:
96,224,168217,6,0,L|64:160,1,49.5000015106202,2|0,0:0|0:0,0:0:0:0:
112,144,168389,2,0,L|176:144,1,49.5000015106202,0|0,0:0|0:0,0:0:0:0:
368,96,168560,2,0,L|432:96,1,49.5000015106202,8|0,0:0|0:0,0:0:0:0:
220,268,168732,2,0,L|204:332,1,49.5000015106202,0|0,0:0|0:0,0:0:0:0:
300,268,168903,5,2,0:0:0:0:
348,252,168989,1,0,0:0:0:0:
364,204,169075,1,0,0:0:0:0:
348,156,169160,1,0,0:0:0:0:
204,156,169246,1,8,0:0:0:0:
140,140,169332,1,0,0:0:0:0:
124,92,169417,1,0,0:0:0:0:
124,28,169503,1,0,0:0:0:0:
380,300,169589,5,2,0:0:0:0:
444,284,169675,1,0,0:0:0:0:
460,236,169760,1,0,0:0:0:0:
460,172,169846,1,0,0:0:0:0:
247,167,169932,2,0,L|192:167,1,49.5000015106202,8|0,0:0|0:0,0:0:0:0:
247,167,170103,2,0,L|312:167,1,49.5000015106202
32,192,170275,6,0,P|48:112|176:64,1,198.000006042481,6|0,0:0|0:0,0:0:0:0:
384,208,170789,2,0,P|464:160|384:96,1,198.000006042481,6|0,0:0|0:0,0:0:0:0:
96,176,171303,2,0,P|48:128|80:0,1,198.000006042481,6|0,0:0|0:0,0:0:0:0:
384,16,171817,2,0,P|432:80|384:192,1,198.000006042481,6|0,0:0|0:0,0:0:0:0:
143,191,172332,6,0,L|10:184,1,99.0000030212403,6|0,0:0|0:0,0:0:0:0:
293,77,172675,2,0,P|373:93|419:155,1,148.50000453186,4|0,0:0|0:0,0:0:0:0:
256,202,173017,2,0,L|148:204,1,99.0000030212403,6|0,0:0|0:0,0:0:0:0:
428,256,173360,5,8,0:0:0:0:
292,224,173532,2,0,L|264:182,1,49.5000015106202,0|0,0:0|0:0,0:0:0:0:
348,176,173703,2,0,L|376:217,1,49.5000015106202,0|0,0:0|0:0,0:0:0:0:
292,224,173875,1,2,0:0:0:0:
52,196,174046,2,0,P|50:242|136:316,1,148.50000453186,8|0,0:0|0:0,0:0:0:0:
344,321,174389,2,0,P|415:257|309:112,1,297.000009063721,6|0,0:0|0:0,0:0:0:0:
61,132,175075,5,0,0:0:0:0:
226,150,175246,1,0,0:0:0:0:
53,198,175417,2,0,P|108:275|171:273,1,148.50000453186
315,272,175760,6,0,L|402:251,1,90,6|0,0:0|0:0,0:0:0:0:
128,233,176103,1,8,0:0:0:0:
96,202,176189,1,0,0:0:0:0:
92,158,176275,1,0,0:0:0:0:
119,122,176360,1,0,0:0:0:0:
208,111,176446,6,0,L|268:99,1,45,2|0,0:0|0:0,0:0:0:0:
338,128,176617,2,0,L|370:160,1,45
112,312,176789,2,0,L|20:248,1,90,8|0,0:0|0:0,0:0:0:0:
272,192,177132,6,0,L|400:168,1,90,2|0,0:0|0:0,0:0:0:0:
384,136,177389,1,0,0:0:0:0:
152,128,177475,2,0,L|94:126,1,45,8|0,0:0|0:0,0:0:0:0:
123,73,177646,2,0,L|187:79,1,45
255,272,177817,6,0,L|273:231,1,45,2|0,0:0|0:0,0:0:0:0:
186,233,177989,2,0,L|249:228,1,45
410,233,178160,2,0,L|370:329,1,90,8|0,0:0|0:0,0:0:0:0:
104,304,178503,6,0,L|8:256,1,90,2|0,0:0|0:0,0:0:0:0:
274,278,178846,1,8,0:0:0:0:
233,251,178932,1,0,0:0:0:0:
225,205,179017,1,0,0:0:0:0:
253,168,179103,1,0,0:0:0:0:
341,168,179189,6,0,L|361:120,1,45,2|0,0:0|0:0,0:0:0:0:
270,121,179360,2,0,L|251:70,1,45
428,74,179532,2,0,L|514:141,1,90,8|0,0:0|0:0,0:0:0:0:
346,166,179875,6,0,P|310:211|312:242,1,90,2|0,0:0|0:0,0:0:0:0:
353,274,180132,1,0,0:0:0:0:
170,253,180217,2,0,L|79:253,1,90,8|0,0:0|0:0,0:0:0:0:
234,211,180560,6,0,L|294:211,1,45,2|0,0:0|0:0,0:0:0:0:
286,173,180732,2,0,L|233:171,1,45
51,131,180903,2,0,L|151:67,1,90,8|0,0:0|0:0,0:0:0:0:
402,90,181246,6,0,L|494:179,1,90,2|0,0:0|0:0,0:0:0:0:
409,179,181503,1,0,0:0:0:0:
233,210,181589,2,0,L|253:266,1,45,8|0,0:0|0:0,0:0:0:0:
286,286,181760,2,0,L|347:278,1,45
488,264,181932,6,0,L|466:207,1,45,2|0,0:0|0:0,0:0:0:0:
315,194,182103,2,0,L|247:193,1,45
478,136,182275,2,0,L|390:192,1,90,8|0,0:0|0:0,0:0:0:0:
115,166,182617,6,0,L|145:76,1,90,2|0,0:0|0:0,0:0:0:0:
212,69,182875,1,0,0:0:0:0:
357,129,182960,2,0,L|389:185,2,45,8|0|0,0:0|0:0|0:0,0:0:0:0:
289,129,183217,1,0,0:0:0:0:
96,128,183303,6,0,P|64:176|96:224,1,90,2|0,0:0|0:0,0:0:0:0:
240,240,183560,2,8,P|304:224|320:176,1,90,8|0,0:0|0:0,0:0:0:0:
99,148,183817,2,0,L|159:148,1,45,8|0,0:0|0:0,0:0:0:0:
400,168,183989,6,0,P|419:122|402:76,1,90,2|0,0:0|0:0,0:0:0:0:
336,78,184246,1,0,0:0:0:0:
184,110,184332,2,0,L|118:81,1,45,8|0,0:0|0:0,0:0:0:0:
184,110,184503,2,0,L|240:139,1,45
44,152,184675,6,0,L|16:230,1,45,2|0,0:0|0:0,0:0:0:0:
172,236,184846,2,0,L|244:240,1,45
464,232,185017,2,0,L|491:137,1,90,8|0,0:0|0:0,0:0:0:0:
128,192,185360,5,6,0:0:0:0:
248,144,185532,1,0,0:0:0:0:
202,128,185617,1,0,0:0:0:0:
155,120,185703,1,0,0:0:0:0:
472,296,185875,2,0,P|470:198|318:146,1,270,6|6,0:0|0:0,0:0:0:0:
480,144,186560,1,0,0:0:0:0:
224,148,186732,6,0,L|128:220,1,90,6|0,0:0|0:0,0:0:0:0:
428,220,187075,2,0,L|465:124,1,90,8|0,0:0|0:0,0:0:0:0:
160,184,187417,6,0,L|146:137,1,45,2|0,0:0|0:0,0:0:0:0:
237,151,187589,2,0,L|255:204,1,45
80,196,187760,2,0,L|88:304,1,90,8|0,0:0|0:0,0:0:0:0:
328,276,188103,6,0,L|432:268,1,90,2|0,0:0|0:0,0:0:0:0:
372,232,188360,1,0,0:0:0:0:
208,192,188446,2,0,L|160:192,1,45,8|0,0:0|0:0,0:0:0:0:
160,152,188617,2,0,L|224:152,1,45,0|0,0:0|0:0,0:0:0:0:
416,152,188789,6,0,L|440:104,1,45,2|0,0:0|0:0,0:0:0:0:
344,112,188960,2,0,L|312:168,1,45
490,225,189132,2,0,L|386:265,1,90,8|0,0:0|0:0,0:0:0:0:
116,310,189475,6,0,L|94:218,1,90,2|0,0:0|0:0,0:0:0:0:
161,205,189732,1,0,0:0:0:0:
377,219,189817,2,0,L|401:175,1,45,8|0,0:0|0:0,0:0:0:0:
344,146,189989,2,0,L|264:122,1,45
104,212,190160,6,0,L|81:157,1,45,2|0,0:0|0:0,0:0:0:0:
308,168,190332,2,0,L|366:169,1,45
133,119,190503,2,0,L|192:56,1,45,8|0,0:0|0:0,0:0:0:0:
368,92,190675,2,0,L|336:147,1,45
31,209,190846,6,0,L|121:209,1,90,2|0,0:0|0:0,0:0:0:0:
383,213,191189,1,8,0:0:0:0:
144,88,191360,2,0,L|244:40,2,90,2|0|0,0:0|0:0|0:0,0:0:0:0:
400,120,191875,2,0,L|480:160,1,90,8|0,0:0|0:0,0:0:0:0:
424,176,192132,1,0,0:0:0:0:
208,208,192217,6,0,L|256:120,1,90,2|0,0:0|0:0,0:0:0:0:
306,135,192475,1,0,0:0:0:0:
480,128,192560,2,0,L|440:40,1,90,8|0,0:0|0:0,0:0:0:0:
168,192,192903,6,0,L|150:142,1,45,2|0,0:0|0:0,0:0:0:0:
242,154,193075,2,0,L|253:98,1,45
96,96,193246,2,0,L|0:160,1,90,8|0,0:0|0:0,0:0:0:0:
328,192,193589,6,0,L|448:180,1,90,2|0,0:0|0:0,0:0:0:0:
368,156,193846,1,0,0:0:0:0:
184,128,193932,2,0,L|144:88,1,45,8|0,0:0|0:0,0:0:0:0:
244,96,194103,2,0,L|276:127,1,45
456,212,194275,6,0,L|496:256,2,45,2|0|0,0:0|0:0|0:0,0:0:0:0:
272,240,194532,2,0,P|208:224|192:176,1,90,8|0,0:0|0:0,0:0:0:0:
384,144,194789,2,0,L|464:144,1,45,8|0,0:0|0:0,0:0:0:0:
208,144,194960,6,0,L|160:144,1,45,6|0,0:0|0:0,0:0:0:0:
208,96,195132,2,0,L|256:96,1,45,2|0,0:0|0:0,0:0:0:0:
64,96,195303,2,0,L|0:96,1,45,8|0,0:0|0:0,0:0:0:0:
240,192,195475,2,0,L|288:192,1,45,2|0,0:0|0:0,0:0:0:0:
240,240,195646,6,0,L|192:240,1,45,2|0,0:0|0:0,0:0:0:0:
400,240,195817,2,0,L|448:208,1,45,8|0,0:0|0:0,0:0:0:0:
200,208,195989,2,0,L|184:160,1,45,2|0,0:0|0:0,0:0:0:0:
416,192,196160,2,8,L|464:128,1,45,2|0,0:0|0:0,0:0:0:0:
184,224,196332,6,0,L|152:192,1,45,8|0,0:0|0:0,0:0:0:0:
400,144,196503,2,0,L|384:96,1,45,2|0,0:0|0:0,0:0:0:0:
168,272,196675,2,0,L|120:256,1,45,2|0,0:0|0:0,0:0:0:0:
384,192,196846,2,0,L|336:144,1,45,2|0,0:0|0:0,0:0:0:0:
120,320,197017,6,0,L|56:320,1,45,8|0,0:0|0:0,0:0:0:0:
72,272,197189,2,0,L|117:272,1,45,2|0,0:0|0:0,0:0:0:0:
352,272,197360,2,8,L|416:272,1,45
36,168,197532,2,8,L|84:168,1,45
428,168,197703,2,0,P|464:128|280:16,1,360,6|0,0:0|0:0,0:0:0:0:
176,216,199075,6,0,L|80:152,1,90,2|0,0:0|0:0,0:0:0:0:
272,144,199332,2,0,L|176:80,1,90,2|0,0:0|0:0,0:0:0:0:
24,72,199589,2,0,L|104:120,1,90,2|0,0:0|0:0,0:0:0:0:
368,128,199932,1,2,0:0:0:0:
456,192,200103,1,2,0:0:0:0:
440,288,200275,1,2,0:0:0:0:
152,128,200446,5,0,0:0:0:0:
129,126,200488,1,0,0:0:0:0:
107,129,200531,1,0,0:0:0:0:
85,136,200574,1,0,0:0:0:0:
66,147,200617,1,0,0:0:0:0:
48,162,200660,1,0,0:0:0:0:
34,179,200703,1,0,0:0:0:0:
23,199,200745,1,0,0:0:0:0:
16,220,200788,1,0,0:0:0:0:
13,242,200831,1,0,0:0:0:0:
15,265,200874,1,0,0:0:0:0:
208,312,200960,5,0,0:0:0:0:
229,317,201002,1,0,0:0:0:0:
252,317,201045,1,0,0:0:0:0:
273,310,201088,1,0,0:0:0:0:
292,298,201131,1,0,0:0:0:0:
307,282,201174,1,0,0:0:0:0:
317,262,201217,1,0,0:0:0:0:
321,240,201259,1,0,0:0:0:0:
319,217,201302,1,0,0:0:0:0:
311,196,201345,1,0,0:0:0:0:
298,178,201388,1,0,0:0:0:0:
144,176,201475,5,0,0:0:0:0:
130,158,201517,1,0,0:0:0:0:
121,137,201560,1,0,0:0:0:0:
119,115,201603,1,0,0:0:0:0:
124,93,201646,1,0,0:0:0:0:
135,73,201689,1,0,0:0:0:0:
151,58,201732,1,0,0:0:0:0:
170,47,201774,1,0,0:0:0:0:
192,43,201817,1,0,0:0:0:0:
215,45,201860,1,0,0:0:0:0:
235,54,201903,1,0,0:0:0:0:
392,96,201989,5,0,0:0:0:0:
413,103,202031,1,0,0:0:0:0:
431,115,202074,1,0,0:0:0:0:
446,132,202117,1,0,0:0:0:0:
455,153,202160,1,0,0:0:0:0:
458,175,202203,1,0,0:0:0:0:
455,197,202246,1,0,0:0:0:0:
446,218,202288,1,0,0:0:0:0:
432,235,202331,1,0,0:0:0:0:
413,248,202374,1,0,0:0:0:0:
392,255,202417,1,0,0:0:0:0:
176,288,202503,5,0,0:0:0:0:
154,292,202545,1,0,0:0:0:0:
132,288,202588,1,0,0:0:0:0:
112,277,202631,1,0,0:0:0:0:
99,259,202674,1,0,0:0:0:0:
92,238,202717,1,0,0:0:0:0:
94,216,202760,1,0,0:0:0:0:
416,224,202846,2,8,L|464:208,1,45,8|8,0:0|0:0,0:0:0:0:
288,176,203017,2,8,L|208:160,1,45,8|8,0:0|0:0,0:0:0:0:
416,144,203189,5,2,0:0:0:0:
419,121,203231,1,0,0:0:0:0:
416,99,203274,1,0,0:0:0:0:
408,78,203317,1,0,0:0:0:0:
395,60,203360,1,0,0:0:0:0:
377,46,203403,1,0,0:0:0:0:
357,37,203446,1,0,0:0:0:0:
334,34,203488,1,0,0:0:0:0:
312,37,203531,1,0,0:0:0:0:
154,88,203703,2,0,L|192:64,1,45
336,144,203875,2,0,L|256:192,2,90,8|0|0,0:0|0:0|0:0,0:0:0:0:
64,256,204389,1,8,0:0:0:0:
139,305,204560,5,0,0:0:0:0:
120,292,204603,1,0,0:0:0:0:
101,280,204646,1,0,0:0:0:0:
82,268,204689,1,0,0:0:0:0:
64,256,204732,1,2,0:0:0:0:
336,288,204903,2,0,L|448:256,1,90,8|0,0:0|0:0,0:0:0:0:
368,256,205160,1,0,0:0:0:0:
176,224,205246,1,2,0:0:0:0:
155,213,205288,1,0,0:0:0:0:
135,203,205331,1,0,0:0:0:0:
115,193,205374,1,0,0:0:0:0:
95,183,205417,1,0,0:0:0:0:
352,176,205589,2,0,L|464:144,1,90,2|0,0:0|0:0,0:0:0:0:
176,80,205932,6,0,B|-5:79|-5:79|176:80|176:80|-5:79|-5:79|146:80|146:80,1,675
176,80,207303,5,0,0:0:0:0:
32,128,207475,1,2,0:0:0:0:
448,304,207646,1,8,0:0:0:0:
464,192,207817,1,2,0:0:0:0:
368,128,207989,1,2,0:0:0:0:
128,128,208160,2,0,L|96:192,1,45,8|0,0:0|0:0,0:0:0:0:
192,176,208332,2,0,L|212:135,1,45,2|0,0:0|0:0,0:0:0:0:
48,128,208503,2,0,L|99:95,1,45,2|0,0:0|0:0,0:0:0:0:
293,70,208675,5,2,0:0:0:0:
346,108,208760,1,0,0:0:0:0:
359,158,208846,1,0,0:0:0:0:
338,212,208932,1,0,0:0:0:0:
176,160,209017,2,0,L|92:160,1,45,8|0,0:0|0:0,0:0:0:0:
93,208,209189,1,0,0:0:0:0:
208,224,209360,6,0,L|224:272,1,45,2|0,0:0|0:0,0:0:0:0:
144,272,209532,2,0,L|129:229,1,45,0|0,0:0|0:0,0:0:0:0:
288,224,209703,2,0,L|304:272,1,45,8|0,0:0|0:0,0:0:0:0:
224,272,209875,2,0,L|209:229,1,45,0|0,0:0|0:0,0:0:0:0:
432,224,210046,6,0,L|500:224,1,45,2|0,0:0|0:0,0:0:0:0:
432,224,210217,2,0,L|348:224,1,45
172,164,210389,2,0,L|96:160,2,45,8|0|0,0:0|0:0|0:0,0:0:0:0:
448,144,210732,2,0,L|480:208,1,45,2|0,0:0|0:0,0:0:0:0:
384,192,210903,2,0,L|364:151,1,45,2|0,0:0|0:0,0:0:0:0:
192,128,211075,2,0,L|304:80,1,90,8|0,0:0|0:0,0:0:0:0:
32,96,211417,5,6,0:0:0:0:
232,96,211760,2,0,L|332:132,1,90
220,168,212103,2,0,P|154:201|248:336,1,270
484,336,212789,6,0,P|488:280|276:152,1,315
112,208,213475,1,2,0:0:0:0:
89,204,213517,1,0,0:0:0:0:
69,195,213560,1,0,0:0:0:0:
52,181,213603,1,0,0:0:0:0:
39,162,213646,1,0,0:0:0:0:
33,141,213689,1,0,0:0:0:0:
32,118,213732,1,0,0:0:0:0:
38,96,213774,1,0,0:0:0:0:
49,77,213817,1,8,0:0:0:0:
96,48,213903,1,8,0:0:0:0:
256,32,213989,2,8,L|296:52,1,45
120,112,214160,5,2,0:0:0:0:
98,118,214202,1,0,0:0:0:0:
79,129,214245,1,0,0:0:0:0:
62,145,214288,1,0,0:0:0:0:
51,164,214331,1,0,0:0:0:0:
44,185,214374,1,0,0:0:0:0:
42,207,214417,1,0,0:0:0:0:
45,230,214459,1,0,0:0:0:0:
54,250,214502,1,0,0:0:0:0:
68,268,214545,1,0,0:0:0:0:
85,282,214588,1,0,0:0:0:0:
105,292,214631,1,0,0:0:0:0:
127,297,214674,1,0,0:0:0:0:
176,304,214760,1,0,0:0:0:0:
352,304,214846,2,0,L|464:288,2,90,8|0|0,0:0|0:0|0:0,0:0:0:0:
100,312,215360,1,8,0:0:0:0:
32,264,215532,5,2,0:0:0:0:
38,242,215574,1,0,0:0:0:0:
49,222,215617,1,0,0:0:0:0:
63,205,215660,1,0,0:0:0:0:
82,192,215703,1,0,0:0:0:0:
130,177,215789,1,0,0:0:0:0:
303,206,215875,2,8,L|339:118,1,90,8|2,0:0|0:0,0:0:0:0:
277,79,216132,1,0,0:0:0:0:
44,192,216217,1,2,0:0:0:0:
61,177,216259,1,0,0:0:0:0:
78,163,216302,1,0,0:0:0:0:
95,148,216345,1,0,0:0:0:0:
113,134,216388,1,0,0:0:0:0:
232,124,216560,1,2,0:0:0:0:
476,120,216732,1,8,0:0:0:0:
160,108,216903,6,0,B|336:148|336:148|256:180|208:204|208:204|160:228|128:284|168:340|256:356|256:356|376:340|456:308,1,720,6|2,0:0|0:0,0:0:0:0:
480,164,218446,1,2,0:0:0:0:
160,88,218617,1,8,0:0:0:0:
80,184,218789,1,2,0:0:0:0:
112,288,218960,1,2,0:0:0:0:
368,296,219132,1,8,0:0:0:0:
96,240,219303,2,0,L|48:232,2,45,0|0|2,0:0|0:0|0:0,0:0:0:0:
168,248,219560,1,0,0:0:0:0:
352,256,219646,5,0,0:0:0:0:
416,224,219732,2,0,L|384:124,1,90
192,120,219989,1,8,0:0:0:0:
124,136,220075,2,0,L|60:224,1,90
236,268,220332,1,2,0:0:0:0:
296,276,220417,1,0,0:0:0:0:
108,320,220503,1,0,0:0:0:0:
236,268,220675,2,0,L|146:268,1,90,8|0,0:0|0:0,0:0:0:0:
376,260,221017,5,2,0:0:0:0:
440,228,221103,2,0,L|340:196,1,90
148,220,221360,2,0,L|78:277,1,90,8|0,0:0|0:0,0:0:0:0:
112,324,221617,1,0,0:0:0:0:
188,336,221703,1,0,0:0:0:0:
356,256,221875,2,0,L|315:235,1,45,2|0,0:0|0:0,0:0:0:0:
156,224,222046,1,8,0:0:0:0:
256,192,222389,12,0,227875,0:0:0:0:
256,208,233360,6,0,B|496:104|496:104|480:16|387:6|344:12|344:12|272:24|168:60|148:128|160:240|196:308|292:272|292:272|496:184|496:184|496:264|496:264|328:336|328:336|264:364|192:376|92:332|52:188|108:68|168:16|168:16|76:16|76:16|40:56|32:128|32:128,1,2092.50007982254
156,128,238846,6,0,B|256:96|256:96|256:196|256:196|136:236|136:236|56:264|84:372|156:352|156:352|412:260|412:260|544:196|480:68|364:32,1,1080.00004119873
256,192,241760,12,0,245532,0:0:0:0:
96,352,245703,6,0,P|48:272|416:364,1,1057.5
212,340,249817,5,0,0:0:0:0:
196,324,249989,1,0,0:0:0:0:
180,308,250160,1,0,0:0:0:0:
416,288,250332,1,0,0:0:0:0:
432,272,250503,1,0,0:0:0:0:
448,256,250675,1,0,0:0:0:0:
96,240,250846,1,0,0:0:0:0:
112,224,251017,1,0,0:0:0:0:
400,176,251189,5,0,0:0:0:0:
416,192,251360,1,0,0:0:0:0:
432,208,251532,1,0,0:0:0:0:
96,160,251703,1,0,0:0:0:0:
112,144,251875,1,0,0:0:0:0:
128,128,252046,1,0,0:0:0:0:
416,176,252217,1,0,0:0:0:0:
432,160,252389,1,2,0:0:0:0:
440,152,252475,1,2,0:0:0:0:
192,160,252560,5,2,0:0:0:0:
176,144,252732,1,0,0:0:0:0:
160,128,252903,1,0,0:0:0:0:
68,196,253074,1,0,0:0:0:0:
84,180,253246,1,0,0:0:0:0:
100,164,253417,1,0,0:0:0:0:
192,232,253589,1,0,0:0:0:0:
208,248,253760,1,0,0:0:0:0:
300,196,253932,5,0,0:0:0:0:
284,180,254103,1,0,0:0:0:0:
268,164,254274,1,0,0:0:0:0:
360,156,254446,1,0,0:0:0:0:
376,140,254617,1,0,0:0:0:0:
392,124,254789,1,0,0:0:0:0:
128,368,254960,2,0,P|80:304|128:244,1,135,8|0,0:0|0:0,0:0:0:0:
416,368,255303,5,0,0:0:0:0:
400,352,255475,1,0,0:0:0:0:
384,336,255646,1,0,0:0:0:0:
72,264,255817,1,0,0:0:0:0:
88,248,255989,1,0,0:0:0:0:
104,232,256160,1,0,0:0:0:0:
416,240,256332,1,0,0:0:0:0:
400,224,256503,1,0,0:0:0:0:
80,208,256675,5,0,0:0:0:0:
96,192,256846,1,0,0:0:0:0:
112,176,257017,1,0,0:0:0:0:
416,160,257189,1,0,0:0:0:0:
400,144,257360,1,0,0:0:0:0:
384,128,257532,1,0,0:0:0:0:
48,208,257703,1,0,0:0:0:0:
64,192,257875,1,2,0:0:0:0:
72,184,257960,1,2,0:0:0:0:
352,144,258046,5,2,0:0:0:0:
368,128,258217,1,0,0:0:0:0:
384,112,258388,1,0,0:0:0:0:
476,180,258559,1,0,0:0:0:0:
460,164,258731,1,0,0:0:0:0:
444,148,258902,1,0,0:0:0:0:
352,216,259074,1,0,0:0:0:0:
336,232,259245,1,0,0:0:0:0:
244,180,259417,5,0,0:0:0:0:
260,164,259588,1,0,0:0:0:0:
276,148,259759,1,0,0:0:0:0:
184,140,259932,1,0,0:0:0:0:
168,124,260102,1,0,0:0:0:0:
152,108,260274,1,0,0:0:0:0:
384,368,260446,2,0,P|420:316|376:240,1,135,8|0,0:0|0:0,0:0:0:0:
128,336,260789,5,0,0:0:0:0:
112,352,260960,1,0,0:0:0:0:
96,368,261132,1,0,0:0:0:0:
376,280,261303,1,0,0:0:0:0:
360,264,261475,1,0,0:0:0:0:
344,248,261646,1,0,0:0:0:0:
64,224,261817,1,0,0:0:0:0:
48,240,261989,1,0,0:0:0:0:
368,208,262160,5,0,0:0:0:0:
352,192,262332,1,0,0:0:0:0:
336,176,262503,1,0,0:0:0:0:
80,160,262675,1,0,0:0:0:0:
64,176,262846,1,0,0:0:0:0:
48,192,263017,1,0,0:0:0:0:
480,192,263189,1,0,0:0:0:0:
464,176,263360,1,2,0:0:0:0:
456,168,263446,1,2,0:0:0:0:
216,152,263532,5,0,0:0:0:0:
232,168,263703,1,0,0:0:0:0:
248,184,263875,1,0,0:0:0:0:
156,220,264045,1,0,0:0:0:0:
172,204,264217,1,0,0:0:0:0:
188,188,264388,1,0,0:0:0:0:
96,292,264560,1,0,0:0:0:0:
112,308,264731,1,0,0:0:0:0:
204,324,264903,5,0,0:0:0:0:
220,308,265074,1,0,0:0:0:0:
236,292,265245,1,0,0:0:0:0:
328,268,265418,1,0,0:0:0:0:
312,252,265588,1,0,0:0:0:0:
296,236,265760,1,0,0:0:0:0:
28,256,265932,2,0,P|88:184|152:196,1,135,8|0,0:0|0:0,0:0:0:0:
416,368,266275,5,0,0:0:0:0:
400,352,266446,1,0,0:0:0:0:
384,336,266617,1,0,0:0:0:0:
72,304,266789,1,0,0:0:0:0:
88,288,266960,1,0,0:0:0:0:
104,272,267132,1,0,0:0:0:0:
416,240,267303,1,0,0:0:0:0:
400,224,267475,1,0,0:0:0:0:
80,208,267646,5,0,0:0:0:0:
96,192,267817,1,0,0:0:0:0:
112,176,267989,1,0,0:0:0:0:
416,160,268160,1,0,0:0:0:0:
400,144,268332,1,0,0:0:0:0:
384,128,268503,1,0,0:0:0:0:
88,200,268675,1,0,0:0:0:0:
72,184,268846,1,2,0:0:0:0:
64,176,268932,1,2,0:0:0:0:
304,144,269017,6,0,P|372:160|364:248,1,135,6|6,0:0|0:0,0:0:0:0:
48,212,269532,2,0,P|52:168|140:132,1,135,6|0,0:0|0:0,0:0:0:0:
176,148,269875,1,6,0:0:0:0:
464,192,270046,6,0,P|464:128|240:88,1,315,6|0,0:0|0:0,0:0:0:0:
153,110,270732,2,0,P|100:172|236:308,1,315
80,239,271417,1,8,0:0:0:0:
421,223,271760,6,0,L|525:143,1,90,2|0,0:0|0:0,0:0:0:0:
312,168,272103,2,0,L|248:96,1,90
132,88,272446,2,0,L|228:80,2,90,2|0|0,0:0|0:0|0:0,0:0:0:0:
304,256,273132,6,0,P|344:216|176:152,1,360,2|2,0:0|0:0,0:0:0:0:
192,240,273989,1,0,0:0:0:0:
360,296,274160,1,0,0:0:0:0:
92,328,274503,2,0,P|52:288|116:180,1,180,2|0,0:0|0:0,0:0:0:0:
352,264,275189,6,0,L|464:224,2,90,2|0|0,0:0|0:0|0:0,0:0:0:0:
40,232,275875,2,0,P|48:168|168:120,1,180,2|0,0:0|0:0,0:0:0:0:
380,208,276560,2,0,P|436:144|356:88,1,180,2|0,0:0|0:0,0:0:0:0:
128,128,277246,2,0,P|72:192|112:280,1,180,2|0,0:0|0:0,0:0:0:0:
344,216,277932,6,0,L|448:200,1,90,2|0,0:0|0:0,0:0:0:0:
256,216,278275,1,0,0:0:0:0:
484,172,278617,2,0,P|468:236|384:324,1,180,2|0,0:0|0:0,0:0:0:0:
128,224,279303,6,0,L|211:258,2,90,2|0|0,0:0|0:0|0:0,0:0:0:0:
428,216,279989,1,2,0:0:0:0:
352,168,280160,1,0,0:0:0:0:
248,156,280332,1,0,0:0:0:0:
400,156,280503,1,0,0:0:0:0:
320,196,280675,1,2,0:0:0:0:
328,72,280846,1,0,0:0:0:0:
180,120,281017,1,0,0:0:0:0:
120,184,281189,1,0,0:0:0:0:
192,236,281360,5,2,0:0:0:0:
336,224,281532,1,0,0:0:0:0:
376,132,281703,1,0,0:0:0:0:
308,104,281875,1,0,0:0:0:0:
64,152,282046,1,2,0:0:0:0:
152,228,282217,1,0,0:0:0:0:
408,216,282389,1,8,0:0:0:0:
328,152,282560,1,0,0:0:0:0:
64,152,282732,6,0,L|136:88,2,90,6|0|0,0:0|0:0|0:0,0:0:0:0:
200,200,283246,2,0,L|304:264,2,90,0|2|0,0:0|0:0|0:0,0:0:0:0:
320,176,283760,1,0,0:0:0:0:
48,192,284103,2,0,P|32:148|124:72,1,180,2|0,0:0|0:0,0:0:0:0:
436,296,284789,6,0,L|356:339,2,90,2|0|0,0:0|0:0|0:0,0:0:0:0:
236,336,285475,6,0,P|172:296|316:160,1,360,2|2,0:0|0:0,0:0:0:0:
228,264,286332,2,0,L|324:216,1,90
76,280,286846,2,0,P|44:224|132:128,1,180,2|0,0:0|0:0,0:0:0:0:
352,288,287532,2,0,P|420:236|448:120,1,180,2|0,0:0|0:0,0:0:0:0:
200,88,288217,6,0,P|120:104|208:304,1,360,2|2,0:0|0:0,0:0:0:0:
316,312,289246,1,0,0:0:0:0:
456,304,289589,6,0,P|480:248|264:160,1,360,2|2,0:0|0:0,0:0:0:0:
104,182,290446,2,0,L|99:292,1,90
336,152,290960,2,0,P|416:176|336:376,1,360,2|2,0:0|0:0,0:0:0:0:
160,336,291989,1,0,0:0:0:0:
32,224,292332,6,0,P|24:176|256:88,1,360,2|2,0:0|0:0,0:0:0:0:
368,192,293360,1,8,0:0:0:0:
120,208,293703,6,0,P|64:176|112:64,1,198.000006042481,2|0,0:0|0:0,0:0:0:0:
256,56,294217,2,0,P|312:88|272:216,1,198.000006042481,2|0,0:0|0:0,0:0:0:0:
128,208,294732,2,0,L|32:184,2,99.0000030212403,2|0|0,0:0|0:0|0:0,0:0:0:0:
296,208,295246,6,0,L|400:176,2,99.0000030212403,2|0|0,0:0|0:0|0:0,0:0:0:0:
128,200,295760,2,0,L|40:152,1,99.0000030212403,2|0,0:0|0:0,0:0:0:0:
208,88,296103,1,2,0:0:0:0:
120,64,296275,1,2,0:0:0:0:
104,24,296360,1,2,0:0:0:0:
392,112,296446,5,2,0:0:0:0:
480,88,296617,1,0,0:0:0:0:
488,32,296789,1,0,0:0:0:0:
320,40,296960,1,2,0:0:0:0:
224,72,297132,1,0,0:0:0:0:
208,128,297303,1,0,0:0:0:0:
368,160,297475,6,0,L|480:144,2,99.0000030212403,2|0|0,0:0|0:0|0:0,0:0:0:0:
200,160,297989,2,0,L|88:136,2,99.0000030212403,2|0|0,0:0|0:0|0:0,0:0:0:0:
368,152,298503,2,0,L|472:200,1,99.0000030212403,2|0,0:0|0:0,0:0:0:0:
216,304,298846,2,0,L|120:280,1,99.0000030212403,2|0,0:0|0:0,0:0:0:0:
400,224,299189,6,0,P|440:176|296:72,1,297.000009063721,6|0,0:0|0:0,0:0:0:0:
144,80,299875,2,0,P|80:120|104:256,1,198.000006042481,2|0,0:0|0:0,0:0:0:0:
144,312,300389,1,0,0:0:0:0:
248,328,300560,5,0,0:0:0:0:
416,328,300732,1,2,0:0:0:0:
368,240,300903,1,0,0:0:0:0:
240,208,301075,1,0,0:0:0:0:
400,176,301246,2,0,L|512:144,1,99.0000030212403,2|0,0:0|0:0,0:0:0:0:
336,128,301589,2,0,L|224:112,1,99.0000030212403,2|2,0:0|0:0,0:0:0:0:
296,96,301846,1,2,0:0:0:0:
480,104,301932,5,2,0:0:0:0:
416,192,302103,1,0,0:0:0:0:
280,240,302275,1,0,0:0:0:0:
120,240,302446,1,2,0:0:0:0:
184,152,302617,1,0,0:0:0:0:
320,104,302789,1,0,0:0:0:0:
168,112,302960,2,0,L|256:63,2,99.0000030212403,2|0|0,0:0|0:0|0:0,0:0:0:0:
328,136,303475,6,0,L|212:177,2,99.0000030212403,2|0|0,0:0|0:0|0:0,0:0:0:0:
168,128,303989,2,0,P|112:168|144:264,1,148.50000453186,2|0,0:0|0:0,0:0:0:0:
320,264,304332,2,0,L|432:256,1,99.0000030212403,2|0,0:0|0:0,0:0:0:0:
176,224,304675,6,0,P|64:152|176:48,1,297.000009063721,6|0,0:0|0:0,0:0:0:0:
248,56,305360,1,0,0:0:0:0:
184,160,305532,1,0,0:0:0:0:
352,192,305703,1,2,0:0:0:0:
440,168,305875,1,0,0:0:0:0:
480,80,306046,5,0,0:0:0:0:
320,88,306217,2,0,L|200:128,2,99.0000030212403,2|0|0,0:0|0:0|0:0,0:0:0:0:
480,80,306732,2,0,L|368:56,1,99.0000030212403,2|0,0:0|0:0,0:0:0:0:
256,128,307075,1,2,0:0:0:0:
368,112,307246,2,0,L|424:96,1,49.5000015106202,2|2,0:0|0:0,0:0:0:0:
192,112,307417,6,0,L|88:96,2,99.0000030212403,2|0|0,0:0|0:0|0:0,0:0:0:0:
352,128,307932,2,0,L|480:184,2,99.0000030212403,2|0|0,0:0|0:0|0:0,0:0:0:0:
200,120,308446,2,0,L|128:216,1,99.0000030212403,2|0,0:0|0:0,0:0:0:0:
304,208,308789,6,0,L|384:304,1,99.0000030212403,2|0,0:0|0:0,0:0:0:0:
204,328,309132,2,0,L|124:260,1,99.0000030212403,2|0,0:0|0:0,0:0:0:0:
304,256,309475,2,0,L|408:232,1,99.0000030212403,2|0,0:0|0:0,0:0:0:0:
152,224,309817,2,0,L|-4:224,1,148.50000453186,2|0,0:0|0:0,0:0:0:0:
336,160,310160,6,0,L|448:160,2,99.0000030212403,2|0|0,0:0|0:0|0:0,0:0:0:0:
80,160,310675,2,0,L|152:80,1,99.0000030212403,2|0,0:0|0:0,0:0:0:0:
272,88,311017,1,0,0:0:0:0:
504,192,311189,1,2,0:0:0:0:
464,104,311360,1,0,0:0:0:0:
352,64,311532,5,0,0:0:0:0:
88,88,311703,2,0,L|16:160,2,99.0000030212403,2|0|0,0:0|0:0|0:0,0:0:0:0:
344,136,312217,2,0,L|262:81,2,99.0000030212403,2|0|0,0:0|0:0|0:0,0:0:0:0:
208,112,312732,2,0,L|152:112,1,49.5000015106202,2|0,0:0|0:0,0:0:0:0:
352,312,312903,6,0,L|432:312,1,62.9999980773926,2|0,0:0|0:0,0:0:0:0:
416,276,313075,2,0,L|345:276,1,62.9999980773926,2|0,0:0|0:0,0:0:0:0:
290,276,313246,2,0,L|354:276,1,62.9999980773926,2|0,0:0|0:0,0:0:0:0:
132,240,313417,6,0,L|68:240,1,62.9999980773926,2|0,0:0|0:0,0:0:0:0:
72,200,313589,2,0,L|140:200,1,62.9999980773926,2|0,0:0|0:0,0:0:0:0:
198,200,313760,2,0,L|134:200,1,62.9999980773926,2|0,0:0|0:0,0:0:0:0:
340,176,313932,2,0,L|404:176,1,62.9999980773926,2|0,0:0|0:0,0:0:0:0:
340,144,314103,2,0,L|276:144,1,62.9999980773926,2|0,0:0|0:0,0:0:0:0:
472,108,314275,2,0,L|497:40,1,62.9999980773926
308,84,314446,6,0,B|36:20|36:20|132:116|132:212|132:212|132:276|36:356|36:356|356:308,1,990
176,344,316675,1,0,0:0:0:0:
280,320,316846,2,0,L|336:312,1,45,2|2,0:0|0:0,0:0:0:0:
128,296,317017,5,0,0:0:0:0:
113,279,317059,1,0,0:0:0:0:
101,260,317102,1,0,0:0:0:0:
93,239,317145,1,0,0:0:0:0:
88,217,317188,1,0,0:0:0:0:
87,194,317231,1,0,0:0:0:0:
91,172,317274,1,0,0:0:0:0:
98,151,317317,1,0,0:0:0:0:
109,131,317359,5,0,0:0:0:0:
123,113,317402,1,0,0:0:0:0:
140,99,317445,1,0,0:0:0:0:
159,87,317488,1,0,0:0:0:0:
180,79,317531,1,0,0:0:0:0:
202,74,317574,1,0,0:0:0:0:
224,74,317617,1,0,0:0:0:0:
246,77,317659,1,0,0:0:0:0:
268,85,317703,5,0,0:0:0:0:
392,144,317875,1,0,0:0:0:0:
144,248,318046,1,0,0:0:0:0:
130,230,318088,1,0,0:0:0:0:
124,208,318131,1,0,0:0:0:0:
124,186,318174,1,0,0:0:0:0:
133,165,318217,1,0,0:0:0:0:
148,148,318260,1,0,0:0:0:0:
167,138,318303,1,0,0:0:0:0:
416,288,318389,6,0,P|496:208|480:176,1,161.999995056153,6|0,0:0|0:0,0:0:0:0:
256,176,318732,1,8,0:0:0:0:
352,176,318903,2,0,L|416:176,1,53.9999983520508,0|0,0:0|0:0,0:0:0:0:
352,128,319075,2,0,L|288:128,1,53.9999983520508,0|0,0:0|0:0,0:0:0:0:
480,112,319246,1,2,0:0:0:0:
224,128,319417,2,0,L|192:80,1,53.9999983520508,8|0,0:0|0:0,0:0:0:0:
272,80,319589,2,0,L|304:128,1,53.9999983520508,0|0,0:0|0:0,0:0:0:0:
96,128,319760,6,0,P|48:176|80:256,1,161.999995056153,2|0,0:0|0:0,0:0:0:0:
256,256,320103,2,0,L|384:240,1,107.999996704102,8|0,0:0|0:0,0:0:0:0:
112,192,320446,2,0,L|0:160,1,107.999996704102,2|0,0:0|0:0,0:0:0:0:
352,112,320789,2,0,P|352:180|252:224,1,161.999995056153,8|0,0:0|0:0,0:0:0:0:
80,232,321132,6,0,P|32:200|64:88,1,161.999995056153,2|0,0:0|0:0,0:0:0:0:
232,108,321475,1,8,0:0:0:0:
376,108,321646,2,0,L|404:156,1,53.9999983520508
328,156,321817,2,0,L|300:108,1,53.9999983520508,2|0,0:0|0:0,0:0:0:0:
376,108,321989,1,0,0:0:0:0:
132,108,322160,2,0,P|56:148|52:216,1,161.999995056153,8|0,0:0|0:0,0:0:0:0:
224,240,322503,6,0,L|96:224,1,107.999996704102,6|0,0:0|0:0,0:0:0:0:
160,176,322760,1,0,0:0:0:0:
384,144,322846,1,8,0:0:0:0:
496,112,323017,2,0,L|368:80,2,107.999996704102,0|2|0,0:0|0:0|0:0,0:0:0:0:
224,176,323532,2,0,L|80:224,1,107.999996704102,8|0,0:0|0:0,0:0:0:0:
400,224,323875,6,0,P|480:240|496:320,1,161.999995056153,2|0,0:0|0:0,0:0:0:0:
272,304,324217,2,0,L|128:272,1,107.999996704102,8|0,0:0|0:0,0:0:0:0:
464,256,324560,2,0,P|480:176|432:144,1,107.999996704102,2|0,0:0|0:0,0:0:0:0:
304,160,324817,2,0,P|256:128|224:64,1,107.999996704102,8|0,0:0|0:0,0:0:0:0:
400,64,325075,2,0,L|464:64,1,53.9999983520508,8|0,0:0|0:0,0:0:0:0:
256,64,325246,6,0,L|128:96,1,107.999996704102,2|0,0:0|0:0,0:0:0:0:
208,128,325503,1,0,0:0:0:0:
416,144,325589,2,0,L|496:224,2,107.999996704102,8|2|0,0:0|0:0|0:0,0:0:0:0:
128,176,326103,1,0,0:0:0:0:
416,160,326275,2,0,L|528:272,1,107.999996704102,8|0,0:0|0:0,0:0:0:0:
208,288,326617,6,0,L|32:208,1,161.999995056153,2|0,0:0|0:0,0:0:0:0:
48,176,326960,1,0,0:0:0:0:
288,176,327132,2,0,P|368:128|352:352,1,485.999985168458,2|0,0:0|0:0,0:0:0:0:
96,288,327989,5,2,0:0:0:0:
69,287,328031,1,0,0:0:0:0:
44,277,328074,1,0,0:0:0:0:
25,258,328117,1,0,0:0:0:0:
15,233,328160,1,0,0:0:0:0:
16,206,328203,1,0,0:0:0:0:
27,182,328246,1,0,0:0:0:0:
256,176,328332,1,8,0:0:0:0:
160,176,328503,2,0,L|96:176,1,53.9999983520508,0|0,0:0|0:0,0:0:0:0:
160,128,328675,2,0,L|224:128,1,53.9999983520508
32,112,328846,1,2,0:0:0:0:
288,128,329017,2,0,L|320:80,1,53.9999983520508,8|0,0:0|0:0,0:0:0:0:
224,80,329189,2,0,L|192:128,1,53.9999983520508
416,128,329360,6,0,P|464:176|432:256,1,161.999995056153,2|0,0:0|0:0,0:0:0:0:
256,256,329703,2,0,L|128:240,1,107.999996704102,8|0,0:0|0:0,0:0:0:0:
208,224,329960,1,0,0:0:0:0:
400,192,330046,2,0,L|512:160,1,107.999996704102,2|0,0:0|0:0,0:0:0:0:
448,144,330303,1,0,0:0:0:0:
160,112,330389,2,0,P|80:128|48:240,1,161.999995056153,8|0,0:0|0:0,0:0:0:0:
272,256,330732,6,0,P|320:224|288:112,1,161.999995056153,2|0,0:0|0:0,0:0:0:0:
144,112,331075,1,8,0:0:0:0:
288,112,331246,2,0,L|316:160,1,53.9999983520508
240,160,331417,2,0,L|208:112,1,53.9999983520508
288,112,331589,1,2,0:0:0:0:
32,112,331760,2,0,P|32:192|96:240,1,161.999995056153,8|0,0:0|0:0,0:0:0:0:
288,240,332103,6,0,L|416:224,1,107.999996704102,6|0,0:0|0:0,0:0:0:0:
352,176,332360,1,0,0:0:0:0:
128,144,332446,1,8,0:0:0:0:
16,112,332617,2,0,P|80:64|224:96,1,215.999993408203,2|0,0:0|0:0,0:0:0:0:
480,224,333132,2,0,L|378:189,1,107.999996704102,2|0,0:0|0:0,0:0:0:0:
112,208,333475,6,0,L|-16:256,1,107.999996704102,2|0,0:0|0:0,0:0:0:0:
64,272,333732,1,0,0:0:0:0:
240,304,333817,2,0,L|384:272,1,107.999996704102,8|0,0:0|0:0,0:0:0:0:
240,240,334160,2,0,L|176:240,1,53.9999983520508
240,192,334332,2,0,L|304:192,1,53.9999983520508,2|0,0:0|0:0,0:0:0:0:
96,160,334503,2,0,L|32:160,1,53.9999983520508,8|0,0:0|0:0,0:0:0:0:
48,128,334675,2,0,L|112:128,1,53.9999983520508,0|0,0:0|0:0,0:0:0:0:
352,144,334846,6,0,L|392:248,1,107.999996704102,2|0,0:0|0:0,0:0:0:0:
240,284,335189,2,0,L|116:284,1,107.999996704102,8|0,0:0|0:0,0:0:0:0:
304,240,335532,2,0,P|368:240|432:144,1,161.999995056153,2|0,0:0|0:0,0:0:0:0:
116,132,335875,2,0,P|148:84|260:84,1,161.999995056153,8|0,0:0|0:0,0:0:0:0:
480,112,336217,6,0,L|368:144,1,107.999996704102,2|2,0:0|0:0,0:0:0:0:
101,210,336560,1,8,0:0:0:0:
375,245,336732,2,0,L|503:197,1,107.999996704102,2|2,0:0|0:0,0:0:0:0:
129,143,337075,1,8,0:0:0:0:
384,224,337246,2,0,L|512:192,1,107.999996704102,2|2,0:0|0:0,0:0:0:0:
130,238,337589,2,0,L|114:122,1,107.999996704102,2|0,0:0|0:0,0:0:0:0:
400,256,337932,6,0,L|496:216,1,90,2|0,0:0|0:0,0:0:0:0:
300,216,338275,2,0,L|383:182,1,90,2|0,0:0|0:0,0:0:0:0:
140,168,338617,2,0,L|57:202,1,90,2|0,0:0|0:0,0:0:0:0:
372,104,338960,6,0,P|448:148|360:292,1,270,2|0,0:0|0:0,0:0:0:0:
80,272,339646,2,0,P|48:216|192:120,1,270,2|0,0:0|0:0,0:0:0:0:
424,160,340332,6,0,P|412:248|132:240,1,405.000015449525,2|0,0:0|0:0,0:0:0:0:
480,308,341017,2,0,P|480:236|288:184,1,270,2|0,0:0|0:0,0:0:0:0:
32,176,341703,6,0,P|24:120|192:64,1,270,2|0,0:0|0:0,0:0:0:0:
448,80,342389,2,0,P|480:176|392:232,1,180,2|0,0:0|0:0,0:0:0:0:
352,240,342903,1,0,0:0:0:0:
96,256,343075,5,2,0:0:0:0:
16,224,343246,2,0,P|16:160|128:128,1,180
448,128,343760,2,0,L|336:104,1,90,2|0,0:0|0:0,0:0:0:0:
192,96,344103,2,0,L|88:72,1,90,0|0,0:0|0:0,0:0:0:0:
360,64,344446,6,0,P|416:80|392:272,1,270,2|0,0:0|0:0,0:0:0:0:
128,272,345132,2,0,P|56:200|232:128,1,360,2|0,0:0|0:0,0:0:0:0:
352,184,345646,1,0,0:0:0:0:
80,256,345817,6,0,L|16:176,2,90,2|0|0,0:0|0:0|0:0,0:0:0:0:
184,272,346332,1,0,0:0:0:0:
428,276,346503,2,0,L|444:172,1,90,2|0,0:0|0:0,0:0:0:0:
328,160,346846,2,0,L|432:144,1,90
164,132,347189,6,0,L|52:152,1,90,2|0,0:0|0:0,0:0:0:0:
40,184,347446,1,0,0:0:0:0:
64,240,347532,2,0,L|152:288,1,90
424,280,347875,2,0,L|384:200,1,90,2|0,0:0|0:0,0:0:0:0:
248,192,348217,2,0,L|144:196,1,90
408,192,348560,6,0,P|460:144|328:32,1,270,2|0,0:0|0:0,0:0:0:0:
40,80,349246,2,0,L|144:64,1,90,2|0,0:0|0:0,0:0:0:0:
472,152,349589,2,0,L|376:136,1,90,8|0,0:0|0:0,0:0:0:0:
328,136,349846,1,0,0:0:0:0:
112,160,349932,6,0,P|64:200|160:296,1,198.000006042481,2|2,0:0|0:0,0:0:0:0:
232,304,350446,1,0,0:0:0:0:
464,312,350617,2,0,P|480:256|360:168,1,198.000006042481,2|2,0:0|0:0,0:0:0:0:
88,200,351303,5,2,0:0:0:0:
200,152,351475,1,0,0:0:0:0:
160,128,351560,1,0,0:0:0:0:
144,96,351646,1,2,0:0:0:0:
160,72,351732,1,0,0:0:0:0:
368,64,351817,2,0,P|440:112|384:200,1,198.000006042481
128,192,352332,1,2,0:0:0:0:
240,152,352503,2,0,L|296:144,1,49.5000015106202,0|0,0:0|0:0,0:0:0:0:
128,128,352675,5,2,0:0:0:0:
80,168,352760,1,0,0:0:0:0:
88,224,352846,1,0,0:0:0:0:
144,264,352932,1,0,0:0:0:0:
420,256,353017,1,2,0:0:0:0:
476,192,353132,1,0,0:0:0:0:
452,112,353246,1,0,0:0:0:0:
196,128,353360,5,2,0:0:0:0:
132,176,353475,1,0,0:0:0:0:
148,240,353589,1,0,0:0:0:0:
344,232,353703,2,0,L|404:258,2,66.0000020141602,2|0|0,0:0|0:0|0:0,0:0:0:0:
112,272,354046,6,0,L|50:296,2,66.0000020141602,2|0|0,0:0|0:0|0:0,0:0:0:0:
352,220,354389,1,2,0:0:0:0:
348,140,354503,1,0,0:0:0:0:
252,116,354617,1,0,0:0:0:0:
64,164,354732,5,2,0:0:0:0:
88,76,354846,1,0,0:0:0:0:
208,60,354960,1,0,0:0:0:0:
332,64,355075,2,0,L|428:80,2,66.0000020141602,2|0|0,0:0|0:0|0:0,0:0:0:0:
208,60,355417,5,2,0:0:0:0:
488,200,355589,2,0,L|288:268,1,198.000006042481
119,273,356103,1,2,0:0:0:0:
169,249,356189,1,0,0:0:0:0:
219,201,356275,1,0,0:0:0:0:
470,200,356446,1,2,0:0:0:0:
240,216,356789,6,0,L|128:184,1,99.0000030212403,2|0,0:0|0:0,0:0:0:0:
408,176,357132,2,0,L|344:96,1,99.0000030212403,2|0,0:0|0:0,0:0:0:0:
96,88,357475,2,0,L|299:109,1,198.000006042481,2|0,0:0|0:0,0:0:0:0:
408,240,357989,2,0,L|358:240,1,49.5000015106202,2|2,0:0|0:0,0:0:0:0:
151,240,358160,6,0,L|93:238,1,49.5000015106202,6|0,0:0|0:0,0:0:0:0:
256,206,358332,2,0,L|316:210,1,49.5000015106202,2|0,0:0|0:0,0:0:0:0:
256,206,358503,2,0,L|207:203,1,49.5000015106202,2|0,0:0|0:0,0:0:0:0:
386,182,358675,2,0,L|445:177,1,49.5000015106202,6|0,0:0|0:0,0:0:0:0:
218,132,358846,2,0,L|156:138,1,49.5000015106202,2|0,0:0|0:0,0:0:0:0:
218,132,359017,2,0,L|277:126,1,49.5000015106202,2|0,0:0|0:0,0:0:0:0:
32,208,359189,6,0,L|128:136,1,99.0000030212403,6|0,0:0|0:0,0:0:0:0:
360,104,359532,6,0,P|424:112|328:312,1,396.000012084961,6|0,0:0|0:0,0:0:0:0:
240,280,360389,1,0,0:0:0:0:
160,208,360560,1,0,0:0:0:0:
384,192,360903,5,2,0:0:0:0:
448,144,361075,1,0,0:0:0:0:
400,64,361246,1,0,0:0:0:0:
304,32,361417,1,0,0:0:0:0:
160,32,361589,2,0,L|224:96,1,67.5000025749208,2|0,0:0|0:0,0:0:0:0:
72,128,361932,2,0,L|40:208,1,67.5000025749208,2|0,0:0|0:0,0:0:0:0:
184,136,362275,5,2,0:0:0:0:
276,168,362446,1,0,0:0:0:0:
276,264,362617,1,0,0:0:0:0:
192,304,362789,1,0,0:0:0:0:
48,304,362960,2,0,L|80:224,1,67.5000025749208,2|0,0:0|0:0,0:0:0:0:
208,236,363303,2,0,L|240:172,1,67.5000025749208,2|0,0:0|0:0,0:0:0:0:
96,160,363646,5,2,0:0:0:0:
192,208,363817,1,0,0:0:0:0:
176,320,363989,1,0,0:0:0:0:
80,352,364160,1,0,0:0:0:0:
208,352,364332,2,0,L|142:365,2,67.5000025749208,2|0|2,0:0|0:0|0:0,0:0:0:0:
80,352,364846,1,0,0:0:0:0:
256,288,365017,5,2,0:0:0:0:
304,224,365189,1,0,0:0:0:0:
288,176,365275,1,0,0:0:0:0:
240,144,365360,1,0,0:0:0:0:
144,144,365532,1,0,0:0:0:0:
288,128,365703,2,0,L|336:80,1,67.5000025749208,2|0,0:0|0:0,0:0:0:0:
192,80,366046,2,0,L|144:32,1,67.5000025749208,2|0,0:0|0:0,0:0:0:0:
288,48,366389,5,2,0:0:0:0:
208,128,366560,1,0,0:0:0:0:
192,240,366732,1,0,0:0:0:0:
304,320,366903,1,0,0:0:0:0:
160,320,367075,2,0,L|208:272,1,67.5000025749208,2|0,0:0|0:0,0:0:0:0:
352,272,367417,2,0,L|304:224,1,67.5000025749208,2|0,0:0|0:0,0:0:0:0:
160,224,367760,5,2,0:0:0:0:
80,176,367932,1,0,0:0:0:0:
112,80,368103,1,0,0:0:0:0:
208,64,368275,1,0,0:0:0:0:
352,96,368446,2,0,L|448:144,2,101.250003862381,2|0|2,0:0|0:0|0:0,0:0:0:0:
208,80,369132,5,2,0:0:0:0:
128,128,369303,1,0,0:0:0:0:
112,256,369475,1,0,0:0:0:0:
224,320,369646,1,0,0:0:0:0:
368,320,369817,2,0,L|448:304,3,67.5000025749208,2|0|2|0,0:0|0:0|0:0|0:0,0:0:0:0:
288,272,370503,5,2,0:0:0:0:
208,208,370675,1,0,0:0:0:0:
264,128,370846,1,0,0:0:0:0:
400,128,371017,1,2,0:0:0:0:
352,48,371189,1,0,0:0:0:0:
256,32,371360,1,0,0:0:0:0:
112,48,371532,2,0,L|32:80,1,67.5000025749208,2|0,0:0|0:0,0:0:0:0:
336,80,371875,6,0,P|440:112|328:256,1,306.000005836487,2|0,0:0|0:0,0:0:0:0:
296,288,372732,1,0,0:0:0:0:
128,288,372903,2,0,L|48:236,1,76.5000014591217
312,184,373246,6,0,P|185:117|76:211,1,306.000005836487,2|0,0:0|0:0,0:0:0:0:
104,292,374103,1,0,0:0:0:0:
364,308,374275,2,0,L|448:252,1,76.5000014591217
192,264,374617,6,0,P|112:240|176:64,1,306.000005836487,2|0,0:0|0:0,0:0:0:0:
296,56,375475,1,0,0:0:0:0:
156,128,375646,1,0,0:0:0:0:
300,152,375817,1,0,0:0:0:0:
20,272,375989,6,0,P|28:216|180:112,1,229.500004377365,2|0,0:0|0:0,0:0:0:0:
252,112,376846,1,0,0:0:0:0:
76,168,377017,2,0,L|-16:152,1,76.5000014591217
248,68,377360,6,0,P|320:140|248:316,1,306.000005836487,2|0,0:0|0:0,0:0:0:0:
112,320,378217,1,0,0:0:0:0:
272,232,378389,2,0,L|288:132,1,76.5000014591217
112,164,378732,6,0,P|176:220|368:132,1,306.000005836487,2|0,0:0|0:0,0:0:0:0:
336,80,379589,1,0,0:0:0:0:
176,144,379760,2,0,L|96:144,1,76.5000014591217
228,68,380103,6,0,P|284:52|436:328,1,450,2|0,0:0|0:0,0:0:0:0:
168,336,382160,1,0,0:0:0:0:
416,336,382503,1,0,0:0:0:0:
216,304,382846,6,0,P|132:284|72:120,1,270,2|0,0:0|0:0,0:0:0:0:
304,108,384046,6,0,P|376:124|176:324,1,630,2|0,0:0|0:0,0:0:0:0:
256,192,386789,12,0,390046,0:0:0:0:
216,272,390389,5,0,0:0:0:0:
76,232,390560,1,0,0:0:0:0:
384,176,390732,2,0,P|424:148|384:64,1,135
224,208,391075,6,0,L|240:160,1,45,2|0,0:0|0:0,0:0:0:0:
324,164,391246,2,0,L|309:206,1,45
64,208,391417,6,0,L|36:152,1,45,8|0,0:0|0:0,0:0:0:0:
72,144,391589,2,0,L|117:124,1,45
352,176,391760,2,0,L|384:144,1,45,2|0,0:0|0:0,0:0:0:0:
240,144,391932,2,0,L|208:112,1,45,0|0,0:0|0:0,0:0:0:0:
416,128,392103,2,0,L|480:128,1,45,8|0,0:0|0:0,0:0:0:0:
464,80,392275,2,0,L|400:80,1,45,0|0,0:0|0:0,0:0:0:0:
232,128,392446,6,0,L|168:124,1,45,2|0,0:0|0:0,0:0:0:0:
132,88,392617,2,0,L|96:44,1,45
328,96,392789,2,0,L|384:96,1,45,8|0,0:0|0:0,0:0:0:0:
328,64,392960,2,0,L|248:64,1,45,0|0,0:0|0:0,0:0:0:0:
448,64,393132,6,0,L|496:64,1,45,2|0,0:0|0:0,0:0:0:0:
208,120,393303,2,0,L|144:120,1,45,0|0,0:0|0:0,0:0:0:0:
336,160,393475,1,8,0:0:0:0:
376,180,393560,1,0,0:0:0:0:
394,220,393646,1,0,0:0:0:0:
382,263,393732,1,0,0:0:0:0:
176,272,393817,6,0,L|128:272,1,45,2|0,0:0|0:0,0:0:0:0:
176,240,393989,2,0,L|224:240,1,45,0|0,0:0|0:0,0:0:0:0:
64,224,394160,1,8,0:0:0:0:
16,192,394246,1,0,0:0:0:0:
32,128,394332,1,0,0:0:0:0:
84,112,394417,1,0,0:0:0:0:
228,108,394503,6,0,L|273:108,1,45,2|0,0:0|0:0,0:0:0:0:
436,108,394675,2,0,L|500:108,1,45
240,80,394846,1,8,0:0:0:0:
198,92,394932,1,0,0:0:0:0:
168,125,395017,1,0,0:0:0:0:
161,169,395103,1,0,0:0:0:0:
328,176,395189,5,2,0:0:0:0:
371,188,395275,1,0,0:0:0:0:
401,221,395360,1,0,0:0:0:0:
408,265,395446,1,0,0:0:0:0:
200,280,395532,2,0,L|128:272,1,45,8|0,0:0|0:0,0:0:0:0:
244,256,395703,2,0,L|292:248,1,45
47,195,395875,6,0,L|29:154,1,45,2|0,0:0|0:0,0:0:0:0:
115,144,396046,2,0,L|133:186,1,45,0|0,0:0|0:0,0:0:0:0:
280,200,396217,2,0,L|340:200,1,45,8|0,0:0|0:0,0:0:0:0:
280,200,396389,2,0,L|216:200,1,45,0|0,0:0|0:0,0:0:0:0:
40,288,396560,5,2,0:0:0:0:
24,256,396646,1,0,0:0:0:0:
40,224,396732,1,0,0:0:0:0:
104,208,396817,1,0,0:0:0:0:
288,216,396903,2,0,L|360:208,1,45,8|0,0:0|0:0,0:0:0:0:
244,192,397075,2,0,L|196:184,1,45
379,130,397246,6,0,L|403:186,1,45,2|0,0:0|0:0,0:0:0:0:
220,156,397417,2,0,L|196:100,1,45
454,182,397589,2,0,L|478:238,1,45,8|0,0:0|0:0,0:0:0:0:
432,248,397760,2,0,L|354:250,1,45,0|0,0:0|0:0,0:0:0:0:
192,208,397932,5,2,0:0:0:0:
128,176,398017,1,0,0:0:0:0:
104,104,398103,1,0,0:0:0:0:
160,56,398189,1,0,0:0:0:0:
344,88,398275,2,0,L|392:88,1,45,8|0,0:0|0:0,0:0:0:0:
392,136,398446,2,0,L|344:136,1,45,0|0,0:0|0:0,0:0:0:0:
120,136,398617,6,0,L|48:160,2,45,2|0|0,0:0|0:0|0:0,0:0:0:0:
280,200,398875,1,8,0:0:0:0:
328,152,398960,1,0,0:0:0:0:
376,104,399046,1,0,0:0:0:0:
88,144,399132,2,0,L|8:144,1,45,8|0,0:0|0:0,0:0:0:0:
224,208,399303,6,0,L|240:160,1,45,2|0,0:0|0:0,0:0:0:0:
148,236,399475,2,0,L|133:278,1,45
220,288,399646,6,0,L|276:280,1,45,8|0,0:0|0:0,0:0:0:0:
176,244,399817,2,0,L|109:232,1,45,0|0,0:0|0:0,0:0:0:0:
352,176,399989,2,0,L|384:144,1,45,2|0,0:0|0:0,0:0:0:0:
240,144,400160,2,0,L|208:112,1,45,0|0,0:0|0:0,0:0:0:0:
416,128,400332,2,0,L|480:112,1,45,8|0,0:0|0:0,0:0:0:0:
268,104,400503,2,0,L|204:88,1,45
460,117,400675,5,6,0:0:0:0:
352,176,400846,2,0,L|298:193,2,45
100,256,401189,1,6,0:0:0:0:
76,152,401360,1,0,0:0:0:0:
128,80,401532,1,0,0:0:0:0:
256,80,401703,1,6,0:0:0:0:
128,112,401875,2,0,L|48:112,1,45
336,272,402046,6,0,L|400:272,1,53.9999983520508,6|0,0:0|0:0,0:0:0:0:
336,240,402217,2,0,L|276:240,1,53.9999983520508
464,224,402389,1,8,0:0:0:0:
496,184,402475,1,0,0:0:0:0:
468,136,402560,1,0,0:0:0:0:
416,120,402646,1,0,0:0:0:0:
240,136,402732,6,0,L|292:120,1,53.9999983520508,2|0,0:0|0:0,0:0:0:0:
488,108,402903,2,0,L|412:104,1,53.9999983520508
228,112,403075,1,8,0:0:0:0:
186,124,403160,1,0,0:0:0:0:
156,157,403246,1,0,0:0:0:0:
149,201,403332,1,0,0:0:0:0:
316,208,403417,5,2,0:0:0:0:
359,220,403503,1,0,0:0:0:0:
389,253,403589,1,0,0:0:0:0:
396,297,403675,1,0,0:0:0:0:
240,316,403760,2,0,L|200:264,1,53.9999983520508,8|0,0:0|0:0,0:0:0:0:
312,268,403932,2,0,L|348:316,1,53.9999983520508
138,341,404103,6,0,L|190:353,1,53.9999983520508,2|0,0:0|0:0,0:0:0:0:
504,320,404275,2,0,L|436:300,1,53.9999983520508
240,280,404446,2,0,L|172:280,1,53.9999983520508,8|0,0:0|0:0,0:0:0:0:
240,280,404617,2,0,L|320:280,1,53.9999983520508
40,288,404789,5,2,0:0:0:0:
24,256,404875,1,0,0:0:0:0:
40,224,404960,1,0,0:0:0:0:
104,208,405046,1,0,0:0:0:0:
308,216,405132,2,0,L|272:168,1,53.9999983520508,8|0,0:0|0:0,0:0:0:0:
224,148,405303,2,0,L|148:148,1,53.9999983520508
348,144,405475,6,0,L|376:216,1,53.9999983520508,2|0,0:0|0:0,0:0:0:0:
200,264,405646,2,0,L|172:200,1,53.9999983520508
368,194,405817,2,0,L|398:260,1,53.9999983520508,8|0,0:0|0:0,0:0:0:0:
179,214,405989,2,0,L|149:148,1,53.9999983520508
320,208,406160,5,2,0:0:0:0:
384,176,406246,1,0,0:0:0:0:
408,104,406332,1,0,0:0:0:0:
352,56,406417,1,0,0:0:0:0:
168,88,406503,2,0,L|112:88,1,53.9999983520508,8|0,0:0|0:0,0:0:0:0:
288,88,406675,1,2,0:0:0:0:
344,120,406760,1,0,0:0:0:0:
320,168,406846,5,0,0:0:0:0:
264,144,406932,1,0,0:0:0:0:
96,128,407017,2,0,L|28:128,1,53.9999983520508,2|0,0:0|0:0,0:0:0:0:
264,128,407189,2,0,L|332:128,1,53.9999983520508,8|0,0:0|0:0,0:0:0:0:
320,88,407360,2,0,L|264:88,1,53.9999983520508
96,88,407532,5,2,0:0:0:0:
40,112,407617,1,0,0:0:0:0:
8,160,407703,1,0,0:0:0:0:
16,232,407789,1,0,0:0:0:0:
296,200,407875,1,8,0:0:0:0:
352,224,407960,1,0,0:0:0:0:
384,272,408046,1,0,0:0:0:0:
376,344,408132,1,0,0:0:0:0:
160,328,408217,6,0,L|136:260,1,53.9999983520508,2|0,0:0|0:0,0:0:0:0:
248,272,408389,2,0,L|268:336,1,53.9999983520508
104,328,408560,2,0,L|44:308,1,53.9999983520508,8|0,0:0|0:0,0:0:0:0:
76,260,408732,2,0,L|136:300,1,53.9999983520508
316,312,408903,6,0,L|336:256,1,53.9999983520508,2|0,0:0|0:0,0:0:0:0:
228,248,409075,2,0,L|216:192,1,53.9999983520508
396,200,409246,2,0,L|432:152,1,53.9999983520508,8|0,0:0|0:0,0:0:0:0:
324,152,409417,2,0,L|296:200,1,53.9999983520508
40,160,409589,5,2,0:0:0:0:
72,208,409675,1,0,0:0:0:0:
136,240,409760,1,0,0:0:0:0:
352,224,409846,1,8,0:0:0:0:
408,200,409932,1,0,0:0:0:0:
440,160,410017,1,0,0:0:0:0:
208,112,410103,2,0,L|132:112,1,53.9999983520508,8|0,0:0|0:0,0:0:0:0:
384,96,410275,6,0,L|440:96,1,53.9999983520508,6|0,0:0|0:0,0:0:0:0:
384,48,410446,2,0,L|328:48,1,53.9999983520508,2|0,0:0|0:0,0:0:0:0:
184,48,410617,2,0,L|128:48,1,53.9999983520508,8|0,0:0|0:0,0:0:0:0:
296,48,410789,2,0,L|352:48,1,53.9999983520508,2|0,0:0|0:0,0:0:0:0:
296,104,410960,6,0,L|240:104,1,53.9999983520508,2|0,0:0|0:0,0:0:0:0:
56,240,411132,2,0,L|0:208,1,53.9999983520508,8|0,0:0|0:0,0:0:0:0:
288,208,411303,2,0,L|308:156,1,53.9999983520508,2|0,0:0|0:0,0:0:0:0:
64,192,411475,2,0,L|8:120,1,53.9999983520508,2|0,0:0|0:0,0:0:0:0:
304,224,411646,6,0,L|344:184,1,53.9999983520508,10|0,0:0|0:0,0:0:0:0:
96,144,411817,2,0,L|116:88,1,53.9999983520508,2|0,0:0|0:0,0:0:0:0:
320,272,411989,2,0,L|376:256,1,53.9999983520508,8|0,0:0|0:0,0:0:0:0:
136,128,412160,2,0,L|192:80,1,53.9999983520508,2|0,0:0|0:0,0:0:0:0:
392,152,412332,6,0,L|460:152,1,53.9999983520508,8|0,0:0|0:0,0:0:0:0:
448,104,412503,2,0,L|395:104,1,53.9999983520508,2|0,0:0|0:0,0:0:0:0:
120,232,412675,2,8,L|64:232,1,53.9999983520508
320,136,412846,2,8,L|264:136,1,53.9999983520508
88,136,413017,6,0,L|80:80,1,53.9999983520508,2|0,0:0|0:0,0:0:0:0:
320,144,413189,2,0,L|372:104,1,53.9999983520508,2|0,0:0|0:0,0:0:0:0:
112,160,413360,2,0,L|92:104,1,53.9999983520508,8|0,0:0|0:0,0:0:0:0:
360,192,413532,2,0,L|408:112,1,53.9999983520508,2|0,0:0|0:0,0:0:0:0:
150,184,413703,6,0,L|104:144,1,53.9999983520508,2|0,0:0|0:0,0:0:0:0:
432,208,413875,2,0,L|408:148,1,53.9999983520508,8|0,0:0|0:0,0:0:0:0:
160,216,414046,2,0,L|100:196,1,53.9999983520508,2|0,0:0|0:0,0:0:0:0:
488,224,414217,2,0,L|432:176,1,53.9999983520508,2|0,0:0|0:0,0:0:0:0:
200,256,414389,6,0,L|124:252,1,53.9999983520508,8|0,0:0|0:0,0:0:0:0:
496,240,414560,2,0,L|416:224,1,53.9999983520508,2|0,0:0|0:0,0:0:0:0:
192,160,414732,2,0,L|136:160,1,53.9999983520508,2|0,0:0|0:0,0:0:0:0:
136,120,414903,2,0,L|192:120,1,53.9999983520508,8|0,0:0|0:0,0:0:0:0:
384,120,415075,6,0,L|304:120,1,53.9999983520508,2|0,0:0|0:0,0:0:0:0:
152,208,415246,2,0,L|68:208,1,53.9999983520508,2|0,0:0|0:0,0:0:0:0:
432,236,415417,2,8,L|340:236,1,53.9999983520508
100,144,415589,2,8,L|44:144,1,53.9999983520508
364,52,415760,6,0,P|461:135|145:211,1,720,6|0,0:0|0:0,0:0:0:0:
312,96,417475,1,0,0:0:0:0:
136,56,417817,1,0,0:0:0:0:
332,60,418160,1,0,0:0:0:0:
120,112,418503,6,0,P|154:279|319:319,1,360,6|0,0:0|0:0,0:0:0:0:
312,224,419875,6,0,L|216:160,1,90,2|0,0:0|0:0,0:0:0:0:
424,160,420132,2,0,L|328:96,1,90,2|0,0:0|0:0,0:0:0:0:
136,168,420389,2,0,L|59:121,1,90,2|2,0:0|0:0,0:0:0:0:
416,128,420732,2,0,L|496:56,2,90,2|2|2,0:0|0:0|0:0,0:0:0:0:
96,144,421246,5,6,0:0:0:0:
320,112,421589,1,0,0:0:0:0:
346,117,421631,1,0,0:0:0:0:
369,130,421674,1,0,0:0:0:0:
388,149,421717,1,0,0:0:0:0:
401,173,421760,1,0,0:0:0:0:
406,200,421803,1,0,0:0:0:0:
403,226,421846,1,0,0:0:0:0:
392,251,421889,1,0,0:0:0:0:
375,272,421931,1,0,0:0:0:0:
288,320,422103,1,0,0:0:0:0:
176,320,422275,1,0,0:0:0:0:
158,299,422317,1,0,0:0:0:0:
144,276,422360,1,0,0:0:0:0:
136,250,422403,1,0,0:0:0:0:
133,223,422446,1,0,0:0:0:0:
137,197,422489,1,0,0:0:0:0:
145,171,422532,1,0,0:0:0:0:
416,288,422617,6,0,P|496:208|480:176,1,161.999995056153,6|0,0:0|0:0,0:0:0:0:
256,176,422960,1,8,0:0:0:0:
368,176,423132,2,0,L|384:112,1,53.9999983520508
302,124,423303,2,0,L|289:176,1,53.9999983520508
368,176,423475,1,2,0:0:0:0:
128,128,423646,2,0,L|112:192,1,53.9999983520508,8|0,0:0|0:0,0:0:0:0:
194,180,423817,2,0,L|208:127,1,53.9999983520508
368,176,423989,6,0,P|416:224|384:304,1,161.999995056153,2|0,0:0|0:0,0:0:0:0:
224,304,424332,2,0,L|117:317,1,107.999996704102,8|0,0:0|0:0,0:0:0:0:
288,224,424675,2,0,L|320:112,1,107.999996704102,2|0,0:0|0:0,0:0:0:0:
32,128,425017,2,0,P|48:208|160:240,1,161.999995056153,8|0,0:0|0:0,0:0:0:0:
320,240,425360,6,0,P|368:208|336:96,1,161.999995056153,2|0,0:0|0:0,0:0:0:0:
112,112,425703,1,8,0:0:0:0:
240,112,425875,2,0,L|256:48,1,53.9999983520508
174,60,426046,2,0,L|161:112,1,53.9999983520508
240,112,426217,1,0,0:0:0:0:
480,112,426389,2,0,P|480:192|416:240,1,161.999995056153,8|0,0:0|0:0,0:0:0:0:
224,240,426732,6,0,L|96:224,1,107.999996704102,6|0,0:0|0:0,0:0:0:0:
64,208,426989,1,0,0:0:0:0:
256,160,427075,1,8,0:0:0:0:
160,96,427246,2,0,L|265:122,1,107.999996704102,0|2,0:0|0:0,0:0:0:0:
368,224,427589,1,0,0:0:0:0:
112,240,427760,2,0,L|-32:288,1,107.999996704102,8|0,0:0|0:0,0:0:0:0:
320,224,428103,2,0,P|400:240|416:320,1,161.999995056153,2|0,0:0|0:0,0:0:0:0:
144,304,428446,6,0,L|0:272,1,107.999996704102,8|0,0:0|0:0,0:0:0:0:
336,240,428789,2,0,P|352:160|304:128,1,107.999996704102,2|0,0:0|0:0,0:0:0:0:
194,142,429046,2,0,P|210:94|274:62,1,107.999996704102,8|0,0:0|0:0,0:0:0:0:
416,64,429303,2,0,L|362:64,1,53.9999983520508,8|0,0:0|0:0,0:0:0:0:
144,80,429475,6,0,L|16:112,1,107.999996704102,2|0,0:0|0:0,0:0:0:0:
96,144,429732,1,0,0:0:0:0:
304,144,429817,1,8,0:0:0:0:
416,144,429989,1,0,0:0:0:0:
480,144,430160,1,0,0:0:0:0:
304,144,430332,1,0,0:0:0:0:
32,144,430503,2,0,L|144:256,1,107.999996704102,8|0,0:0|0:0,0:0:0:0:
400,208,430846,6,0,L|224:128,1,161.999995056153,2|0,0:0|0:0,0:0:0:0:
192,128,431189,1,0,0:0:0:0:
432,128,431360,2,0,P|524:188|456:304,1,270.000010299683,2|0,0:0|0:0,0:0:0:0:
180,312,432217,6,0,L|48:300,2,90,6|0|0,0:0|0:0|0:0,0:0:0:0:
336,272,432732,2,0,L|416:256,2,45
160,288,433075,2,0,P|112:256|128:144,1,180,0|2,0:0|0:0,0:0:0:0:
288,144,433589,2,0,P|352:192|320:304,1,180,2|0,0:0|0:0,0:0:0:0:
224,304,434103,1,0,0:0:0:0:
384,292,434275,1,2,0:0:0:0:
405,287,434317,1,0,0:0:0:0:
426,278,434360,1,0,0:0:0:0:
445,266,434403,1,0,0:0:0:0:
461,251,434446,1,0,0:0:0:0:
475,233,434489,1,0,0:0:0:0:
484,212,434532,1,0,0:0:0:0:
490,190,434575,1,0,0:0:0:0:
491,168,434617,1,8,0:0:0:0:
444,136,434703,1,8,0:0:0:0:
276,152,434789,2,0,L|200:152,1,45,8|8,0:0|0:0,0:0:0:0:
44,184,434960,5,2,0:0:0:0:
33,164,435002,1,0,0:0:0:0:
27,142,435045,1,0,0:0:0:0:
26,120,435088,1,0,0:0:0:0:
30,98,435131,1,0,0:0:0:0:
39,77,435174,1,0,0:0:0:0:
53,60,435217,1,0,0:0:0:0:
71,46,435260,1,0,0:0:0:0:
91,36,435302,1,0,0:0:0:0:
224,160,435475,2,0,L|288:160,1,45
96,112,435646,2,0,L|0:192,1,90,8|0,0:0|0:0,0:0:0:0:
144,272,435989,1,2,0:0:0:0:
400,272,436160,1,8,0:0:0:0:
304,240,436332,5,2,0:0:0:0:
326,235,436374,1,0,0:0:0:0:
348,230,436417,1,0,0:0:0:0:
370,226,436460,1,0,0:0:0:0:
392,221,436503,1,0,0:0:0:0:
437,182,436589,1,0,0:0:0:0:
192,192,436675,2,0,L|96:192,1,90,8|0,0:0|0:0,0:0:0:0:
128,160,436932,1,0,0:0:0:0:
352,160,437017,1,8,0:0:0:0:
330,166,437059,1,0,0:0:0:0:
309,173,437102,1,0,0:0:0:0:
287,180,437145,1,0,0:0:0:0:
266,187,437188,1,0,0:0:0:0:
352,160,437360,1,2,0:0:0:0:
80,176,437532,1,8,0:0:0:0:
192,176,437703,6,0,B|240:112|160:80|160:80|96:64|32:112|32:176|32:176|32:240|160:288|224:288|224:288,1,540.000020599366,0|2,0:0|0:0,0:0:0:0:
368,272,439246,1,2,0:0:0:0:
88,288,439417,2,0,L|168:328,2,90,8|2|2,0:0|0:0|0:0,0:0:0:0:
336,272,439932,2,0,L|416:192,1,90,8|2,0:0|0:0,0:0:0:0:
432,192,440189,1,2,0:0:0:0:
224,192,440275,2,0,L|176:160,1,45,2|2,0:0|0:0,0:0:0:0:
384,112,440446,6,0,P|464:144|480:208,1,135,6|0,0:0|0:0,0:0:0:0:
288,224,440789,1,8,0:0:0:0:
160,208,440960,2,0,L|256:192,2,90,0|0|2,0:0|0:0|0:0,0:0:0:0:
416,208,441475,2,0,L|496:144,1,90,8|0,0:0|0:0,0:0:0:0:
160,192,441817,6,0,P|112:160|144:80,1,135
320,80,442160,2,0,L|416:80,1,90,8|0,0:0|0:0,0:0:0:0:
256,160,442503,2,0,L|128:160,1,90
464,192,442846,1,8,0:0:0:0:
416,192,443017,1,0,0:0:0:0:
128,224,443189,5,2,0:0:0:0:
64,160,443360,1,0,0:0:0:0:
112,80,443532,1,0,0:0:0:0:
208,64,443703,1,2,0:0:0:0:
368,64,443875,2,0,L|272:48,3,90,2|0|0|2,0:0|0:0|0:0|0:0,0:0:0:0:
96,48,444560,5,0,0:0:0:0:
16,112,444732,1,0,0:0:0:0:
64,208,444903,1,0,0:0:0:0:
176,224,445075,1,2,0:0:0:0:
336,224,445246,2,0,L|288:144,1,90,2|0,0:0|0:0,0:0:0:0:
160,144,445589,2,0,L|208:48,1,90,0|0,0:0|0:0,0:0:0:0:
336,64,445932,5,2,0:0:0:0:
432,112,446103,1,0,0:0:0:0:
416,224,446275,1,0,0:0:0:0:
320,256,446446,1,2,0:0:0:0:
192,256,446617,2,0,L|96:240,3,90,2|0|0|0,0:0|0:0|0:0|0:0,0:0:0:0:
240,224,447303,5,2,0:0:0:0:
192,160,447475,1,0,0:0:0:0:
208,112,447560,1,0,0:0:0:0:
256,80,447646,1,0,0:0:0:0:
352,80,447817,1,2,0:0:0:0:
176,24,447989,2,0,L|239:87,1,90,2|0,0:0|0:0,0:0:0:0:
64,104,448332,2,0,L|96:16,1,90,2|0,0:0|0:0,0:0:0:0:
256,32,448675,5,2,0:0:0:0:
336,112,448846,1,0,0:0:0:0:
352,224,449017,1,0,0:0:0:0:
240,304,449189,1,2,0:0:0:0:
384,304,449360,2,0,L|272:256,3,90,2|0|0|0,0:0|0:0|0:0|0:0,0:0:0:0:
144,272,450046,5,2,0:0:0:0:
64,224,450217,1,0,0:0:0:0:
96,128,450389,1,0,0:0:0:0:
192,112,450560,1,2,0:0:0:0:
336,144,450732,2,0,L|432:176,3,90,2|0|0|0,0:0|0:0|0:0|0:0,0:0:0:0:
272,80,451417,5,2,0:0:0:0:
352,128,451589,1,0,0:0:0:0:
368,256,451760,1,0,0:0:0:0:
256,320,451932,1,2,0:0:0:0:
112,320,452103,2,0,L|16:288,2,90,2|0|0,0:0|0:0|0:0,0:0:0:0:
256,320,452617,1,2,0:0:0:0:
304,208,452960,1,0,0:0:0:0:
288,160,453046,1,0,0:0:0:0:
248,128,453132,5,2,0:0:0:0:
112,128,453303,1,0,0:0:0:0:
216,96,453475,1,2,0:0:0:0:
104,48,453646,1,0,0:0:0:0:
232,40,453817,1,2,0:0:0:0:
384,224,454160,5,2,0:3:0:0:
448,160,454332,1,0,0:3:0:0:
400,80,454503,1,0,0:3:0:0:
304,64,454675,1,2,0:0:0:0:
144,64,454846,2,0,L|240:48,3,90,2|0|0|0,0:3|0:3|0:3|0:3,0:3:0:0:
416,48,455532,5,2,0:0:0:0:
496,112,455703,1,0,0:3:0:0:
448,208,455875,1,0,0:3:0:0:
336,224,456046,1,2,0:0:0:0:
176,224,456217,2,0,L|224:144,1,90,2|0,0:3|0:3,0:3:0:0:
352,144,456560,2,0,L|304:48,1,90,2|0,0:3|0:3,0:3:0:0:
176,64,456903,5,2,0:0:0:0:
80,112,457075,1,0,0:3:0:0:
96,224,457246,1,0,0:3:0:0:
192,256,457417,1,2,0:0:0:0:
320,256,457589,2,0,L|416:240,3,90,2|0|0|0,0:3|0:3|0:3|0:3,0:3:0:0:
272,224,458275,5,2,0:0:0:0:
320,160,458446,1,0,0:3:0:0:
304,112,458532,1,0,0:3:0:0:
256,80,458617,1,0,0:3:0:0:
160,80,458789,1,2,0:0:0:0:
288,80,458960,2,0,L|368:0,1,90,2|0,0:3|0:3,0:3:0:0:
496,64,459303,2,0,L|416:16,1,90,2|0,0:3|0:3,0:3:0:0:
256,32,459646,5,2,0:0:0:0:
176,112,459817,1,0,0:3:0:0:
160,224,459989,1,0,0:3:0:0:
272,304,460160,1,2,0:0:0:0:
128,304,460332,2,0,L|240:256,3,90,2|0|0|0,0:3|0:3|0:3|0:3,0:3:0:0:
368,272,461017,5,2,0:0:0:0:
448,224,461189,1,0,0:3:0:0:
416,128,461360,1,0,0:3:0:0:
320,112,461532,1,0,0:3:0:0:
176,144,461703,2,0,L|80:176,3,90,2|0|2|0,0:3|0:3|0:3|0:3,0:3:0:0:
240,80,462389,5,2,0:0:0:0:
160,128,462560,1,0,0:3:0:0:
144,256,462732,1,0,0:3:0:0:
256,320,462903,1,2,0:0:0:0:
400,320,463075,2,0,L|496:288,2,90,2|0|0,0:3|0:3|0:3,0:3:0:0:
240,320,463589,1,2,0:0:0:0:
208,208,463932,1,0,0:3:0:0:
224,160,464017,1,0,0:3:0:0:
264,128,464103,5,2,0:0:0:0:
400,128,464275,1,0,0:3:0:0:
272,80,464446,1,2,0:3:0:0:
400,64,464617,1,0,0:3:0:0:
260,51,464789,1,2,0:0:0:0:
256,192,464960,12,0,468217,0:3:0:0:
