osu file format v13

[General]
AudioFilename: 01.mp3
AudioLeadIn: 0
PreviewTime: 111579
Countdown: 0
SampleSet: Soft
StackLeniency: 0.7
Mode: 3
LetterboxInBreaks: 0
SpecialStyle: 0
WidescreenStoryboard: 0

[Editor]
DistanceSpacing: 0.5
BeatDivisor: 16
GridSize: 4
TimelineZoom: 1

[Metadata]
Title:Eternity ~Memory of lightwaves~
TitleUnicode:Eternity ~Memory of lightwaves~
Artist:Noriko Matsueda,Takahito Eguchi
ArtistUnicode:Noriko Matsueda,Takahito Eguchi
Creator:Candice
Version:(7K) Piano Concerto No.8
Source:Final Fantasy X-2
Tags:FFX2 Piano
BeatmapID:496290
BeatmapSetID:201796

[Difficulty]
HPDrainRate:8
CircleSize:7
OverallDifficulty:8
ApproachRate:5
SliderMultiplier:1.4
SliderTickRate:3

[Events]
//Background and Video events
0,0,"Concert_1.jpg",0,0
//Break Periods
//Storyboard Layer 0 (Background)
//Storyboard Layer 1 (Fail)
//Storyboard Layer 2 (Pass)
//Storyboard Layer 3 (Foreground)
//Storyboard Sound Samples

[TimingPoints]
579,500,3,2,0,5,1,0
84579,-133.333333333333,4,2,0,5,0,0
93579,-125,4,2,0,5,0,0
96579,-117.647058823529,4,2,0,5,0,0
99579,-111.111111111111,4,2,0,5,0,0
102329,-105.263157894737,4,2,0,5,0,0
105579,-100,4,2,0,5,0,0
111172,-133.333333333333,4,2,0,5,0,0
111579,-100,4,2,0,5,0,0
135579,-100,4,2,0,5,0,1
147579,-100,4,2,0,5,0,0

[HitObjects]
36,192,579,128,0,6579:0:0:0:0:
256,192,579,1,0,0:0:0:0:
475,192,579,1,0,0:0:0:0:
182,192,829,1,0,0:0:0:0:
329,192,1079,1,0,0:0:0:0:
475,192,1329,1,0,0:0:0:0:
109,192,1579,1,0,0:0:0:0:
256,192,1579,128,0,1829:0:0:0:0:
402,192,1579,1,0,0:0:0:0:
182,192,1829,1,0,0:0:0:0:
329,192,1829,1,0,0:0:0:0:
329,192,2079,128,0,2829:0:0:0:0:
109,192,2079,1,0,0:0:0:0:
182,192,2329,1,0,0:0:0:0:
256,192,2579,1,0,0:0:0:0:
402,192,2829,1,0,0:0:0:0:
109,192,3079,1,0,0:0:0:0:
256,192,3079,128,0,3329:0:0:0:0:
475,192,3079,1,0,0:0:0:0:
329,192,3329,1,0,0:0:0:0:
182,192,3329,1,0,0:0:0:0:
402,192,3579,128,0,4329:0:0:0:0:
109,192,3579,1,0,0:0:0:0:
182,192,3829,1,0,0:0:0:0:
256,192,4079,1,0,0:0:0:0:
329,192,4329,1,0,0:0:0:0:
109,192,4579,1,0,0:0:0:0:
256,192,4579,128,0,4829:0:0:0:0:
402,192,4579,1,0,0:0:0:0:
329,192,4829,1,0,0:0:0:0:
182,192,4829,1,0,0:0:0:0:
182,192,5079,128,0,5829:0:0:0:0:
475,192,5079,1,0,0:0:0:0:
402,192,5329,1,0,0:0:0:0:
329,192,5579,1,0,0:0:0:0:
256,192,5829,1,0,0:0:0:0:
109,192,6079,1,0,0:0:0:0:
256,192,6079,128,0,6329:0:0:0:0:
475,192,6079,1,0,0:0:0:0:
182,192,6329,1,0,0:0:0:0:
402,192,6329,1,0,0:0:0:0:
329,192,6579,128,0,7329:0:0:0:0:
109,192,6579,128,0,12579:0:0:0:0:
475,192,6579,1,0,0:0:0:0:
402,192,6829,1,0,0:0:0:0:
256,192,7079,1,0,0:0:0:0:
182,192,7329,1,0,0:0:0:0:
475,192,7579,1,0,0:0:0:0:
182,192,7579,128,0,7829:0:0:0:0:
36,192,7579,1,0,0:0:0:0:
402,192,7829,1,0,0:0:0:0:
256,192,7829,1,0,0:0:0:0:
402,192,8079,128,0,8829:0:0:0:0:
36,192,8079,1,0,0:0:0:0:
182,192,8329,1,0,0:0:0:0:
256,192,8579,1,0,0:0:0:0:
329,192,8829,1,0,0:0:0:0:
36,192,9079,1,0,0:0:0:0:
475,192,9079,1,0,0:0:0:0:
402,192,9079,128,0,9329:0:0:0:0:
182,192,9329,1,0,0:0:0:0:
329,192,9329,1,0,0:0:0:0:
402,192,9579,1,0,0:0:0:0:
475,192,9579,128,0,13579:0:0:0:0:
329,192,9829,1,0,0:0:0:0:
256,192,10079,1,0,0:0:0:0:
182,192,10329,1,0,0:0:0:0:
402,192,10579,128,0,10829:0:0:0:0:
329,192,10579,1,0,0:0:0:0:
36,192,10579,1,0,0:0:0:0:
182,192,10829,1,0,0:0:0:0:
256,192,10829,1,0,0:0:0:0:
329,192,11079,128,0,11829:0:0:0:0:
36,192,11079,1,0,0:0:0:0:
182,192,11329,1,0,0:0:0:0:
256,192,11579,1,0,0:0:0:0:
402,192,11829,1,0,0:0:0:0:
36,192,12079,1,0,0:0:0:0:
402,192,12079,1,0,0:0:0:0:
182,192,12079,128,0,12329:0:0:0:0:
256,192,12329,1,0,0:0:0:0:
329,192,12329,1,0,0:0:0:0:
182,192,12579,128,0,24579:0:0:0:0:
329,192,12579,128,0,13329:0:0:0:0:
402,192,12579,1,0,0:0:0:0:
256,192,12829,1,0,0:0:0:0:
109,192,13079,1,0,0:0:0:0:
36,192,13329,1,0,0:0:0:0:
109,192,13579,128,0,13829:0:0:0:0:
256,192,13579,1,0,0:0:0:0:
402,192,13579,1,0,0:0:0:0:
329,192,13829,1,0,0:0:0:0:
36,192,13829,1,0,0:0:0:0:
475,192,14079,1,0,0:0:0:0:
329,192,14079,128,0,14829:0:0:0:0:
402,192,14329,1,0,0:0:0:0:
256,192,14579,1,0,0:0:0:0:
109,192,14829,1,0,0:0:0:0:
256,192,15079,1,0,0:0:0:0:
475,192,15079,1,0,0:0:0:0:
36,192,15079,128,0,15329:0:0:0:0:
329,192,15329,1,0,0:0:0:0:
402,192,15329,1,0,0:0:0:0:
329,192,15579,128,0,16329:0:0:0:0:
109,192,15579,1,0,0:0:0:0:
256,192,15829,1,0,0:0:0:0:
402,192,16079,1,0,0:0:0:0:
475,192,16329,1,0,0:0:0:0:
109,192,16579,128,0,16829:0:0:0:0:
36,192,16579,1,0,0:0:0:0:
402,192,16579,1,0,0:0:0:0:
329,192,16829,1,0,0:0:0:0:
256,192,16829,1,0,0:0:0:0:
402,192,17079,128,0,17829:0:0:0:0:
475,192,17079,1,0,0:0:0:0:
329,192,17329,1,0,0:0:0:0:
256,192,17579,1,0,0:0:0:0:
109,192,17829,1,0,0:0:0:0:
36,192,18079,1,0,0:0:0:0:
475,192,18079,1,0,0:0:0:0:
256,192,18079,128,0,18329:0:0:0:0:
109,192,18329,1,0,0:0:0:0:
402,192,18329,1,0,0:0:0:0:
329,192,18579,128,0,24579:0:0:0:0:
36,192,18579,1,0,0:0:0:0:
109,192,18829,1,0,0:0:0:0:
256,192,19079,1,0,0:0:0:0:
402,192,19329,1,0,0:0:0:0:
36,192,19579,128,0,19829:0:0:0:0:
256,192,19579,1,0,0:0:0:0:
475,192,19579,1,0,0:0:0:0:
402,192,19829,1,0,0:0:0:0:
109,192,19829,1,0,0:0:0:0:
109,192,20079,128,0,20829:0:0:0:0:
475,192,20079,1,0,0:0:0:0:
402,192,20329,1,0,0:0:0:0:
256,192,20579,1,0,0:0:0:0:
36,192,20829,1,0,0:0:0:0:
402,192,21079,1,0,0:0:0:0:
256,192,21079,128,0,21329:0:0:0:0:
36,192,21079,1,0,0:0:0:0:
475,192,21329,1,0,0:0:0:0:
109,192,21329,1,0,0:0:0:0:
256,192,21579,128,0,22329:0:0:0:0:
36,192,21579,1,0,0:0:0:0:
109,192,21829,1,0,0:0:0:0:
402,192,22079,1,0,0:0:0:0:
475,192,22329,1,0,0:0:0:0:
256,192,22579,1,0,0:0:0:0:
36,192,22579,128,0,22829:0:0:0:0:
402,192,22579,1,0,0:0:0:0:
109,192,22829,1,0,0:0:0:0:
256,192,22829,1,0,0:0:0:0:
109,192,23079,128,0,23829:0:0:0:0:
475,192,23079,1,0,0:0:0:0:
402,192,23329,1,0,0:0:0:0:
256,192,23579,1,0,0:0:0:0:
36,192,23829,1,0,0:0:0:0:
36,192,24079,1,0,0:0:0:0:
109,192,24079,128,0,24329:0:0:0:0:
402,192,24079,1,0,0:0:0:0:
475,192,24329,1,0,0:0:0:0:
256,192,24329,1,0,0:0:0:0:
109,192,24579,128,0,30579:0:0:0:0:
402,192,24579,128,0,30579:0:0:0:0:
182,192,24829,1,0,0:0:0:0:
256,192,25079,1,0,0:0:0:0:
329,192,25329,1,0,0:0:0:0:
475,192,25579,1,0,0:0:0:0:
256,192,25579,128,0,25829:0:0:0:0:
36,192,25579,1,0,0:0:0:0:
329,192,25829,1,0,0:0:0:0:
182,192,25829,1,0,0:0:0:0:
182,192,26079,128,0,26829:0:0:0:0:
36,192,26329,1,0,0:0:0:0:
256,192,26579,1,0,0:0:0:0:
329,192,26829,1,0,0:0:0:0:
475,192,27079,1,0,0:0:0:0:
256,192,27079,128,0,27329:0:0:0:0:
36,192,27079,1,0,0:0:0:0:
329,192,27329,1,0,0:0:0:0:
182,192,27329,1,0,0:0:0:0:
329,192,27579,128,0,28329:0:0:0:0:
475,192,27829,1,0,0:0:0:0:
256,192,28079,1,0,0:0:0:0:
182,192,28329,1,0,0:0:0:0:
475,192,28579,1,0,0:0:0:0:
256,192,28579,128,0,28829:0:0:0:0:
36,192,28579,1,0,0:0:0:0:
182,192,28829,1,0,0:0:0:0:
329,192,28829,1,0,0:0:0:0:
182,192,29079,128,0,29829:0:0:0:0:
36,192,29329,1,0,0:0:0:0:
256,192,29579,1,0,0:0:0:0:
329,192,29829,1,0,0:0:0:0:
475,192,30079,1,0,0:0:0:0:
36,192,30079,1,0,0:0:0:0:
256,192,30079,128,0,30329:0:0:0:0:
329,192,30329,1,0,0:0:0:0:
182,192,30329,1,0,0:0:0:0:
36,192,30579,128,0,33579:0:0:0:0:
475,192,30579,128,0,33579:0:0:0:0:
329,192,30829,1,0,0:0:0:0:
256,192,31079,1,0,0:0:0:0:
182,192,31329,1,0,0:0:0:0:
109,192,31579,1,0,0:0:0:0:
256,192,31579,128,0,31829:0:0:0:0:
402,192,31579,1,0,0:0:0:0:
182,192,31829,1,0,0:0:0:0:
329,192,31829,1,0,0:0:0:0:
402,192,32079,128,0,32829:0:0:0:0:
109,192,32329,1,0,0:0:0:0:
182,192,32579,1,0,0:0:0:0:
256,192,32829,1,0,0:0:0:0:
329,192,33079,1,0,0:0:0:0:
182,192,33079,1,0,0:0:0:0:
256,192,33079,128,0,33329:0:0:0:0:
402,192,33329,1,0,0:0:0:0:
109,192,33329,1,0,0:0:0:0:
329,192,33579,128,0,36579:0:0:0:0:
182,192,33579,128,0,36579:0:0:0:0:
109,192,33829,1,0,0:0:0:0:
256,192,34079,1,0,0:0:0:0:
402,192,34329,1,0,0:0:0:0:
36,192,34579,1,0,0:0:0:0:
256,192,34579,1,0,0:0:0:0:
475,192,34579,128,0,34829:0:0:0:0:
109,192,34829,1,0,0:0:0:0:
402,192,34829,1,0,0:0:0:0:
256,192,35079,128,0,35829:0:0:0:0:
36,192,35329,1,0,0:0:0:0:
475,192,35579,1,0,0:0:0:0:
36,192,35829,1,0,0:0:0:0:
36,192,36079,128,0,36329:0:0:0:0:
109,192,36079,1,0,0:0:0:0:
402,192,36079,1,0,0:0:0:0:
256,192,36329,1,0,0:0:0:0:
475,192,36329,1,0,0:0:0:0:
402,192,36579,128,0,42579:0:0:0:0:
109,192,36579,128,0,42579:0:0:0:0:
36,192,36829,1,0,0:0:0:0:
182,192,37079,1,0,0:0:0:0:
256,192,37329,1,0,0:0:0:0:
182,192,37579,128,0,37829:0:0:0:0:
329,192,37579,1,0,0:0:0:0:
475,192,37579,1,0,0:0:0:0:
256,192,37829,128,0,42579:0:0:0:0:
36,192,37829,1,0,0:0:0:0:
475,192,38079,1,0,0:0:0:0:
329,192,38329,1,0,0:0:0:0:
182,192,38579,1,0,0:0:0:0:
36,192,38829,1,0,0:0:0:0:
475,192,39079,1,0,0:0:0:0:
329,192,39079,1,0,0:0:0:0:
182,192,39079,128,0,39329:0:0:0:0:
329,192,39329,1,0,0:0:0:0:
36,192,39329,1,0,0:0:0:0:
475,192,39579,1,0,0:0:0:0:
329,192,39829,1,0,0:0:0:0:
182,192,40079,1,0,0:0:0:0:
36,192,40329,1,0,0:0:0:0:
475,192,40579,1,0,0:0:0:0:
329,192,40579,1,0,0:0:0:0:
182,192,40579,128,0,40829:0:0:0:0:
329,192,40829,1,0,0:0:0:0:
36,192,40829,1,0,0:0:0:0:
329,192,41079,128,0,41829:0:0:0:0:
36,192,41329,1,0,0:0:0:0:
182,192,41579,1,0,0:0:0:0:
475,192,41829,1,0,0:0:0:0:
36,192,42079,1,0,0:0:0:0:
329,192,42079,1,0,0:0:0:0:
475,192,42079,128,0,42329:0:0:0:0:
329,192,42329,1,0,0:0:0:0:
182,192,42329,1,0,0:0:0:0:
182,192,42579,128,0,46579:0:0:0:0:
329,192,42579,128,0,46579:0:0:0:0:
256,192,42829,1,0,0:0:0:0:
402,192,43079,1,0,0:0:0:0:
109,192,43329,1,0,0:0:0:0:
475,192,43579,1,0,0:0:0:0:
402,192,43579,1,0,0:0:0:0:
36,192,43579,128,0,43829:0:0:0:0:
402,192,43829,1,0,0:0:0:0:
109,192,43829,1,0,0:0:0:0:
475,192,44079,128,0,44829:0:0:0:0:
256,192,44329,1,0,0:0:0:0:
109,192,44579,1,0,0:0:0:0:
402,192,44829,1,0,0:0:0:0:
402,192,45079,1,0,0:0:0:0:
36,192,45079,1,0,0:0:0:0:
256,192,45079,128,0,45329:0:0:0:0:
475,192,45329,1,0,0:0:0:0:
109,192,45329,1,0,0:0:0:0:
36,192,45579,128,0,46329:0:0:0:0:
256,192,45829,1,0,0:0:0:0:
475,192,46079,1,0,0:0:0:0:
109,192,46329,1,0,0:0:0:0:
36,192,46579,1,0,0:0:0:0:
256,192,46579,128,0,48579:0:0:0:0:
402,192,46579,128,0,46829:0:0:0:0:
475,192,46829,1,0,0:0:0:0:
182,192,46829,1,0,0:0:0:0:
329,192,47079,128,0,47829:0:0:0:0:
36,192,47329,1,0,0:0:0:0:
402,192,47579,1,0,0:0:0:0:
109,192,47829,1,0,0:0:0:0:
36,192,48079,1,0,0:0:0:0:
475,192,48079,128,0,48329:0:0:0:0:
402,192,48079,1,0,0:0:0:0:
329,192,48329,1,0,0:0:0:0:
182,192,48329,1,0,0:0:0:0:
109,192,48579,1,0,0:0:0:0:
329,192,48579,128,0,49079:0:0:0:0:
402,192,48579,1,0,0:0:0:0:
475,192,48829,1,0,0:0:0:0:
36,192,48829,1,0,0:0:0:0:
182,192,49079,1,0,0:0:0:0:
256,192,49079,128,0,49329:0:0:0:0:
402,192,49079,1,0,0:0:0:0:
109,192,49079,1,0,0:0:0:0:
36,192,49329,1,0,0:0:0:0:
182,192,49329,128,0,50079:0:0:0:0:
475,192,49329,1,0,0:0:0:0:
329,192,49579,1,0,0:0:0:0:
402,192,49579,1,0,0:0:0:0:
109,192,49829,1,0,0:0:0:0:
256,192,49829,1,0,0:0:0:0:
402,192,50079,1,0,0:0:0:0:
36,192,50079,1,0,0:0:0:0:
256,192,50079,128,0,50579:0:0:0:0:
329,192,50329,1,0,0:0:0:0:
109,192,50329,1,0,0:0:0:0:
475,192,50579,1,0,0:0:0:0:
402,192,50579,128,0,50829:0:0:0:0:
36,192,50579,1,0,0:0:0:0:
109,192,50579,1,0,0:0:0:0:
182,192,50829,1,0,0:0:0:0:
329,192,50829,1,0,0:0:0:0:
256,192,50829,128,0,51329:0:0:0:0:
109,192,51079,1,0,0:0:0:0:
475,192,51079,1,0,0:0:0:0:
475,192,51329,1,0,0:0:0:0:
36,192,51329,1,0,0:0:0:0:
182,192,51329,128,0,51579:0:0:0:0:
109,192,51579,1,0,0:0:0:0:
329,192,51579,1,0,0:0:0:0:
256,192,51579,128,0,52079:0:0:0:0:
475,192,51829,1,0,0:0:0:0:
182,192,51829,1,0,0:0:0:0:
329,192,52079,128,0,52329:0:0:0:0:
402,192,52079,1,0,0:0:0:0:
36,192,52079,1,0,0:0:0:0:
256,192,52329,1,0,0:0:0:0:
182,192,52329,128,0,53079:0:0:0:0:
475,192,52329,1,0,0:0:0:0:
36,192,52329,1,0,0:0:0:0:
402,192,52579,1,0,0:0:0:0:
109,192,52579,1,0,0:0:0:0:
329,192,52829,1,0,0:0:0:0:
36,192,52829,1,0,0:0:0:0:
256,192,53079,128,0,54329:0:0:0:0:
402,192,53079,1,0,0:0:0:0:
329,192,53329,1,0,0:0:0:0:
109,192,53329,1,0,0:0:0:0:
402,192,53579,1,0,0:0:0:0:
182,192,53579,1,0,0:0:0:0:
475,192,53829,1,0,0:0:0:0:
109,192,53829,1,0,0:0:0:0:
402,192,54079,1,0,0:0:0:0:
36,192,54079,1,0,0:0:0:0:
329,192,54329,1,0,0:0:0:0:
109,192,54329,1,0,0:0:0:0:
36,192,54579,1,0,0:0:0:0:
182,192,54579,128,0,55079:0:0:0:0:
402,192,54579,128,0,55079:0:0:0:0:
475,192,54829,1,0,0:0:0:0:
256,192,54829,1,0,0:0:0:0:
475,192,55079,128,0,56079:0:0:0:0:
256,192,55079,128,0,56079:0:0:0:0:
329,192,55079,1,0,0:0:0:0:
109,192,55079,1,0,0:0:0:0:
182,192,55329,1,0,0:0:0:0:
402,192,55329,1,0,0:0:0:0:
36,192,55329,1,0,0:0:0:0:
402,192,55579,1,0,0:0:0:0:
109,192,55579,1,0,0:0:0:0:
36,192,55829,1,0,0:0:0:0:
329,192,55829,1,0,0:0:0:0:
329,192,56079,128,0,56579:0:0:0:0:
182,192,56079,128,0,56579:0:0:0:0:
402,192,56079,1,0,0:0:0:0:
256,192,56329,1,0,0:0:0:0:
36,192,56329,1,0,0:0:0:0:
402,192,56579,1,0,0:0:0:0:
109,192,56579,128,0,57329:0:0:0:0:
256,192,56579,128,0,57329:0:0:0:0:
475,192,56579,1,0,0:0:0:0:
36,192,56829,1,0,0:0:0:0:
182,192,56829,1,0,0:0:0:0:
475,192,56829,1,0,0:0:0:0:
402,192,57079,1,0,0:0:0:0:
182,192,57079,1,0,0:0:0:0:
36,192,57329,1,0,0:0:0:0:
475,192,57329,1,0,0:0:0:0:
182,192,57329,128,0,57579:0:0:0:0:
329,192,57329,128,0,57579:0:0:0:0:
109,192,57579,1,0,0:0:0:0:
402,192,57579,1,0,0:0:0:0:
256,192,57579,128,0,60579:0:0:0:0:
109,192,57829,1,0,0:0:0:0:
475,192,58079,1,0,0:0:0:0:
329,192,58079,1,0,0:0:0:0:
182,192,58079,1,0,0:0:0:0:
182,192,58329,1,0,0:0:0:0:
36,192,58329,1,0,0:0:0:0:
329,192,58329,1,0,0:0:0:0:
402,192,58579,1,0,0:0:0:0:
182,192,58829,1,0,0:0:0:0:
36,192,58829,1,0,0:0:0:0:
329,192,58829,1,0,0:0:0:0:
475,192,59079,1,0,0:0:0:0:
329,192,59079,1,0,0:0:0:0:
182,192,59079,1,0,0:0:0:0:
109,192,59329,1,0,0:0:0:0:
475,192,59579,128,0,59829:0:0:0:0:
329,192,59579,1,0,0:0:0:0:
36,192,59579,1,0,0:0:0:0:
402,192,59829,1,0,0:0:0:0:
182,192,59829,1,0,0:0:0:0:
109,192,59829,1,0,0:0:0:0:
182,192,60079,1,0,0:0:0:0:
329,192,60079,1,0,0:0:0:0:
109,192,60329,1,0,0:0:0:0:
402,192,60329,1,0,0:0:0:0:
329,192,60495,1,0,0:0:0:0:
402,192,60537,1,0,0:0:0:0:
36,192,60579,1,0,0:0:0:0:
109,192,60579,1,0,0:0:0:0:
475,192,60579,1,0,0:0:0:0:
182,192,60579,128,0,61079:0:0:0:0:
256,192,60829,1,0,0:0:0:0:
109,192,60829,1,0,0:0:0:0:
329,192,61079,1,0,0:0:0:0:
36,192,61079,1,0,0:0:0:0:
109,192,61079,1,0,0:0:0:0:
256,192,61079,128,0,61329:0:0:0:0:
402,192,61079,1,0,0:0:0:0:
329,192,61329,128,0,62079:0:0:0:0:
109,192,61329,1,0,0:0:0:0:
475,192,61329,1,0,0:0:0:0:
36,192,61579,1,0,0:0:0:0:
256,192,61579,1,0,0:0:0:0:
475,192,61829,1,0,0:0:0:0:
182,192,61829,1,0,0:0:0:0:
36,192,62016,1,0,0:0:0:0:
109,192,62047,1,0,0:0:0:0:
256,192,62079,1,0,0:0:0:0:
182,192,62079,1,0,0:0:0:0:
402,192,62079,128,0,62579:0:0:0:0:
329,192,62329,1,0,0:0:0:0:
109,192,62329,1,0,0:0:0:0:
475,192,62579,1,0,0:0:0:0:
182,192,62579,1,0,0:0:0:0:
36,192,62579,1,0,0:0:0:0:
329,192,62579,128,0,62829:0:0:0:0:
256,192,62829,128,0,63329:0:0:0:0:
475,192,62829,1,0,0:0:0:0:
109,192,62829,1,0,0:0:0:0:
475,192,63079,1,0,0:0:0:0:
182,192,63079,1,0,0:0:0:0:
109,192,63329,1,0,0:0:0:0:
402,192,63329,1,0,0:0:0:0:
182,192,63329,128,0,64079:0:0:0:0:
329,192,63579,1,0,0:0:0:0:
475,192,63579,1,0,0:0:0:0:
36,192,63579,1,0,0:0:0:0:
402,192,63829,1,0,0:0:0:0:
109,192,63829,1,0,0:0:0:0:
256,192,64079,128,0,65079:0:0:0:0:
36,192,64079,1,0,0:0:0:0:
475,192,64079,1,0,0:0:0:0:
402,192,64329,1,0,0:0:0:0:
329,192,64329,1,0,0:0:0:0:
109,192,64329,1,0,0:0:0:0:
329,192,64579,1,0,0:0:0:0:
182,192,64579,1,0,0:0:0:0:
109,192,64829,1,0,0:0:0:0:
182,192,64829,1,0,0:0:0:0:
402,192,64829,1,0,0:0:0:0:
475,192,65016,1,0,0:0:0:0:
402,192,65047,1,0,0:0:0:0:
182,192,65079,1,0,0:0:0:0:
36,192,65079,1,0,0:0:0:0:
329,192,65079,1,0,0:0:0:0:
329,192,65329,128,0,65579:0:0:0:0:
402,192,65329,1,0,0:0:0:0:
182,192,65579,128,0,65829:0:0:0:0:
256,192,65579,1,0,0:0:0:0:
109,192,65829,128,0,66579:0:0:0:0:
36,192,65829,1,0,0:0:0:0:
256,192,66454,1,0,0:0:0:0:
329,192,66495,1,0,0:0:0:0:
402,192,66537,1,0,0:0:0:0:
36,192,66579,1,0,0:0:0:0:
182,192,66579,128,0,68079:0:0:0:0:
475,192,66579,1,0,0:0:0:0:
109,192,66829,1,0,0:0:0:0:
329,192,66829,1,0,0:0:0:0:
402,192,67079,1,0,0:0:0:0:
475,192,67079,1,0,0:0:0:0:
256,192,67079,1,0,0:0:0:0:
36,192,67079,1,0,0:0:0:0:
109,192,67329,1,0,0:0:0:0:
36,192,67329,1,0,0:0:0:0:
402,192,67329,1,0,0:0:0:0:
109,192,67579,1,0,0:0:0:0:
329,192,67579,1,0,0:0:0:0:
256,192,67829,1,0,0:0:0:0:
36,192,67829,1,0,0:0:0:0:
475,192,67995,1,0,0:0:0:0:
402,192,68037,1,0,0:0:0:0:
36,192,68079,1,0,0:0:0:0:
256,192,68079,128,0,69329:0:0:0:0:
329,192,68079,1,0,0:0:0:0:
109,192,68329,1,0,0:0:0:0:
329,192,68329,1,0,0:0:0:0:
402,192,68579,1,0,0:0:0:0:
475,192,68579,1,0,0:0:0:0:
109,192,68579,1,0,0:0:0:0:
182,192,68579,1,0,0:0:0:0:
329,192,68829,1,0,0:0:0:0:
109,192,68829,1,0,0:0:0:0:
36,192,68829,1,0,0:0:0:0:
475,192,68829,1,0,0:0:0:0:
182,192,69079,1,0,0:0:0:0:
329,192,69079,1,0,0:0:0:0:
109,192,69329,1,0,0:0:0:0:
329,192,69329,128,0,70079:0:0:0:0:
182,192,69329,128,0,70079:0:0:0:0:
475,192,69579,1,0,0:0:0:0:
402,192,69579,1,0,0:0:0:0:
36,192,69579,1,0,0:0:0:0:
109,192,69829,1,0,0:0:0:0:
256,192,69829,1,0,0:0:0:0:
475,192,70079,1,0,0:0:0:0:
402,192,70079,128,0,70829:0:0:0:0:
109,192,70079,128,0,70829:0:0:0:0:
475,192,70329,1,0,0:0:0:0:
329,192,70329,1,0,0:0:0:0:
36,192,70329,1,0,0:0:0:0:
182,192,70579,1,0,0:0:0:0:
256,192,70579,1,0,0:0:0:0:
36,192,70829,128,0,71579:0:0:0:0:
475,192,70829,128,0,71579:0:0:0:0:
329,192,70829,1,0,0:0:0:0:
109,192,71079,1,0,0:0:0:0:
256,192,71079,1,0,0:0:0:0:
402,192,71079,1,0,0:0:0:0:
329,192,71329,1,0,0:0:0:0:
182,192,71329,1,0,0:0:0:0:
256,192,71579,1,0,0:0:0:0:
402,192,71579,128,0,71829:0:0:0:0:
109,192,71579,128,0,72579:0:0:0:0:
329,192,71829,1,0,0:0:0:0:
182,192,71829,1,0,0:0:0:0:
256,192,72079,1,0,0:0:0:0:
329,192,72329,1,0,0:0:0:0:
36,192,72579,128,0,74079:0:0:0:0:
402,192,72579,128,0,74079:0:0:0:0:
329,192,72829,1,0,0:0:0:0:
182,192,72829,1,0,0:0:0:0:
475,192,73079,1,0,0:0:0:0:
109,192,73079,1,0,0:0:0:0:
256,192,73079,1,0,0:0:0:0:
329,192,73329,1,0,0:0:0:0:
182,192,73329,1,0,0:0:0:0:
475,192,73579,1,0,0:0:0:0:
256,192,73579,1,0,0:0:0:0:
109,192,73579,1,0,0:0:0:0:
182,192,73579,1,0,0:0:0:0:
329,192,73829,1,0,0:0:0:0:
475,192,73829,1,0,0:0:0:0:
256,192,73829,1,0,0:0:0:0:
329,192,74079,128,0,75579:0:0:0:0:
109,192,74079,128,0,75579:0:0:0:0:
36,192,74329,1,0,0:0:0:0:
256,192,74329,1,0,0:0:0:0:
475,192,74579,1,0,0:0:0:0:
182,192,74579,1,0,0:0:0:0:
402,192,74829,1,0,0:0:0:0:
256,192,74829,1,0,0:0:0:0:
475,192,75079,1,0,0:0:0:0:
256,192,75079,1,0,0:0:0:0:
36,192,75079,1,0,0:0:0:0:
182,192,75079,1,0,0:0:0:0:
402,192,75329,1,0,0:0:0:0:
256,192,75329,1,0,0:0:0:0:
475,192,75329,1,0,0:0:0:0:
182,192,75579,128,0,77079:0:0:0:0:
402,192,75579,128,0,77079:0:0:0:0:
256,192,75829,1,0,0:0:0:0:
109,192,75829,1,0,0:0:0:0:
475,192,76079,1,0,0:0:0:0:
329,192,76079,1,0,0:0:0:0:
256,192,76329,1,0,0:0:0:0:
36,192,76329,1,0,0:0:0:0:
329,192,76579,1,0,0:0:0:0:
475,192,76579,1,0,0:0:0:0:
256,192,76579,1,0,0:0:0:0:
109,192,76579,1,0,0:0:0:0:
256,192,76829,1,0,0:0:0:0:
36,192,76829,1,0,0:0:0:0:
475,192,76829,1,0,0:0:0:0:
109,192,77079,128,0,78579:0:0:0:0:
475,192,77079,128,0,78579:0:0:0:0:
402,192,77329,1,0,0:0:0:0:
329,192,77329,1,0,0:0:0:0:
329,192,77579,1,0,0:0:0:0:
256,192,77579,1,0,0:0:0:0:
256,192,77829,1,0,0:0:0:0:
182,192,77829,1,0,0:0:0:0:
402,192,78079,1,0,0:0:0:0:
36,192,78079,1,0,0:0:0:0:
182,192,78079,1,0,0:0:0:0:
329,192,78079,1,0,0:0:0:0:
256,192,78329,1,0,0:0:0:0:
329,192,78329,1,0,0:0:0:0:
36,192,78329,1,0,0:0:0:0:
36,192,78579,128,0,80079:0:0:0:0:
402,192,78579,128,0,80079:0:0:0:0:
109,192,78829,1,0,0:0:0:0:
182,192,78829,1,0,0:0:0:0:
182,192,79079,1,0,0:0:0:0:
256,192,79079,1,0,0:0:0:0:
329,192,79329,1,0,0:0:0:0:
256,192,79329,1,0,0:0:0:0:
475,192,79579,1,0,0:0:0:0:
109,192,79579,1,0,0:0:0:0:
329,192,79579,1,0,0:0:0:0:
182,192,79579,1,0,0:0:0:0:
256,192,79829,1,0,0:0:0:0:
182,192,79829,1,0,0:0:0:0:
475,192,79829,1,0,0:0:0:0:
329,192,80079,128,0,83079:0:0:0:0:
109,192,80079,128,0,81579:0:0:0:0:
182,192,80329,1,0,0:0:0:0:
402,192,80329,1,0,0:0:0:0:
256,192,80579,1,0,0:0:0:0:
475,192,80579,1,0,0:0:0:0:
402,192,80829,1,0,0:0:0:0:
182,192,80829,1,0,0:0:0:0:
475,192,81079,1,0,0:0:0:0:
36,192,81079,1,0,0:0:0:0:
256,192,81079,1,0,0:0:0:0:
182,192,81079,1,0,0:0:0:0:
402,192,81329,1,0,0:0:0:0:
182,192,81329,1,0,0:0:0:0:
475,192,81329,1,0,0:0:0:0:
182,192,81579,128,0,83079:0:0:0:0:
475,192,81579,1,0,0:0:0:0:
256,192,81829,1,0,0:0:0:0:
402,192,81829,1,0,0:0:0:0:
36,192,82079,1,0,0:0:0:0:
109,192,82079,1,0,0:0:0:0:
256,192,82329,1,0,0:0:0:0:
402,192,82329,1,0,0:0:0:0:
475,192,82579,1,0,0:0:0:0:
36,192,82579,1,0,0:0:0:0:
256,192,82579,1,0,0:0:0:0:
109,192,82579,1,0,0:0:0:0:
109,192,82829,1,0,0:0:0:0:
402,192,82829,1,0,0:0:0:0:
256,192,82829,1,0,0:0:0:0:
36,192,83079,1,0,0:0:0:0:
256,192,83079,128,0,84579:0:0:0:0:
182,192,83329,1,0,0:0:0:0:
329,192,83329,1,0,0:0:0:0:
329,192,83579,1,0,0:0:0:0:
402,192,83579,1,0,0:0:0:0:
475,192,83829,1,0,0:0:0:0:
36,192,83829,1,0,0:0:0:0:
402,192,84079,1,0,0:0:0:0:
109,192,84079,1,0,0:0:0:0:
329,192,84079,1,0,0:0:0:0:
182,192,84079,1,0,0:0:0:0:
182,192,84329,1,0,0:0:0:0:
329,192,84329,1,0,0:0:0:0:
402,192,84329,1,0,0:0:0:0:
36,192,84579,1,0,0:0:0:0:
475,192,84579,1,0,0:0:0:0:
402,192,84579,1,0,0:0:0:0:
109,192,84579,1,0,0:0:0:0:
182,192,84579,128,0,85079:0:0:0:0:
329,192,84579,128,0,85079:0:0:0:0:
36,192,85079,1,0,0:0:0:0:
475,192,85079,1,0,0:0:0:0:
109,192,85079,128,0,85829:0:0:0:0:
402,192,85079,128,0,85829:0:0:0:0:
182,192,85329,1,0,0:0:0:0:
256,192,85329,1,0,0:0:0:0:
256,192,85579,1,0,0:0:0:0:
329,192,85579,1,0,0:0:0:0:
182,192,85829,128,0,86079:0:0:0:0:
475,192,85829,128,0,86079:0:0:0:0:
329,192,85829,1,0,0:0:0:0:
329,192,86079,1,0,0:0:0:0:
256,192,86079,1,0,0:0:0:0:
36,192,86079,128,0,88579:0:0:0:0:
256,192,87579,128,0,87829:0:0:0:0:
109,192,87579,128,0,87829:0:0:0:0:
182,192,87829,1,0,0:0:0:0:
329,192,87829,128,0,88079:0:0:0:0:
402,192,88079,128,0,88329:0:0:0:0:
256,192,88079,1,0,0:0:0:0:
475,192,88329,1,0,0:0:0:0:
329,192,88329,128,0,88579:0:0:0:0:
109,192,88579,1,0,0:0:0:0:
256,192,88579,128,0,89829:0:0:0:0:
402,192,88829,1,0,0:0:0:0:
182,192,88954,1,0,0:0:0:0:
402,192,89079,1,0,0:0:0:0:
109,192,89079,1,0,0:0:0:0:
36,192,89079,1,0,0:0:0:0:
329,192,89079,1,0,0:0:0:0:
182,192,89829,128,0,93579:0:0:0:0:
329,192,89829,128,0,93579:0:0:0:0:
402,192,90329,1,0,0:0:0:0:
256,192,90329,128,0,90579:0:0:0:0:
109,192,90329,1,0,0:0:0:0:
36,192,90579,1,0,0:0:0:0:
402,192,90579,1,0,0:0:0:0:
475,192,90579,1,0,0:0:0:0:
109,192,90579,1,0,0:0:0:0:
109,192,90829,1,0,0:0:0:0:
256,192,90829,1,0,0:0:0:0:
402,192,91079,1,0,0:0:0:0:
256,192,91079,1,0,0:0:0:0:
36,192,91079,1,0,0:0:0:0:
475,192,91329,1,0,0:0:0:0:
402,192,91329,1,0,0:0:0:0:
256,192,91329,1,0,0:0:0:0:
36,192,91579,1,0,0:0:0:0:
109,192,91579,1,0,0:0:0:0:
256,192,91829,1,0,0:0:0:0:
109,192,91829,1,0,0:0:0:0:
402,192,92079,1,0,0:0:0:0:
256,192,92079,1,0,0:0:0:0:
475,192,92329,1,0,0:0:0:0:
402,192,92329,1,0,0:0:0:0:
256,192,92579,1,0,0:0:0:0:
402,192,92579,1,0,0:0:0:0:
109,192,92829,1,0,0:0:0:0:
256,192,92829,1,0,0:0:0:0:
36,192,93079,1,0,0:0:0:0:
109,192,93079,1,0,0:0:0:0:
402,192,93329,1,0,0:0:0:0:
256,192,93329,1,0,0:0:0:0:
256,192,93579,1,0,0:0:0:0:
475,192,93579,1,0,0:0:0:0:
109,192,93579,128,0,96579:0:0:0:0:
402,192,93579,128,0,96579:0:0:0:0:
36,192,93829,1,0,0:0:0:0:
182,192,93829,1,0,0:0:0:0:
256,192,94079,1,0,0:0:0:0:
475,192,94079,1,0,0:0:0:0:
329,192,94079,1,0,0:0:0:0:
182,192,94329,1,0,0:0:0:0:
256,192,94329,1,0,0:0:0:0:
36,192,94329,1,0,0:0:0:0:
182,192,94579,1,0,0:0:0:0:
329,192,94579,1,0,0:0:0:0:
475,192,94829,1,0,0:0:0:0:
329,192,94829,1,0,0:0:0:0:
475,192,95079,1,0,0:0:0:0:
329,192,95079,1,0,0:0:0:0:
256,192,95079,1,0,0:0:0:0:
36,192,95329,1,0,0:0:0:0:
182,192,95329,1,0,0:0:0:0:
329,192,95579,1,0,0:0:0:0:
182,192,95579,1,0,0:0:0:0:
475,192,95829,1,0,0:0:0:0:
329,192,95829,1,0,0:0:0:0:
256,192,95829,1,0,0:0:0:0:
329,192,96079,1,0,0:0:0:0:
182,192,96079,1,0,0:0:0:0:
36,192,96329,1,0,0:0:0:0:
182,192,96329,1,0,0:0:0:0:
182,192,96579,1,0,0:0:0:0:
329,192,96579,1,0,0:0:0:0:
475,192,96579,128,0,99579:0:0:0:0:
36,192,96579,128,0,102329:0:0:0:0:
256,192,96829,1,0,0:0:0:0:
109,192,96829,1,0,0:0:0:0:
182,192,97079,1,0,0:0:0:0:
329,192,97079,1,0,0:0:0:0:
402,192,97329,1,0,0:0:0:0:
256,192,97329,1,0,0:0:0:0:
182,192,97579,1,0,0:0:0:0:
329,192,97579,1,0,0:0:0:0:
109,192,97829,1,0,0:0:0:0:
256,192,97829,1,0,0:0:0:0:
182,192,98079,1,0,0:0:0:0:
329,192,98079,1,0,0:0:0:0:
402,192,98329,1,0,0:0:0:0:
256,192,98329,1,0,0:0:0:0:
329,192,98579,1,0,0:0:0:0:
182,192,98579,1,0,0:0:0:0:
109,192,98829,1,0,0:0:0:0:
256,192,98829,1,0,0:0:0:0:
329,192,99079,1,0,0:0:0:0:
182,192,99079,1,0,0:0:0:0:
402,192,99329,1,0,0:0:0:0:
256,192,99329,1,0,0:0:0:0:
329,192,99579,1,0,0:0:0:0:
182,192,99579,1,0,0:0:0:0:
402,192,99579,128,0,105579:0:0:0:0:
109,192,99829,1,0,0:0:0:0:
256,192,99829,1,0,0:0:0:0:
182,192,100079,1,0,0:0:0:0:
329,192,100079,1,0,0:0:0:0:
475,192,100329,1,0,0:0:0:0:
329,192,100329,1,0,0:0:0:0:
329,192,100579,1,0,0:0:0:0:
182,192,100579,1,0,0:0:0:0:
109,192,100829,1,0,0:0:0:0:
256,192,100829,1,0,0:0:0:0:
182,192,101079,1,0,0:0:0:0:
329,192,101079,1,0,0:0:0:0:
475,192,101329,1,0,0:0:0:0:
329,192,101329,1,0,0:0:0:0:
329,192,101579,1,0,0:0:0:0:
182,192,101579,1,0,0:0:0:0:
109,192,101829,1,0,0:0:0:0:
256,192,101829,1,0,0:0:0:0:
182,192,102079,1,0,0:0:0:0:
329,192,102079,1,0,0:0:0:0:
475,192,102329,1,0,0:0:0:0:
329,192,102329,1,0,0:0:0:0:
256,192,102329,1,0,0:0:0:0:
109,192,102329,128,0,105579:0:0:0:0:
475,192,102579,1,0,0:0:0:0:
182,192,102579,1,0,0:0:0:0:
36,192,102579,1,0,0:0:0:0:
256,192,102579,1,0,0:0:0:0:
329,192,102829,1,0,0:0:0:0:
256,192,102829,1,0,0:0:0:0:
36,192,103079,1,0,0:0:0:0:
329,192,103079,1,0,0:0:0:0:
475,192,103079,1,0,0:0:0:0:
182,192,103079,1,0,0:0:0:0:
182,192,103329,1,0,0:0:0:0:
256,192,103329,1,0,0:0:0:0:
329,192,103329,1,0,0:0:0:0:
329,192,103579,1,0,0:0:0:0:
475,192,103579,1,0,0:0:0:0:
329,192,103829,1,0,0:0:0:0:
182,192,103829,1,0,0:0:0:0:
36,192,104079,1,0,0:0:0:0:
256,192,104079,1,0,0:0:0:0:
182,192,104329,1,0,0:0:0:0:
329,192,104329,1,0,0:0:0:0:
256,192,104579,1,0,0:0:0:0:
475,192,104579,1,0,0:0:0:0:
182,192,104829,1,0,0:0:0:0:
329,192,104829,1,0,0:0:0:0:
36,192,105079,1,0,0:0:0:0:
256,192,105079,1,0,0:0:0:0:
182,192,105329,1,0,0:0:0:0:
329,192,105329,1,0,0:0:0:0:
256,192,105579,1,0,0:0:0:0:
329,192,105579,128,0,108579:0:0:0:0:
475,192,105579,1,0,0:0:0:0:
182,192,105579,128,0,108579:0:0:0:0:
36,192,105829,1,0,0:0:0:0:
475,192,106079,1,0,0:0:0:0:
402,192,106079,1,0,0:0:0:0:
256,192,106079,1,0,0:0:0:0:
109,192,106329,1,0,0:0:0:0:
36,192,106329,1,0,0:0:0:0:
256,192,106329,1,0,0:0:0:0:
475,192,106579,1,0,0:0:0:0:
402,192,106829,1,0,0:0:0:0:
109,192,106829,1,0,0:0:0:0:
256,192,106829,1,0,0:0:0:0:
36,192,107079,1,0,0:0:0:0:
256,192,107079,1,0,0:0:0:0:
475,192,107079,1,0,0:0:0:0:
256,192,107329,1,0,0:0:0:0:
109,192,107329,1,0,0:0:0:0:
36,192,107579,1,0,0:0:0:0:
109,192,107579,1,0,0:0:0:0:
402,192,107579,1,0,0:0:0:0:
475,192,107829,1,0,0:0:0:0:
256,192,107829,1,0,0:0:0:0:
402,192,107829,128,0,108079:0:0:0:0:
109,192,108079,1,0,0:0:0:0:
36,192,108079,1,0,0:0:0:0:
475,192,108329,1,0,0:0:0:0:
402,192,108329,1,0,0:0:0:0:
256,192,108579,128,0,111079:0:0:0:0:
36,192,109079,128,0,109735:0:0:0:0:
182,192,109235,1,0,0:0:0:0:
475,192,109391,1,0,0:0:0:0:
329,192,109579,1,0,0:0:0:0:
109,192,109735,128,0,111079:0:0:0:0:
402,192,109891,1,0,0:0:0:0:
182,192,110079,1,0,0:0:0:0:
329,192,110245,1,0,0:0:0:0:
475,192,110391,1,0,0:0:0:0:
182,192,110547,1,0,0:0:0:0:
329,192,110735,128,0,110922:0:0:0:0:
402,192,110922,128,0,111079:0:0:0:0:
475,192,111079,1,0,0:0:0:0:
256,192,111579,1,0,0:0:0:0:
36,192,111579,128,0,113079:0:0:0:0:
475,192,111579,128,0,113079:0:0:0:0:
402,192,111829,1,0,0:0:0:0:
109,192,111829,1,0,0:0:0:0:
182,192,112079,1,0,0:0:0:0:
329,192,112079,1,0,0:0:0:0:
256,192,112079,1,0,0:0:0:0:
256,192,112329,1,0,0:0:0:0:
182,192,112329,1,0,0:0:0:0:
109,192,112329,1,0,0:0:0:0:
402,192,112579,1,0,0:0:0:0:
329,192,112579,1,0,0:0:0:0:
182,192,112829,1,0,0:0:0:0:
109,192,112829,1,0,0:0:0:0:
256,192,113079,1,0,0:0:0:0:
109,192,113079,128,0,117579:0:0:0:0:
402,192,113079,128,0,117579:0:0:0:0:
256,192,113329,1,0,0:0:0:0:
475,192,113329,1,0,0:0:0:0:
329,192,113579,1,0,0:0:0:0:
182,192,113579,1,0,0:0:0:0:
36,192,113579,1,0,0:0:0:0:
256,192,113829,1,0,0:0:0:0:
329,192,113829,1,0,0:0:0:0:
182,192,113829,1,0,0:0:0:0:
329,192,114079,1,0,0:0:0:0:
475,192,114079,1,0,0:0:0:0:
36,192,114329,1,0,0:0:0:0:
182,192,114329,1,0,0:0:0:0:
256,192,114329,1,0,0:0:0:0:
256,192,114579,1,0,0:0:0:0:
475,192,114579,1,0,0:0:0:0:
329,192,114579,1,0,0:0:0:0:
182,192,114829,1,0,0:0:0:0:
36,192,114829,1,0,0:0:0:0:
329,192,115079,1,0,0:0:0:0:
475,192,115079,1,0,0:0:0:0:
182,192,115079,1,0,0:0:0:0:
329,192,115329,1,0,0:0:0:0:
256,192,115329,1,0,0:0:0:0:
36,192,115329,1,0,0:0:0:0:
182,192,115579,1,0,0:0:0:0:
475,192,115579,1,0,0:0:0:0:
329,192,115829,1,0,0:0:0:0:
36,192,115829,1,0,0:0:0:0:
475,192,116079,1,0,0:0:0:0:
329,192,116079,1,0,0:0:0:0:
329,192,116329,1,0,0:0:0:0:
182,192,116329,1,0,0:0:0:0:
256,192,116579,1,0,0:0:0:0:
36,192,116579,1,0,0:0:0:0:
329,192,116829,1,0,0:0:0:0:
182,192,116829,1,0,0:0:0:0:
182,192,117079,1,0,0:0:0:0:
36,192,117079,1,0,0:0:0:0:
256,192,117329,1,0,0:0:0:0:
475,192,117329,1,0,0:0:0:0:
256,192,117579,1,0,0:0:0:0:
182,192,117579,128,0,123579:0:0:0:0:
329,192,117579,128,0,123579:0:0:0:0:
36,192,117829,1,0,0:0:0:0:
109,192,117829,1,0,0:0:0:0:
402,192,118079,1,0,0:0:0:0:
256,192,118079,1,0,0:0:0:0:
475,192,118079,1,0,0:0:0:0:
109,192,118329,1,0,0:0:0:0:
36,192,118329,1,0,0:0:0:0:
256,192,118329,1,0,0:0:0:0:
256,192,118579,1,0,0:0:0:0:
402,192,118579,1,0,0:0:0:0:
36,192,118829,1,0,0:0:0:0:
109,192,118829,1,0,0:0:0:0:
475,192,119079,1,0,0:0:0:0:
402,192,119079,1,0,0:0:0:0:
256,192,119079,1,0,0:0:0:0:
109,192,119329,1,0,0:0:0:0:
256,192,119329,1,0,0:0:0:0:
402,192,119579,1,0,0:0:0:0:
256,192,119579,1,0,0:0:0:0:
36,192,119579,1,0,0:0:0:0:
109,192,119829,1,0,0:0:0:0:
256,192,119829,1,0,0:0:0:0:
475,192,119829,1,0,0:0:0:0:
36,192,120079,1,0,0:0:0:0:
402,192,120079,1,0,0:0:0:0:
109,192,120329,1,0,0:0:0:0:
256,192,120329,1,0,0:0:0:0:
402,192,120329,1,0,0:0:0:0:
256,192,120579,1,0,0:0:0:0:
475,192,120579,1,0,0:0:0:0:
36,192,120579,1,0,0:0:0:0:
402,192,120829,1,0,0:0:0:0:
475,192,120829,1,0,0:0:0:0:
402,192,121079,1,0,0:0:0:0:
109,192,121079,1,0,0:0:0:0:
36,192,121079,1,0,0:0:0:0:
256,192,121329,1,0,0:0:0:0:
402,192,121329,1,0,0:0:0:0:
475,192,121329,1,0,0:0:0:0:
109,192,121579,1,0,0:0:0:0:
36,192,121579,1,0,0:0:0:0:
256,192,121829,1,0,0:0:0:0:
109,192,121829,1,0,0:0:0:0:
402,192,121829,1,0,0:0:0:0:
256,192,122079,1,0,0:0:0:0:
475,192,122079,1,0,0:0:0:0:
36,192,122079,1,0,0:0:0:0:
36,192,122329,1,0,0:0:0:0:
256,192,122329,1,0,0:0:0:0:
475,192,122579,1,0,0:0:0:0:
402,192,122579,1,0,0:0:0:0:
256,192,122579,1,0,0:0:0:0:
36,192,122829,1,0,0:0:0:0:
109,192,122829,1,0,0:0:0:0:
256,192,122829,1,0,0:0:0:0:
402,192,123495,1,0,0:0:0:0:
256,192,123537,1,0,0:0:0:0:
475,192,123579,128,0,125079:0:0:0:0:
36,192,123579,128,0,129579:0:0:0:0:
109,192,123579,1,0,0:0:0:0:
109,192,123829,1,0,0:0:0:0:
256,192,123829,1,0,0:0:0:0:
329,192,124079,1,0,0:0:0:0:
402,192,124079,1,0,0:0:0:0:
256,192,124079,1,0,0:0:0:0:
402,192,124329,1,0,0:0:0:0:
256,192,124329,1,0,0:0:0:0:
109,192,124329,1,0,0:0:0:0:
329,192,124579,1,0,0:0:0:0:
182,192,124579,1,0,0:0:0:0:
256,192,124829,1,0,0:0:0:0:
402,192,124829,1,0,0:0:0:0:
329,192,125079,1,0,0:0:0:0:
182,192,125079,1,0,0:0:0:0:
109,192,125079,1,0,0:0:0:0:
402,192,125079,128,0,132329:0:0:0:0:
109,192,125329,1,0,0:0:0:0:
256,192,125329,1,0,0:0:0:0:
182,192,125579,1,0,0:0:0:0:
475,192,125579,1,0,0:0:0:0:
329,192,125579,1,0,0:0:0:0:
475,192,125829,1,0,0:0:0:0:
256,192,125829,1,0,0:0:0:0:
109,192,125829,1,0,0:0:0:0:
182,192,126079,1,0,0:0:0:0:
329,192,126079,1,0,0:0:0:0:
475,192,126329,1,0,0:0:0:0:
329,192,126329,1,0,0:0:0:0:
109,192,126329,1,0,0:0:0:0:
182,192,126579,1,0,0:0:0:0:
475,192,126579,1,0,0:0:0:0:
256,192,126579,1,0,0:0:0:0:
329,192,126829,1,0,0:0:0:0:
182,192,126829,1,0,0:0:0:0:
109,192,127079,1,0,0:0:0:0:
329,192,127079,1,0,0:0:0:0:
475,192,127079,1,0,0:0:0:0:
109,192,127329,1,0,0:0:0:0:
256,192,127329,1,0,0:0:0:0:
329,192,127579,1,0,0:0:0:0:
475,192,127579,1,0,0:0:0:0:
182,192,127829,1,0,0:0:0:0:
256,192,127829,1,0,0:0:0:0:
475,192,127829,1,0,0:0:0:0:
329,192,127995,1,0,0:0:0:0:
256,192,128037,1,0,0:0:0:0:
182,192,128079,1,0,0:0:0:0:
109,192,128079,1,0,0:0:0:0:
182,192,128329,1,0,0:0:0:0:
329,192,128329,1,0,0:0:0:0:
329,192,128579,1,0,0:0:0:0:
475,192,128579,1,0,0:0:0:0:
256,192,128828,1,0,0:0:0:0:
109,192,128829,1,0,0:0:0:0:
182,192,129079,1,0,0:0:0:0:
329,192,129079,1,0,0:0:0:0:
256,192,129329,1,0,0:0:0:0:
475,192,129329,1,0,0:0:0:0:
475,192,129537,1,0,0:0:0:0:
329,192,129547,1,0,0:0:0:0:
256,192,129578,1,0,0:0:0:0:
182,192,129579,1,0,0:0:0:0:
109,192,129579,128,0,132329:0:0:0:0:
36,192,129828,1,0,0:0:0:0:
182,192,129829,1,0,0:0:0:0:
256,192,130078,1,0,0:0:0:0:
182,192,130079,1,0,0:0:0:0:
329,192,130079,1,0,0:0:0:0:
475,192,130329,1,0,0:0:0:0:
329,192,130329,1,0,0:0:0:0:
36,192,130329,1,0,0:0:0:0:
329,192,130578,1,0,0:0:0:0:
182,192,130579,1,0,0:0:0:0:
475,192,130829,1,0,0:0:0:0:
256,192,130829,1,0,0:0:0:0:
182,192,131079,1,0,0:0:0:0:
256,192,131079,1,0,0:0:0:0:
36,192,131079,1,0,0:0:0:0:
329,192,131329,1,0,0:0:0:0:
475,192,131329,1,0,0:0:0:0:
256,192,131579,1,0,0:0:0:0:
182,192,131579,1,0,0:0:0:0:
36,192,131579,1,0,0:0:0:0:
329,192,131829,1,0,0:0:0:0:
256,192,131829,1,0,0:0:0:0:
475,192,131829,1,0,0:0:0:0:
182,192,132079,1,0,0:0:0:0:
36,192,132079,1,0,0:0:0:0:
256,192,132329,1,0,0:0:0:0:
182,192,132329,128,0,134579:0:0:0:0:
329,192,132329,128,0,134579:0:0:0:0:
475,192,132579,1,0,0:0:0:0:
256,192,132579,1,0,0:0:0:0:
109,192,132579,1,0,0:0:0:0:
256,192,132829,1,0,0:0:0:0:
402,192,132829,1,0,0:0:0:0:
109,192,133079,1,0,0:0:0:0:
256,192,133079,1,0,0:0:0:0:
402,192,133079,1,0,0:0:0:0:
256,192,133329,1,0,0:0:0:0:
475,192,133329,1,0,0:0:0:0:
36,192,133329,1,0,0:0:0:0:
36,192,133579,1,0,0:0:0:0:
402,192,133579,1,0,0:0:0:0:
475,192,133829,1,0,0:0:0:0:
256,192,133829,1,0,0:0:0:0:
109,192,133829,1,0,0:0:0:0:
402,192,133829,1,0,0:0:0:0:
402,192,134079,1,0,0:0:0:0:
256,192,134079,1,0,0:0:0:0:
36,192,134079,1,0,0:0:0:0:
256,192,134329,1,0,0:0:0:0:
475,192,134329,1,0,0:0:0:0:
256,192,134579,128,0,134829:0:0:0:0:
402,192,134579,1,0,0:0:0:0:
36,192,134579,1,0,0:0:0:0:
109,192,134829,1,0,0:0:0:0:
182,192,134829,1,0,0:0:0:0:
475,192,134829,1,0,0:0:0:0:
256,192,135329,128,0,137079:0:0:0:0:
36,192,135579,1,0,0:0:0:0:
475,192,135579,1,0,0:0:0:0:
109,192,135829,1,0,0:0:0:0:
329,192,135829,1,0,0:0:0:0:
475,192,136079,1,0,0:0:0:0:
182,192,136079,1,0,0:0:0:0:
109,192,136329,1,0,0:0:0:0:
402,192,136329,1,0,0:0:0:0:
475,192,136579,1,0,0:0:0:0:
329,192,136579,1,0,0:0:0:0:
182,192,136579,1,0,0:0:0:0:
36,192,136579,1,0,0:0:0:0:
402,192,136829,1,0,0:0:0:0:
182,192,136829,1,0,0:0:0:0:
109,192,136829,1,0,0:0:0:0:
182,192,137079,128,0,138579:0:0:0:0:
36,192,137079,1,0,0:0:0:0:
329,192,137079,128,0,140079:0:0:0:0:
109,192,137329,1,0,0:0:0:0:
256,192,137329,1,0,0:0:0:0:
256,192,137579,1,0,0:0:0:0:
402,192,137579,1,0,0:0:0:0:
475,192,137829,1,0,0:0:0:0:
36,192,137829,1,0,0:0:0:0:
402,192,138079,1,0,0:0:0:0:
256,192,138079,1,0,0:0:0:0:
109,192,138079,1,0,0:0:0:0:
36,192,138079,1,0,0:0:0:0:
475,192,138329,1,0,0:0:0:0:
402,192,138329,1,0,0:0:0:0:
36,192,138329,1,0,0:0:0:0:
475,192,138579,1,0,0:0:0:0:
109,192,138579,128,0,141579:0:0:0:0:
256,192,138579,1,0,0:0:0:0:
402,192,138829,1,0,0:0:0:0:
256,192,138829,1,0,0:0:0:0:
36,192,139079,1,0,0:0:0:0:
256,192,139079,1,0,0:0:0:0:
182,192,139329,1,0,0:0:0:0:
402,192,139360,1,0,0:0:0:0:
475,192,139579,1,0,0:0:0:0:
182,192,139579,1,0,0:0:0:0:
36,192,139579,1,0,0:0:0:0:
402,192,139579,1,0,0:0:0:0:
36,192,139829,1,0,0:0:0:0:
402,192,139829,1,0,0:0:0:0:
256,192,139829,1,0,0:0:0:0:
182,192,140079,1,0,0:0:0:0:
36,192,140079,1,0,0:0:0:0:
402,192,140079,128,0,143079:0:0:0:0:
182,192,140329,1,0,0:0:0:0:
329,192,140329,1,0,0:0:0:0:
329,192,140579,1,0,0:0:0:0:
475,192,140579,1,0,0:0:0:0:
329,192,140829,1,0,0:0:0:0:
182,192,140829,1,0,0:0:0:0:
329,192,141079,1,0,0:0:0:0:
475,192,141079,1,0,0:0:0:0:
182,192,141079,1,0,0:0:0:0:
36,192,141079,1,0,0:0:0:0:
256,192,141329,1,0,0:0:0:0:
36,192,141329,1,0,0:0:0:0:
475,192,141329,1,0,0:0:0:0:
182,192,141579,1,0,0:0:0:0:
36,192,141579,128,0,144329:0:0:0:0:
329,192,141579,1,0,0:0:0:0:
256,192,141829,1,0,0:0:0:0:
475,192,141829,1,0,0:0:0:0:
109,192,142079,1,0,0:0:0:0:
182,192,142079,1,0,0:0:0:0:
329,192,142329,1,0,0:0:0:0:
475,192,142329,1,0,0:0:0:0:
182,192,142579,1,0,0:0:0:0:
329,192,142579,1,0,0:0:0:0:
109,192,142579,1,0,0:0:0:0:
256,192,142579,1,0,0:0:0:0:
329,192,142829,1,0,0:0:0:0:
182,192,142829,1,0,0:0:0:0:
475,192,142829,1,0,0:0:0:0:
182,192,143079,1,0,0:0:0:0:
475,192,143079,128,0,144329:0:0:0:0:
109,192,143079,1,0,0:0:0:0:
329,192,143329,1,0,0:0:0:0:
256,192,143329,1,0,0:0:0:0:
402,192,143579,1,0,0:0:0:0:
256,192,143579,1,0,0:0:0:0:
182,192,143829,1,0,0:0:0:0:
329,192,143829,1,0,0:0:0:0:
329,192,144079,1,0,0:0:0:0:
109,192,144079,1,0,0:0:0:0:
402,192,144079,1,0,0:0:0:0:
256,192,144079,1,0,0:0:0:0:
329,192,144329,1,0,0:0:0:0:
256,192,144329,1,0,0:0:0:0:
182,192,144329,1,0,0:0:0:0:
109,192,144579,1,0,0:0:0:0:
256,192,144579,1,0,0:0:0:0:
182,192,144579,1,0,0:0:0:0:
475,192,144829,128,0,152047:0:0:0:0:
329,192,145079,128,0,152047:0:0:0:0:
182,192,145329,128,0,152047:0:0:0:0:
36,192,145579,128,0,152047:0:0:0:0:
402,192,145829,128,0,152047:0:0:0:0:
109,192,146079,128,0,152047:0:0:0:0:
