osu file format v13

[General]
AudioFilename: 01.mp3
AudioLeadIn: 0
PreviewTime: 111579
Countdown: 0
SampleSet: Soft
StackLeniency: 0.7
Mode: 3
LetterboxInBreaks: 0
SpecialStyle: 0
WidescreenStoryboard: 0

[Editor]
DistanceSpacing: 0.5
BeatDivisor: 16
GridSize: 4
TimelineZoom: 1

[Metadata]
Title:Eternity ~Memory of lightwaves~
TitleUnicode:Eternity ~Memory of lightwaves~
Artist:Noriko Matsueda,Takahito Eguchi
ArtistUnicode:Noriko Matsueda,Takahito Eguchi
Creator:Candice
Version:(4K) Piano Grade No.2
Source:Final Fantasy X-2
Tags:FFX2 Piano
BeatmapID:494550
BeatmapSetID:201796

[Difficulty]
HPDrainRate:7
CircleSize:4
OverallDifficulty:7
ApproachRate:5
SliderMultiplier:1.4
SliderTickRate:3

[Events]
//Background and Video events
0,0,"Concert_1.jpg",0,0
//Break Periods
//Storyboard Layer 0 (Background)
//Storyboard Layer 1 (Fail)
//Storyboard Layer 2 (Pass)
//Storyboard Layer 3 (Foreground)
//Storyboard Sound Samples

[TimingPoints]
579,500,3,2,0,10,1,0
84579,-133.333333333333,4,2,0,5,0,0
93579,-125,4,2,0,5,0,0
96579,-117.647058823529,4,2,0,5,0,0
99579,-111.111111111111,4,2,0,5,0,0
102329,-105.263157894737,4,2,0,5,0,0
105579,-100,4,2,0,5,0,0
111172,-133.333333333333,4,2,0,5,0,0
111579,-100,4,2,0,5,0,0
135579,-100,4,2,0,5,0,1
147579,-100,4,2,0,5,0,0

[HitObjects]
64,192,579,5,0,0:0:0:0:
448,192,579,1,0,0:0:0:0:
320,192,829,1,0,0:0:0:0:
64,192,1079,1,0,0:0:0:0:
192,192,1329,1,0,0:0:0:0:
320,192,1579,1,0,0:0:0:0:
448,192,1579,1,0,0:0:0:0:
64,192,1829,128,0,2829:0:0:0:0:
448,192,1829,1,0,0:0:0:0:
192,192,2079,1,0,0:0:0:0:
320,192,2329,1,0,0:0:0:0:
448,192,2579,1,0,0:0:0:0:
192,192,2829,1,0,0:0:0:0:
448,192,3079,1,0,0:0:0:0:
320,192,3079,1,0,0:0:0:0:
64,192,3329,128,0,4329:0:0:0:0:
448,192,3329,1,0,0:0:0:0:
192,192,3579,1,0,0:0:0:0:
320,192,3829,1,0,0:0:0:0:
448,192,4079,1,0,0:0:0:0:
320,192,4329,1,0,0:0:0:0:
64,192,4579,1,0,0:0:0:0:
192,192,4579,1,0,0:0:0:0:
320,192,4829,128,0,5829:0:0:0:0:
64,192,4829,1,0,0:0:0:0:
448,192,5079,1,0,0:0:0:0:
192,192,5329,1,0,0:0:0:0:
64,192,5579,1,0,0:0:0:0:
448,192,5829,1,0,0:0:0:0:
64,192,6079,1,0,0:0:0:0:
192,192,6079,1,0,0:0:0:0:
448,192,6329,128,0,7079:0:0:0:0:
64,192,6329,1,0,0:0:0:0:
320,192,6579,1,0,0:0:0:0:
192,192,6829,1,0,0:0:0:0:
64,192,7079,1,0,0:0:0:0:
192,192,7329,1,0,0:0:0:0:
448,192,7579,1,0,0:0:0:0:
320,192,7579,1,0,0:0:0:0:
64,192,7829,128,0,8579:0:0:0:0:
448,192,7829,1,0,0:0:0:0:
320,192,8079,1,0,0:0:0:0:
192,192,8329,1,0,0:0:0:0:
320,192,8579,1,0,0:0:0:0:
192,192,8829,1,0,0:0:0:0:
448,192,9079,1,0,0:0:0:0:
320,192,9079,1,0,0:0:0:0:
192,192,9329,1,0,0:0:0:0:
64,192,9329,1,0,0:0:0:0:
320,192,9579,1,0,0:0:0:0:
64,192,9829,1,0,0:0:0:0:
192,192,10079,1,0,0:0:0:0:
320,192,10329,1,0,0:0:0:0:
64,192,10579,1,0,0:0:0:0:
192,192,10579,1,0,0:0:0:0:
320,192,10829,1,0,0:0:0:0:
448,192,10829,1,0,0:0:0:0:
192,192,11079,1,0,0:0:0:0:
448,192,11329,1,0,0:0:0:0:
320,192,11579,1,0,0:0:0:0:
192,192,11829,1,0,0:0:0:0:
448,192,12079,1,0,0:0:0:0:
320,192,12079,1,0,0:0:0:0:
192,192,12329,1,0,0:0:0:0:
64,192,12329,1,0,0:0:0:0:
64,192,12579,1,0,0:0:0:0:
192,192,12829,1,0,0:0:0:0:
320,192,13079,1,0,0:0:0:0:
448,192,13329,1,0,0:0:0:0:
192,192,13579,1,0,0:0:0:0:
64,192,13579,1,0,0:0:0:0:
320,192,13829,1,0,0:0:0:0:
448,192,13829,1,0,0:0:0:0:
192,192,14079,1,0,0:0:0:0:
320,192,14329,1,0,0:0:0:0:
448,192,14579,1,0,0:0:0:0:
64,192,14829,1,0,0:0:0:0:
448,192,15079,1,0,0:0:0:0:
320,192,15079,1,0,0:0:0:0:
192,192,15329,1,0,0:0:0:0:
64,192,15329,1,0,0:0:0:0:
64,192,15579,1,0,0:0:0:0:
320,192,15829,1,0,0:0:0:0:
192,192,16079,1,0,0:0:0:0:
64,192,16329,1,0,0:0:0:0:
448,192,16579,128,0,17329:0:0:0:0:
192,192,16579,1,0,0:0:0:0:
320,192,16829,1,0,0:0:0:0:
64,192,16829,1,0,0:0:0:0:
192,192,17079,1,0,0:0:0:0:
320,192,17329,1,0,0:0:0:0:
192,192,17579,1,0,0:0:0:0:
64,192,17829,1,0,0:0:0:0:
448,192,18079,128,0,18829:0:0:0:0:
192,192,18079,1,0,0:0:0:0:
64,192,18329,1,0,0:0:0:0:
320,192,18329,1,0,0:0:0:0:
192,192,18579,1,0,0:0:0:0:
320,192,18829,1,0,0:0:0:0:
448,192,19079,1,0,0:0:0:0:
192,192,19329,1,0,0:0:0:0:
448,192,19579,1,0,0:0:0:0:
320,192,19579,1,0,0:0:0:0:
64,192,19829,128,0,20579:0:0:0:0:
448,192,19829,1,0,0:0:0:0:
320,192,20079,1,0,0:0:0:0:
192,192,20329,1,0,0:0:0:0:
320,192,20579,1,0,0:0:0:0:
448,192,20829,1,0,0:0:0:0:
64,192,21079,1,0,0:0:0:0:
192,192,21079,1,0,0:0:0:0:
320,192,21329,1,0,0:0:0:0:
448,192,21329,1,0,0:0:0:0:
448,192,21579,1,0,0:0:0:0:
320,192,21829,1,0,0:0:0:0:
192,192,22079,1,0,0:0:0:0:
64,192,22329,1,0,0:0:0:0:
448,192,22579,1,0,0:0:0:0:
320,192,22579,1,0,0:0:0:0:
192,192,22829,1,0,0:0:0:0:
64,192,22829,1,0,0:0:0:0:
448,192,23079,128,0,23829:0:0:0:0:
64,192,23329,1,0,0:0:0:0:
320,192,23579,1,0,0:0:0:0:
192,192,23829,1,0,0:0:0:0:
320,192,24079,1,0,0:0:0:0:
448,192,24079,1,0,0:0:0:0:
64,192,24329,1,0,0:0:0:0:
192,192,24329,1,0,0:0:0:0:
448,192,24579,128,0,30079:0:0:0:0:
192,192,24579,1,0,0:0:0:0:
320,192,24829,1,0,0:0:0:0:
64,192,25079,1,0,0:0:0:0:
320,192,25329,1,0,0:0:0:0:
64,192,25579,1,0,0:0:0:0:
192,192,25579,1,0,0:0:0:0:
320,192,25829,1,0,0:0:0:0:
64,192,25829,1,0,0:0:0:0:
192,192,26079,1,0,0:0:0:0:
64,192,26329,1,0,0:0:0:0:
320,192,26579,1,0,0:0:0:0:
192,192,26829,1,0,0:0:0:0:
320,192,27079,1,0,0:0:0:0:
64,192,27079,1,0,0:0:0:0:
192,192,27329,1,0,0:0:0:0:
320,192,27329,1,0,0:0:0:0:
192,192,27579,1,0,0:0:0:0:
64,192,27829,1,0,0:0:0:0:
192,192,28079,1,0,0:0:0:0:
64,192,28329,1,0,0:0:0:0:
320,192,28579,1,0,0:0:0:0:
192,192,28579,1,0,0:0:0:0:
64,192,28829,1,0,0:0:0:0:
320,192,28829,1,0,0:0:0:0:
192,192,29079,1,0,0:0:0:0:
64,192,29329,1,0,0:0:0:0:
192,192,29579,1,0,0:0:0:0:
64,192,29829,1,0,0:0:0:0:
320,192,30079,1,0,0:0:0:0:
192,192,30079,1,0,0:0:0:0:
64,192,30329,128,0,31079:0:0:0:0:
448,192,30329,1,0,0:0:0:0:
192,192,30579,1,0,0:0:0:0:
448,192,30829,1,0,0:0:0:0:
320,192,31079,128,0,33579:0:0:0:0:
192,192,31329,1,0,0:0:0:0:
448,192,31579,1,0,0:0:0:0:
64,192,31579,1,0,0:0:0:0:
192,192,31829,1,0,0:0:0:0:
448,192,31829,1,0,0:0:0:0:
64,192,32079,1,0,0:0:0:0:
448,192,32329,1,0,0:0:0:0:
64,192,32579,1,0,0:0:0:0:
192,192,32829,1,0,0:0:0:0:
448,192,33079,1,0,0:0:0:0:
64,192,33079,1,0,0:0:0:0:
192,192,33329,1,0,0:0:0:0:
448,192,33329,1,0,0:0:0:0:
192,192,33579,128,0,36329:0:0:0:0:
320,192,33829,1,0,0:0:0:0:
448,192,34079,1,0,0:0:0:0:
320,192,34329,1,0,0:0:0:0:
448,192,34579,1,0,0:0:0:0:
64,192,34579,1,0,0:0:0:0:
320,192,34829,1,0,0:0:0:0:
64,192,34829,1,0,0:0:0:0:
448,192,35047,1,0,0:0:0:0:
320,192,35329,1,0,0:0:0:0:
64,192,35579,1,0,0:0:0:0:
320,192,35829,1,0,0:0:0:0:
448,192,36079,1,0,0:0:0:0:
320,192,36079,1,0,0:0:0:0:
320,192,36329,1,0,0:0:0:0:
64,192,36329,1,0,0:0:0:0:
64,192,36579,128,0,42579:0:0:0:0:
448,192,36579,1,0,0:0:0:0:
192,192,36829,1,0,0:0:0:0:
320,192,37079,1,0,0:0:0:0:
192,192,37329,1,0,0:0:0:0:
448,192,37579,1,0,0:0:0:0:
320,192,37579,1,0,0:0:0:0:
192,192,37829,1,0,0:0:0:0:
320,192,37829,1,0,0:0:0:0:
448,192,38079,1,0,0:0:0:0:
192,192,38329,1,0,0:0:0:0:
320,192,38579,1,0,0:0:0:0:
448,192,38829,1,0,0:0:0:0:
320,192,39079,1,0,0:0:0:0:
192,192,39079,1,0,0:0:0:0:
448,192,39329,1,0,0:0:0:0:
192,192,39329,1,0,0:0:0:0:
320,192,39579,1,0,0:0:0:0:
192,192,39829,1,0,0:0:0:0:
448,192,40079,1,0,0:0:0:0:
192,192,40329,1,0,0:0:0:0:
320,192,40579,1,0,0:0:0:0:
448,192,40579,1,0,0:0:0:0:
192,192,40829,1,0,0:0:0:0:
448,192,40829,1,0,0:0:0:0:
448,192,41079,1,0,0:0:0:0:
192,192,41329,1,0,0:0:0:0:
320,192,41579,1,0,0:0:0:0:
448,192,41829,1,0,0:0:0:0:
320,192,42079,1,0,0:0:0:0:
192,192,42079,1,0,0:0:0:0:
448,192,42329,1,0,0:0:0:0:
192,192,42329,1,0,0:0:0:0:
192,192,42579,128,0,45579:0:0:0:0:
64,192,42829,1,0,0:0:0:0:
448,192,43079,1,0,0:0:0:0:
320,192,43329,1,0,0:0:0:0:
64,192,43579,1,0,0:0:0:0:
448,192,43579,1,0,0:0:0:0:
320,192,43829,1,0,0:0:0:0:
64,192,43829,1,0,0:0:0:0:
448,192,44079,1,0,0:0:0:0:
320,192,44329,1,0,0:0:0:0:
64,192,44579,1,0,0:0:0:0:
320,192,44829,1,0,0:0:0:0:
64,192,45079,1,0,0:0:0:0:
448,192,45079,1,0,0:0:0:0:
320,192,45329,1,0,0:0:0:0:
448,192,45329,1,0,0:0:0:0:
64,192,45579,128,0,48329:0:0:0:0:
320,192,45829,1,0,0:0:0:0:
192,192,46079,1,0,0:0:0:0:
320,192,46329,1,0,0:0:0:0:
192,192,46579,1,0,0:0:0:0:
448,192,46579,1,0,0:0:0:0:
320,192,46829,1,0,0:0:0:0:
448,192,46829,1,0,0:0:0:0:
192,192,47079,1,0,0:0:0:0:
320,192,47329,1,0,0:0:0:0:
448,192,47579,1,0,0:0:0:0:
320,192,47829,1,0,0:0:0:0:
192,192,48079,1,0,0:0:0:0:
448,192,48079,1,0,0:0:0:0:
320,192,48329,1,0,0:0:0:0:
192,192,48329,1,0,0:0:0:0:
64,192,48579,1,0,0:0:0:0:
192,192,48579,128,0,49079:0:0:0:0:
320,192,48579,1,0,0:0:0:0:
448,192,48829,1,0,0:0:0:0:
320,192,49079,128,0,49329:0:0:0:0:
64,192,49079,1,0,0:0:0:0:
64,192,49329,1,0,0:0:0:0:
192,192,49579,1,0,0:0:0:0:
320,192,49829,1,0,0:0:0:0:
192,192,50079,1,0,0:0:0:0:
448,192,50079,1,0,0:0:0:0:
320,192,50079,128,0,50579:0:0:0:0:
64,192,50329,1,0,0:0:0:0:
192,192,50579,128,0,50829:0:0:0:0:
448,192,50579,1,0,0:0:0:0:
320,192,50829,1,0,0:0:0:0:
192,192,51079,1,0,0:0:0:0:
448,192,51329,128,0,51579:0:0:0:0:
64,192,51329,128,0,51579:0:0:0:0:
192,192,51579,1,0,0:0:0:0:
320,192,51579,1,0,0:0:0:0:
320,192,51829,1,0,0:0:0:0:
448,192,52079,128,0,52329:0:0:0:0:
64,192,52079,128,0,52329:0:0:0:0:
320,192,52329,1,0,0:0:0:0:
192,192,52329,1,0,0:0:0:0:
448,192,53079,1,0,0:0:0:0:
320,192,53329,1,0,0:0:0:0:
192,192,53579,1,0,0:0:0:0:
64,192,53829,1,0,0:0:0:0:
192,192,54079,1,0,0:0:0:0:
320,192,54329,1,0,0:0:0:0:
448,192,54579,1,0,0:0:0:0:
64,192,54579,1,0,0:0:0:0:
192,192,54579,128,0,55079:0:0:0:0:
320,192,54829,1,0,0:0:0:0:
320,192,55079,128,0,55329:0:0:0:0:
448,192,55079,1,0,0:0:0:0:
64,192,55329,1,0,0:0:0:0:
192,192,55579,1,0,0:0:0:0:
448,192,55829,1,0,0:0:0:0:
64,192,56079,1,0,0:0:0:0:
320,192,56079,128,0,56579:0:0:0:0:
192,192,56079,1,0,0:0:0:0:
448,192,56329,1,0,0:0:0:0:
192,192,56579,128,0,56829:0:0:0:0:
64,192,56579,1,0,0:0:0:0:
448,192,56829,1,0,0:0:0:0:
64,192,57079,1,0,0:0:0:0:
448,192,57329,1,0,0:0:0:0:
320,192,57329,128,0,57579:0:0:0:0:
192,192,57579,1,0,0:0:0:0:
448,192,57829,1,0,0:0:0:0:
192,192,58079,128,0,58329:0:0:0:0:
64,192,58079,1,0,0:0:0:0:
320,192,58329,1,0,0:0:0:0:
64,192,58579,1,0,0:0:0:0:
448,192,58829,1,0,0:0:0:0:
320,192,58829,128,0,59079:0:0:0:0:
192,192,59079,1,0,0:0:0:0:
448,192,59329,1,0,0:0:0:0:
64,192,59579,1,0,0:0:0:0:
320,192,59579,128,0,60579:0:0:0:0:
448,192,59829,1,0,0:0:0:0:
64,192,60079,1,0,0:0:0:0:
192,192,60329,1,0,0:0:0:0:
448,192,60579,1,0,0:0:0:0:
64,192,60579,1,0,0:0:0:0:
192,192,60579,128,0,61079:0:0:0:0:
64,192,60829,1,0,0:0:0:0:
448,192,61079,1,0,0:0:0:0:
320,192,61079,128,0,61329:0:0:0:0:
64,192,61329,1,0,0:0:0:0:
192,192,61579,1,0,0:0:0:0:
448,192,61829,1,0,0:0:0:0:
64,192,62079,1,0,0:0:0:0:
320,192,62079,128,0,62579:0:0:0:0:
192,192,62079,1,0,0:0:0:0:
448,192,62329,1,0,0:0:0:0:
64,192,62579,1,0,0:0:0:0:
192,192,62579,128,0,62829:0:0:0:0:
448,192,62829,1,0,0:0:0:0:
320,192,63079,1,0,0:0:0:0:
64,192,63329,128,0,63579:0:0:0:0:
448,192,63329,128,0,63579:0:0:0:0:
320,192,63579,1,0,0:0:0:0:
192,192,63579,1,0,0:0:0:0:
192,192,63829,1,0,0:0:0:0:
64,192,64079,128,0,64329:0:0:0:0:
448,192,64079,128,0,64329:0:0:0:0:
192,192,64329,1,0,0:0:0:0:
320,192,64329,1,0,0:0:0:0:
320,192,64579,1,0,0:0:0:0:
64,192,64829,128,0,65079:0:0:0:0:
448,192,64829,128,0,65079:0:0:0:0:
320,192,65079,1,0,0:0:0:0:
192,192,65079,1,0,0:0:0:0:
320,192,65579,128,0,65829:0:0:0:0:
192,192,65829,128,0,66079:0:0:0:0:
64,192,66079,1,0,0:0:0:0:
192,192,66454,1,0,0:0:0:0:
320,192,66516,1,0,0:0:0:0:
64,192,66579,1,0,0:0:0:0:
448,192,66579,1,0,0:0:0:0:
448,192,66829,1,0,0:0:0:0:
192,192,67079,128,0,67329:0:0:0:0:
320,192,67079,1,0,0:0:0:0:
64,192,67329,1,0,0:0:0:0:
192,192,67579,1,0,0:0:0:0:
320,192,67829,1,0,0:0:0:0:
448,192,68079,1,0,0:0:0:0:
64,192,68079,1,0,0:0:0:0:
192,192,68079,128,0,68579:0:0:0:0:
320,192,68329,1,0,0:0:0:0:
320,192,68579,128,0,68829:0:0:0:0:
64,192,68579,1,0,0:0:0:0:
448,192,68829,1,0,0:0:0:0:
192,192,69079,128,0,69329:0:0:0:0:
64,192,69329,1,0,0:0:0:0:
320,192,69579,1,0,0:0:0:0:
448,192,69579,128,0,71329:0:0:0:0:
192,192,69579,1,0,0:0:0:0:
64,192,69829,1,0,0:0:0:0:
192,192,70079,1,0,0:0:0:0:
320,192,70079,1,0,0:0:0:0:
64,192,70329,1,0,0:0:0:0:
320,192,70329,1,0,0:0:0:0:
192,192,70579,1,0,0:0:0:0:
320,192,70829,1,0,0:0:0:0:
64,192,70829,1,0,0:0:0:0:
192,192,71079,1,0,0:0:0:0:
64,192,71079,1,0,0:0:0:0:
64,192,71329,1,0,0:0:0:0:
320,192,71579,128,0,71829:0:0:0:0:
192,192,71579,1,0,0:0:0:0:
448,192,71829,1,0,0:0:0:0:
64,192,72579,1,0,0:0:0:0:
192,192,72579,128,0,75329:0:0:0:0:
320,192,72829,1,0,0:0:0:0:
448,192,73079,1,0,0:0:0:0:
320,192,73329,1,0,0:0:0:0:
448,192,73579,1,0,0:0:0:0:
64,192,73579,1,0,0:0:0:0:
320,192,73829,1,0,0:0:0:0:
448,192,73829,1,0,0:0:0:0:
64,192,74079,1,0,0:0:0:0:
448,192,74329,1,0,0:0:0:0:
320,192,74579,1,0,0:0:0:0:
64,192,74829,1,0,0:0:0:0:
320,192,75079,1,0,0:0:0:0:
448,192,75079,1,0,0:0:0:0:
64,192,75329,1,0,0:0:0:0:
448,192,75329,1,0,0:0:0:0:
320,192,75579,128,0,76829:0:0:0:0:
448,192,75829,1,0,0:0:0:0:
64,192,76079,1,0,0:0:0:0:
448,192,76329,1,0,0:0:0:0:
192,192,76579,1,0,0:0:0:0:
64,192,76579,1,0,0:0:0:0:
448,192,76829,1,0,0:0:0:0:
64,192,76829,1,0,0:0:0:0:
192,192,77079,128,0,78329:0:0:0:0:
64,192,77329,1,0,0:0:0:0:
448,192,77579,1,0,0:0:0:0:
320,192,77829,1,0,0:0:0:0:
64,192,78079,1,0,0:0:0:0:
448,192,78079,1,0,0:0:0:0:
320,192,78329,1,0,0:0:0:0:
64,192,78329,1,0,0:0:0:0:
192,192,78579,1,0,0:0:0:0:
320,192,78579,128,0,79829:0:0:0:0:
64,192,78829,1,0,0:0:0:0:
192,192,79079,1,0,0:0:0:0:
448,192,79329,1,0,0:0:0:0:
192,192,79579,1,0,0:0:0:0:
64,192,79579,1,0,0:0:0:0:
448,192,79829,1,0,0:0:0:0:
192,192,79829,1,0,0:0:0:0:
448,192,80079,128,0,81329:0:0:0:0:
64,192,80079,128,0,81329:0:0:0:0:
320,192,80079,1,0,0:0:0:0:
320,192,80329,1,0,0:0:0:0:
192,192,80579,1,0,0:0:0:0:
192,192,80829,1,0,0:0:0:0:
192,192,81079,1,0,0:0:0:0:
320,192,81079,1,0,0:0:0:0:
320,192,81329,1,0,0:0:0:0:
192,192,81329,1,0,0:0:0:0:
64,192,81579,128,0,82829:0:0:0:0:
448,192,81579,1,0,0:0:0:0:
192,192,81829,1,0,0:0:0:0:
448,192,82079,1,0,0:0:0:0:
192,192,82329,1,0,0:0:0:0:
320,192,82579,1,0,0:0:0:0:
448,192,82579,1,0,0:0:0:0:
192,192,82829,1,0,0:0:0:0:
320,192,82829,1,0,0:0:0:0:
64,192,83079,1,0,0:0:0:0:
448,192,83079,128,0,84329:0:0:0:0:
320,192,83329,1,0,0:0:0:0:
64,192,83579,1,0,0:0:0:0:
320,192,83829,1,0,0:0:0:0:
64,192,84079,1,0,0:0:0:0:
192,192,84079,1,0,0:0:0:0:
320,192,84329,1,0,0:0:0:0:
192,192,84329,1,0,0:0:0:0:
64,192,84579,1,0,0:0:0:0:
448,192,84579,1,0,0:0:0:0:
192,192,84579,1,0,0:0:0:0:
320,192,84829,1,0,0:0:0:0:
192,192,85079,1,0,0:0:0:0:
64,192,85079,1,0,0:0:0:0:
448,192,85079,128,0,85829:0:0:0:0:
320,192,85829,1,0,0:0:0:0:
192,192,85829,128,0,86079:0:0:0:0:
64,192,85829,1,0,0:0:0:0:
448,192,86079,1,0,0:0:0:0:
320,192,86079,128,0,87579:0:0:0:0:
64,192,86079,1,0,0:0:0:0:
192,192,87579,1,0,0:0:0:0:
320,192,87829,1,0,0:0:0:0:
448,192,88079,1,0,0:0:0:0:
320,192,88329,1,0,0:0:0:0:
192,192,88579,1,0,0:0:0:0:
64,192,88829,1,0,0:0:0:0:
192,192,88954,1,0,0:0:0:0:
320,192,89079,128,0,89829:0:0:0:0:
448,192,89079,128,0,89829:0:0:0:0:
192,192,89829,128,0,90579:0:0:0:0:
320,192,90329,1,0,0:0:0:0:
64,192,90579,1,0,0:0:0:0:
448,192,90579,1,0,0:0:0:0:
320,192,90829,1,0,0:0:0:0:
192,192,91079,1,0,0:0:0:0:
64,192,91079,1,0,0:0:0:0:
64,192,91329,1,0,0:0:0:0:
448,192,91329,1,0,0:0:0:0:
192,192,91579,1,0,0:0:0:0:
320,192,91829,1,0,0:0:0:0:
192,192,92079,1,0,0:0:0:0:
64,192,92329,1,0,0:0:0:0:
192,192,92579,1,0,0:0:0:0:
320,192,92829,1,0,0:0:0:0:
448,192,93079,1,0,0:0:0:0:
192,192,93329,1,0,0:0:0:0:
64,192,93579,1,0,0:0:0:0:
320,192,93579,128,0,94079:0:0:0:0:
448,192,93579,1,0,0:0:0:0:
192,192,93829,1,0,0:0:0:0:
448,192,94079,1,0,0:0:0:0:
64,192,94079,1,0,0:0:0:0:
192,192,94329,1,0,0:0:0:0:
320,192,94329,1,0,0:0:0:0:
64,192,94579,1,0,0:0:0:0:
192,192,94829,1,0,0:0:0:0:
64,192,95079,1,0,0:0:0:0:
320,192,95079,1,0,0:0:0:0:
192,192,95329,1,0,0:0:0:0:
64,192,95579,1,0,0:0:0:0:
192,192,95829,1,0,0:0:0:0:
448,192,95829,1,0,0:0:0:0:
320,192,96079,1,0,0:0:0:0:
64,192,96079,1,0,0:0:0:0:
448,192,96329,1,0,0:0:0:0:
320,192,96329,1,0,0:0:0:0:
192,192,96579,128,0,99579:0:0:0:0:
320,192,96579,1,0,0:0:0:0:
64,192,96829,1,0,0:0:0:0:
320,192,97079,1,0,0:0:0:0:
448,192,97329,1,0,0:0:0:0:
320,192,97579,1,0,0:0:0:0:
64,192,97829,1,0,0:0:0:0:
320,192,98079,1,0,0:0:0:0:
448,192,98329,1,0,0:0:0:0:
320,192,98579,1,0,0:0:0:0:
64,192,98829,1,0,0:0:0:0:
320,192,99079,1,0,0:0:0:0:
448,192,99329,1,0,0:0:0:0:
320,192,99579,128,0,102329:0:0:0:0:
64,192,99829,1,0,0:0:0:0:
192,192,100079,1,0,0:0:0:0:
448,192,100329,1,0,0:0:0:0:
64,192,100579,1,0,0:0:0:0:
192,192,100829,1,0,0:0:0:0:
64,192,101079,1,0,0:0:0:0:
192,192,101329,1,0,0:0:0:0:
448,192,101579,1,0,0:0:0:0:
192,192,101829,1,0,0:0:0:0:
64,192,102079,1,0,0:0:0:0:
448,192,102329,1,0,0:0:0:0:
192,192,102329,128,0,103079:0:0:0:0:
320,192,102579,1,0,0:0:0:0:
64,192,102579,1,0,0:0:0:0:
320,192,103079,128,0,105579:0:0:0:0:
64,192,103079,1,0,0:0:0:0:
448,192,103329,1,0,0:0:0:0:
192,192,103329,1,0,0:0:0:0:
64,192,103579,1,0,0:0:0:0:
192,192,103829,1,0,0:0:0:0:
192,192,104079,1,0,0:0:0:0:
448,192,104329,1,0,0:0:0:0:
448,192,104579,1,0,0:0:0:0:
192,192,104829,1,0,0:0:0:0:
192,192,105079,1,0,0:0:0:0:
64,192,105329,1,0,0:0:0:0:
448,192,105579,1,0,0:0:0:0:
192,192,105579,128,0,107579:0:0:0:0:
320,192,105829,1,0,0:0:0:0:
64,192,106079,1,0,0:0:0:0:
320,192,106079,1,0,0:0:0:0:
448,192,106329,1,0,0:0:0:0:
320,192,106329,1,0,0:0:0:0:
64,192,106579,1,0,0:0:0:0:
320,192,106829,1,0,0:0:0:0:
448,192,106829,1,0,0:0:0:0:
448,192,107079,1,0,0:0:0:0:
64,192,107079,1,0,0:0:0:0:
320,192,107329,1,0,0:0:0:0:
64,192,107579,128,0,107829:0:0:0:0:
320,192,107579,1,0,0:0:0:0:
192,192,107829,128,0,108079:0:0:0:0:
448,192,107829,1,0,0:0:0:0:
320,192,108079,128,0,108329:0:0:0:0:
64,192,108079,1,0,0:0:0:0:
192,192,108329,128,0,108579:0:0:0:0:
448,192,108329,1,0,0:0:0:0:
64,192,108579,1,0,0:0:0:0:
64,192,109079,1,0,0:0:0:0:
448,192,109079,1,0,0:0:0:0:
192,192,109245,1,0,0:0:0:0:
320,192,109412,1,0,0:0:0:0:
192,192,109579,1,0,0:0:0:0:
320,192,109745,1,0,0:0:0:0:
192,192,109891,1,0,0:0:0:0:
64,192,110079,1,0,0:0:0:0:
192,192,110245,1,0,0:0:0:0:
448,192,110391,1,0,0:0:0:0:
320,192,110579,1,0,0:0:0:0:
448,192,110745,1,0,0:0:0:0:
320,192,110891,1,0,0:0:0:0:
192,192,111047,1,0,0:0:0:0:
192,192,111579,128,0,112079:0:0:0:0:
64,192,111579,1,0,0:0:0:0:
448,192,111829,1,0,0:0:0:0:
320,192,112079,128,0,112329:0:0:0:0:
64,192,112079,1,0,0:0:0:0:
448,192,112329,1,0,0:0:0:0:
192,192,112579,1,0,0:0:0:0:
320,192,112829,1,0,0:0:0:0:
448,192,113079,1,0,0:0:0:0:
320,192,113079,128,0,113579:0:0:0:0:
64,192,113329,1,0,0:0:0:0:
192,192,113579,128,0,113829:0:0:0:0:
448,192,113579,1,0,0:0:0:0:
64,192,113829,1,0,0:0:0:0:
448,192,114079,1,0,0:0:0:0:
192,192,114329,128,0,114579:0:0:0:0:
64,192,114329,1,0,0:0:0:0:
320,192,114579,128,0,115079:0:0:0:0:
448,192,114579,1,0,0:0:0:0:
64,192,114829,1,0,0:0:0:0:
192,192,115079,128,0,115329:0:0:0:0:
448,192,115079,1,0,0:0:0:0:
320,192,115329,128,0,117329:0:0:0:0:
64,192,115329,1,0,0:0:0:0:
192,192,115579,1,0,0:0:0:0:
448,192,115829,1,0,0:0:0:0:
64,192,116079,1,0,0:0:0:0:
192,192,116329,1,0,0:0:0:0:
448,192,116579,1,0,0:0:0:0:
192,192,116829,1,0,0:0:0:0:
64,192,117079,1,0,0:0:0:0:
448,192,117329,1,0,0:0:0:0:
64,192,117579,1,0,0:0:0:0:
192,192,117579,1,0,0:0:0:0:
320,192,117829,1,0,0:0:0:0:
192,192,118079,128,0,118329:0:0:0:0:
448,192,118079,1,0,0:0:0:0:
64,192,118329,1,0,0:0:0:0:
448,192,118579,1,0,0:0:0:0:
64,192,118829,1,0,0:0:0:0:
192,192,119079,1,0,0:0:0:0:
320,192,119079,1,0,0:0:0:0:
448,192,119329,1,0,0:0:0:0:
320,192,119579,128,0,119829:0:0:0:0:
64,192,119579,1,0,0:0:0:0:
192,192,119829,1,0,0:0:0:0:
448,192,120079,1,0,0:0:0:0:
192,192,120329,128,0,120579:0:0:0:0:
64,192,120329,1,0,0:0:0:0:
320,192,120579,128,0,121079:0:0:0:0:
448,192,120579,1,0,0:0:0:0:
64,192,120829,1,0,0:0:0:0:
448,192,121079,128,0,121329:0:0:0:0:
192,192,121079,1,0,0:0:0:0:
320,192,121329,128,0,121829:0:0:0:0:
192,192,121329,1,0,0:0:0:0:
448,192,121579,1,0,0:0:0:0:
192,192,121829,128,0,122079:0:0:0:0:
64,192,121829,1,0,0:0:0:0:
320,192,122079,128,0,122579:0:0:0:0:
64,192,122079,1,0,0:0:0:0:
192,192,122329,1,0,0:0:0:0:
192,192,122579,128,0,122829:0:0:0:0:
448,192,122579,1,0,0:0:0:0:
320,192,122829,1,0,0:0:0:0:
64,192,122829,1,0,0:0:0:0:
192,192,123485,1,0,0:0:0:0:
320,192,123516,1,0,0:0:0:0:
448,192,123579,1,0,0:0:0:0:
192,192,123829,1,0,0:0:0:0:
320,192,124079,128,0,124329:0:0:0:0:
64,192,124079,1,0,0:0:0:0:
448,192,124329,1,0,0:0:0:0:
192,192,124329,1,0,0:0:0:0:
64,192,124579,1,0,0:0:0:0:
448,192,124829,1,0,0:0:0:0:
64,192,125079,1,0,0:0:0:0:
192,192,125079,1,0,0:0:0:0:
320,192,125329,1,0,0:0:0:0:
192,192,125579,128,0,125829:0:0:0:0:
448,192,125579,1,0,0:0:0:0:
64,192,125829,1,0,0:0:0:0:
320,192,125829,1,0,0:0:0:0:
192,192,126079,1,0,0:0:0:0:
320,192,126329,128,0,126579:0:0:0:0:
448,192,126329,1,0,0:0:0:0:
192,192,126579,1,0,0:0:0:0:
64,192,126579,1,0,0:0:0:0:
448,192,126829,1,0,0:0:0:0:
192,192,127079,128,0,127329:0:0:0:0:
64,192,127079,1,0,0:0:0:0:
320,192,127329,1,0,0:0:0:0:
448,192,127329,1,0,0:0:0:0:
64,192,127579,1,0,0:0:0:0:
320,192,127829,128,0,128079:0:0:0:0:
448,192,127829,1,0,0:0:0:0:
64,192,128079,1,0,0:0:0:0:
192,192,128079,128,0,129079:0:0:0:0:
448,192,128079,1,0,0:0:0:0:
320,192,128329,1,0,0:0:0:0:
64,192,128579,1,0,0:0:0:0:
448,192,128829,1,0,0:0:0:0:
64,192,129079,1,0,0:0:0:0:
320,192,129454,1,0,0:0:0:0:
192,192,129485,1,0,0:0:0:0:
64,192,129547,1,0,0:0:0:0:
448,192,129829,1,0,0:0:0:0:
192,192,130079,128,0,130329:0:0:0:0:
64,192,130079,1,0,0:0:0:0:
320,192,130329,1,0,0:0:0:0:
448,192,130329,128,0,132329:0:0:0:0:
192,192,130579,1,0,0:0:0:0:
64,192,130829,1,0,0:0:0:0:
320,192,131079,1,0,0:0:0:0:
192,192,131079,1,0,0:0:0:0:
64,192,131360,1,0,0:0:0:0:
192,192,131579,1,0,0:0:0:0:
320,192,131579,1,0,0:0:0:0:
64,192,131829,1,0,0:0:0:0:
320,192,131829,1,0,0:0:0:0:
192,192,132079,1,0,0:0:0:0:
192,192,132329,128,0,134829:0:0:0:0:
320,192,132329,1,0,0:0:0:0:
64,192,132579,1,0,0:0:0:0:
320,192,132579,1,0,0:0:0:0:
448,192,132829,1,0,0:0:0:0:
64,192,133079,1,0,0:0:0:0:
320,192,133079,1,0,0:0:0:0:
64,192,133329,1,0,0:0:0:0:
320,192,133329,1,0,0:0:0:0:
320,192,133579,1,0,0:0:0:0:
448,192,133829,1,0,0:0:0:0:
320,192,133829,1,0,0:0:0:0:
448,192,134079,1,0,0:0:0:0:
320,192,134079,1,0,0:0:0:0:
64,192,134329,1,0,0:0:0:0:
448,192,134579,1,0,0:0:0:0:
320,192,134579,1,0,0:0:0:0:
64,192,134829,1,0,0:0:0:0:
64,192,135329,128,0,138329:0:0:0:0:
192,192,135579,1,0,0:0:0:0:
448,192,135829,1,0,0:0:0:0:
192,192,136079,1,0,0:0:0:0:
320,192,136079,1,0,0:0:0:0:
448,192,136329,1,0,0:0:0:0:
192,192,136579,1,0,0:0:0:0:
320,192,136579,1,0,0:0:0:0:
448,192,136829,1,0,0:0:0:0:
192,192,136829,1,0,0:0:0:0:
320,192,137079,1,0,0:0:0:0:
448,192,137329,1,0,0:0:0:0:
320,192,137579,1,0,0:0:0:0:
192,192,137829,1,0,0:0:0:0:
448,192,138079,1,0,0:0:0:0:
320,192,138079,1,0,0:0:0:0:
320,192,138329,128,0,141579:0:0:0:0:
192,192,138329,1,0,0:0:0:0:
448,192,138579,1,0,0:0:0:0:
64,192,138829,1,0,0:0:0:0:
192,192,139079,1,0,0:0:0:0:
448,192,139329,1,0,0:0:0:0:
64,192,139579,1,0,0:0:0:0:
192,192,139579,1,0,0:0:0:0:
192,192,139829,1,0,0:0:0:0:
448,192,139829,1,0,0:0:0:0:
64,192,140079,1,0,0:0:0:0:
448,192,140329,1,0,0:0:0:0:
192,192,140579,1,0,0:0:0:0:
448,192,140829,1,0,0:0:0:0:
64,192,141079,1,0,0:0:0:0:
192,192,141079,1,0,0:0:0:0:
448,192,141329,1,0,0:0:0:0:
64,192,141329,1,0,0:0:0:0:
192,192,141579,128,0,143079:0:0:0:0:
448,192,141829,1,0,0:0:0:0:
64,192,142079,1,0,0:0:0:0:
448,192,142329,1,0,0:0:0:0:
64,192,142579,1,0,0:0:0:0:
320,192,142579,1,0,0:0:0:0:
448,192,142829,1,0,0:0:0:0:
320,192,142829,1,0,0:0:0:0:
64,192,143079,1,0,0:0:0:0:
320,192,143079,128,0,144329:0:0:0:0:
192,192,143329,1,0,0:0:0:0:
448,192,143579,1,0,0:0:0:0:
192,192,143829,1,0,0:0:0:0:
448,192,144079,1,0,0:0:0:0:
64,192,144079,1,0,0:0:0:0:
192,192,144329,1,0,0:0:0:0:
64,192,144329,1,0,0:0:0:0:
192,192,144579,1,0,0:0:0:0:
64,192,144579,128,0,150579:0:0:0:0:
448,192,144579,128,0,150579:0:0:0:0:
320,192,144829,1,0,0:0:0:0:
192,192,145079,128,0,150579:0:0:0:0:
320,192,145329,128,0,150579:0:0:0:0:
