osu file format v14

[General]
AudioFilename: audio.mp3
AudioLeadIn: 0
PreviewTime:55765
Countdown: 0
SampleSet: Drum
StackLeniency: 0.4
Mode: 0
LetterboxInBreaks: 0
WidescreenStoryboard: 0

[Editor]
DistanceSpacing: 0.5
BeatDivisor: 4
GridSize: 32
TimelineZoom: 1.2

[Metadata]
Title:Vandraren
TitleUnicode:Vandraren
Artist:Nordman
ArtistUnicode:Nordman
Creator:pw384
Version:Vandrare
Source:
Tags:Swedish svenska folk rock ethnopop pop the wanderer
BeatmapID:3631134
BeatmapSetID:1773431

[Difficulty]
HPDrainRate:5
CircleSize:4
OverallDifficulty:7.7
ApproachRate:8
SliderMultiplier:2.1
SliderTickRate:1

[Events]
//Background and Video events
0,0,"pexels-photo-573863.jpeg",0,0
//Break Periods
2,71756,78879
2,134737,141860
//Storyboard Layer 0 (Background)
//Storyboard Layer 1 (Fail)
//Storyboard Layer 2 (Pass)
//Storyboard Layer 3 (Foreground)
//Storyboard Layer 4 (Overlay)
//Storyboard Sound Samples

[TimingPoints]
8775,492.04123305533,4,3,1,55,1,0
8775,-138.888888888889,4,3,1,55,0,0
10743,-142.857142857143,4,3,1,55,0,0
12711,-138.888888888889,4,3,1,55,0,0
14680,-142.857142857143,4,3,1,55,0,0
16647,-125,4,3,1,70,0,0
18123,-142.857142857143,4,3,1,70,0,0
18615,-125,4,3,1,70,0,0
22060,-142.857142857143,4,3,1,70,0,0
22552,-125,4,3,1,70,0,0
24520,-125,4,3,1,60,0,0
26489,-166.666666666667,4,3,1,60,0,0
27964,-142.857142857143,4,3,1,60,0,0
28456,-125,4,3,1,60,0,0
35345,-166.666666666667,4,3,1,60,0,0
35837,-142.857142857143,4,3,1,60,0,0
36329,-125,4,3,1,60,0,0
37313,-100,4,3,1,60,0,0
38298,-125,4,3,1,60,0,0
39527,-125,4,3,1,70,0,0
40265,-83.3333333333333,4,3,1,70,0,0
40757,-100,4,3,1,70,0,0
41495,-125,4,3,1,70,0,0
42233,-83.3333333333333,4,3,1,70,0,0
43217,-125,4,3,1,70,0,0
43710,-100,4,3,1,70,0,0
44202,-83.3333333333333,4,3,1,70,0,0
44694,-125,4,3,1,70,0,0
45678,-100,4,3,1,70,0,0
47400,-125,4,3,1,70,0,0
48138,-83.3333333333333,4,3,1,70,0,0
48876,-125,4,3,1,70,0,0
50106,-83.3333333333333,4,3,1,70,0,0
51090,-125,4,3,1,70,0,0
51582,-100,4,3,1,70,0,0
52074,-83.3333333333333,4,3,1,70,0,0
52566,-125,4,3,1,70,0,0
53058,-83.3333333333333,4,3,1,70,0,0
53550,-100,4,3,1,70,0,0
54042,-125,4,3,1,70,0,0
54534,-100,4,3,1,70,0,0
55273,-125,4,3,1,70,0,0
56011,-66.6666666666667,4,3,1,75,0,0
56503,-83.3333333333333,4,3,1,75,0,0
56749,-66.6666666666667,4,3,1,75,0,0
56995,-66.6666666666667,4,3,1,75,0,0
57733,-83.3333333333333,4,3,1,75,0,0
57979,-66.6666666666667,4,3,1,75,0,0
58471,-83.3333333333333,4,3,1,75,0,0
59947,-66.6666666666667,4,3,1,75,0,0
60439,-83.3333333333333,4,3,1,75,0,0
60932,-66.6666666666667,4,3,1,75,0,0
63883,-66.6666666666667,4,3,1,75,0,0
64375,-83.3333333333333,4,3,1,75,0,0
64621,-66.6666666666667,4,3,1,75,0,0
66344,-83.3333333333333,4,3,1,75,0,0
67820,-55.5555555555556,4,3,1,75,0,0
68312,-66.6666666666667,4,3,1,75,0,0
69788,-100,4,3,1,75,0,0
70772,-500,4,3,1,75,0,0
70895,-500,4,2,0,75,0,0
71756,-125,4,3,1,75,0,0
87501,-83.3333333333333,4,3,1,60,0,0
87993,-100,4,3,1,60,0,0
88485,-125,4,3,1,60,0,0
89223,-100,4,3,1,60,0,0
89470,-83.3333333333333,4,3,1,60,0,0
90454,-125,4,3,1,60,0,0
90946,-100,4,3,1,60,0,0
91437,-83.3333333333333,4,3,1,60,0,0
91929,-125,4,3,1,60,0,0
92422,-100,4,3,1,60,0,0
92914,-83.3333333333333,4,3,1,60,0,0
93406,-100,4,3,1,60,0,0
94635,-200,4,3,1,60,0,0
95374,-83.3333333333333,4,3,1,60,0,0
95866,-125,4,3,1,60,0,0
96358,-100,4,3,1,60,0,0
97342,-83.3333333333333,4,3,1,60,0,0
97834,-100,4,3,1,60,0,0
98326,-83.3333333333333,4,3,1,60,0,0
99310,-100,4,3,1,60,0,0
99802,-125,4,3,1,60,0,0
100294,-83.3333333333333,4,3,1,60,0,0
100787,-66.6666666666667,4,3,1,60,0,0
101033,-83.3333333333333,4,3,1,60,0,0
102509,-133.333333333333,4,3,1,60,0,0
103247,-83.3333333333333,4,3,1,65,0,0
104477,-100,4,3,1,65,0,0
105706,-83.3333333333333,4,3,1,65,0,0
107183,-100,4,3,1,65,0,0
107675,-83.3333333333333,4,3,1,65,0,0
108659,-100,4,3,1,65,0,0
109151,-83.3333333333333,4,3,1,65,0,0
109643,-100,4,3,1,65,0,0
110381,-133.333333333333,4,3,1,65,0,0
111119,-83.3333333333333,4,3,1,65,0,0
112596,-100,4,3,1,65,0,0
113580,-83.3333333333333,4,3,1,65,0,0
115056,-100,4,3,1,65,0,0
115548,-83.3333333333333,4,3,1,65,0,0
117023,-100,4,3,1,65,0,0
117515,-83.3333333333333,4,3,1,65,0,0
118254,-133.333333333333,4,3,1,65,0,0
118992,-66.6666666666667,4,3,1,75,0,0
121944,-83.3333333333333,4,3,1,75,0,0
122928,-66.6666666666667,4,3,1,75,0,0
123420,-83.3333333333333,4,3,1,75,0,0
123666,-66.6666666666667,4,3,1,75,0,0
125881,-66.6666666666667,4,3,1,75,0,0
126865,-66.6666666666667,4,3,1,75,0,0
129817,-83.3333333333333,4,3,1,75,0,0
130309,-66.6666666666667,4,3,1,75,0,0
130801,-55.5555555555556,4,3,1,75,0,0
131293,-66.6666666666667,4,3,1,75,0,0
132277,-83.3333333333333,4,3,1,75,0,0
132523,-66.6666666666667,4,3,1,75,0,0
132769,-100,4,3,1,75,0,0
142610,-125,4,3,1,50,0,0
146546,-144.927536231884,4,3,1,50,0,0
148515,-142.857142857143,4,3,1,50,0,0
149498,-142.857142857143,4,3,1,60,0,0
150482,-125,4,3,1,60,0,0
157617,-125,4,3,1,70,0,0
158356,-66.6666666666667,4,3,1,80,0,0
161799,-83.3333333333333,4,3,1,80,0,0
162291,-66.6666666666667,4,3,1,80,0,0
165244,-83.3333333333333,4,3,1,80,0,0
165490,-66.6666666666667,4,3,1,80,0,0
166228,-66.6666666666667,4,3,1,80,0,0
170165,-55.5555555555556,4,3,1,80,0,0
170657,-66.6666666666667,4,3,1,80,0,0
171641,-83.3333333333333,4,3,1,80,0,0
172132,-100,4,3,1,80,0,0
174100,-83.3333333333333,4,3,1,75,0,0
174592,-111.111111111111,4,3,1,75,0,0
176069,-83.3333333333333,4,3,1,75,0,0
176561,-111.111111111111,4,3,1,75,0,0
177545,-125,4,3,1,75,0,0
181974,-83.3333333333333,4,3,1,75,0,0
182466,-111.111111111111,4,3,1,75,0,0
183941,-83.3333333333333,4,3,1,75,0,0
184433,-111.111111111111,4,3,1,75,0,0
185417,-125,4,3,1,75,0,0
188862,-500,4,3,1,75,0,0

[Colours]
Combo1 : 166,210,168
Combo2 : 192,192,192
Combo3 : 149,197,255

[HitObjects]
0,212,8775,6,0,B|48:207|61:158|61:158|45:90|45:90|63:52|103:52|103:52|250:82|250:82|216:98|205:138,1,453.600011074219,4|0,0:0|2:0,2:0:0:0:
287,157,10497,1,0,0:0:0:0:
287,157,10620,1,0,0:0:0:0:
287,157,10743,6,0,B|395:149|395:149|416:110,1,146.999995513916,4|4,0:0|0:0,2:0:0:0:
165,297,11727,1,4,0:0:0:0:
100,259,11973,2,0,B|118:224|118:224|226:216,1,146.999995513916,4|0,0:0|2:0,2:0:0:0:
307,237,12711,6,0,B|296:275|262:291|262:291|409:321|409:321|449:321|467:283|467:283|451:215|451:215|464:166|512:161,1,453.600011074219,0|0,0:0|0:0,2:0:0:0:
501,6,14433,1,0,0:0:0:0:
501,6,14557,1,0,0:0:0:0:
501,6,14680,6,0,P|444:30|442:116,1,146.999995513916,4|0,0:0|0:0,0:0:0:0:
512,225,15664,1,4,0:0:0:0:
512,225,15910,2,0,P|446:192|376:174,1,146.999995513916,4|0,0:0|2:0,0:0:0:0:
322,108,16647,5,2,0:0:0:0:
322,108,16893,1,2,0:0:0:0:
238,291,17139,2,0,P|244:246|267:162,1,126,8|0,0:0|2:0,0:0:0:0:
264,168,17631,2,0,P|243:133|243:87,1,84,2|2,0:0|0:0,0:0:0:0:
156,256,18123,2,0,P|162:219|172:184,1,73.4999977569581,8|2,0:0|0:0,0:0:0:0:
116,43,18615,5,2,0:0:0:0:
116,43,18861,1,2,0:0:0:0:
93,146,19107,2,0,P|87:191|64:275,1,126,8|0,0:0|2:0,0:0:0:0:
12,327,19599,5,2,0:0:0:0:
89,346,19845,2,0,P|88:305|67:270,1,84,2|8,0:0|0:0,0:0:0:0:
66,270,20584,5,2,0:0:0:0:
66,270,20830,1,2,0:0:0:0:
150,87,21076,2,0,P|144:132|121:216,1,126,8|0,0:0|2:0,0:0:0:0:
123,210,21568,2,0,P|144:245|144:291,1,84,2|2,0:0|0:0,0:0:0:0:
232,122,22060,2,0,P|225:158|215:193,1,73.4999977569581,8|2,0:0|0:0,0:0:0:0:
272,335,22552,5,2,0:0:0:0:
272,335,22798,1,2,0:0:0:0:
295,232,23044,2,0,P|301:187|324:103,1,126,8|0,0:0|2:0,0:0:0:0:
376,51,23536,5,2,0:0:0:0:
299,32,23782,2,0,P|300:73|321:108,1,84,8|8,0:0|0:0,0:0:0:0:
174,116,24520,6,0,P|142:114|85:188,1,126
0,244,25258,2,0,P|76:209|158:190,1,168
229,236,25996,2,0,B|260:269|260:269|247:317,1,84,2|0,0:0|0:0,0:0:0:0:
201,375,26489,5,0,0:0:0:0:
229,236,26858,1,0,0:0:0:0:
257,97,27227,1,0,0:0:0:0:
170,3,27473,6,0,P|182:38|190:84,1,62.9999980773926
300,171,27964,2,0,P|328:146|330:95,1,73.4999977569581,2|0,0:0|0:0,0:0:0:0:
300,171,28456,6,0,P|328:159|435:133,1,126,0|0,0:0|2:0,0:0:0:0:
420,134,28948,2,0,P|425:92|402:54,1,84,2|0,0:0|0:0,0:0:0:0:
401,218,29440,2,0,P|436:222|487:238,1,84
482,236,29932,2,0,P|425:249|333:293,1,126,2|0,0:0|2:0,0:0:0:0:
354,285,30424,6,0,P|417:297|516:333,2,168,0|2|0,0:0|0:0|0:0,0:0:0:0:
291,228,31654,1,0,0:0:0:0:
144,330,31901,1,2,0:0:0:0:
338,116,32393,6,0,P|370:114|427:188,1,126
512,244,33131,2,0,P|436:209|354:190,1,168
283,236,33869,2,0,B|252:269|252:269|265:317,1,84,2|0,0:0|0:0,0:0:0:0:
311,375,34362,5,0,0:0:0:0:
283,236,34731,1,0,0:0:0:0:
255,97,35100,1,0,0:0:0:0:
342,3,35346,6,0,P|330:38|322:84,1,62.9999980773926
212,171,35837,2,0,P|184:146|182:95,1,73.4999977569581,2|0,0:0|0:0,0:0:0:0:
212,171,36330,6,0,P|184:159|77:133,1,126,0|0,0:0|2:0,0:0:0:0:
92,134,36821,2,0,P|87:92|110:54,1,84,2|0,0:0|0:0,0:0:0:0:
40,11,37313,6,0,P|62:93|91:230,1,210,0|2,0:0|0:0,0:0:0:0:
41,289,38052,1,0,0:0:0:0:
166,244,38298,6,0,P|172:196|150:161,1,84
41,289,38790,2,0,B|95:280|120:297|115:315|145:331|200:320,1,168,2|0,0:0|0:0,0:0:0:0:
424,210,39527,5,8,0:0:0:0:
424,210,39773,1,8,0:0:0:0:
357,58,40265,6,0,B|336:108|374:136|394:133|408:130|452:166|422:216,1,188.999994232178
425,210,40757,5,8,0:0:0:0:
380,282,41003,2,0,B|337:251|337:251|347:199,1,105,2|0,0:0|0:0,0:0:0:0:
429,59,41495,5,2,0:0:0:0:
512,29,41741,2,0,P|473:55|429:71,1,84,8|2,0:0|0:0,0:0:0:0:
269,181,42233,6,0,P|249:128|183:113,1,125.999996154785,0|2,0:0|0:0,0:0:0:0:
124,157,42602,1,0,0:0:0:0:
124,157,42725,1,8,0:0:0:0:
78,9,42971,1,2,0:0:0:0:
56,204,43217,6,0,P|71:237|80:284,1,84,0|2,0:0|0:0,0:0:0:0:
241,378,43710,2,0,B|282:345|282:345|274:294,1,105,8|2,0:0|0:0,0:0:0:0:
17,330,44202,6,0,P|78:305|201:311,1,188.999994232178,0|0,0:0|2:0,0:0:0:0:
199,310,44694,2,0,P|195:256|195:225,1,84,8|2,0:0|0:0,0:0:0:0:
14,75,45186,2,0,P|40:110|94:116,1,84,0|2,0:0|0:0,0:0:0:0:
117,207,45678,2,0,P|143:166|259:176,1,157.5,8|0,0:0|2:0,0:0:0:0:
243,161,46170,6,0,B|217:112|265:110|234:59,1,105,0|2,0:0|0:0,0:0:0:0:
165,27,46539,1,0,0:0:0:0:
165,27,46662,1,8,0:0:0:0:
320,154,46908,1,2,0:0:0:0:
197,227,47154,5,0,0:0:0:0:
252,320,47400,6,0,L|265:264,1,42,8|0,0:0|2:0,0:0:0:0:
248,333,47646,2,0,L|235:389,1,42,8|0,0:0|2:0,0:0:0:0:
25,196,48138,6,0,B|109:178|109:178|126:150|126:150|197:134,1,188.999994232178
194,134,48630,1,8,0:0:0:0:
77,35,48876,2,0,P|52:67|56:108,1,84,2|0,0:0|0:0,0:0:0:0:
182,218,49369,1,2,0:0:0:0:
120,267,49615,2,0,P|178:238|213:231,1,84,8|2,0:0|0:0,0:0:0:0:
266,100,50106,6,0,P|301:152|368:151,1,125.999996154785,0|2,0:0|0:0,0:0:0:0:
431,125,50475,1,0,0:0:0:0:
431,125,50598,1,8,0:0:0:0:
311,37,50844,1,2,0:0:0:0:
348,166,51090,6,0,P|357:205|365:256,1,84,0|2,0:0|0:0,0:0:0:0:
496,291,51582,2,0,B|508:343|508:343|473:381,1,105,8|2,0:0|0:0,0:0:0:0:
420,316,52074,6,0,P|354:294|233:270,1,188.999994232178,0|0,0:0|2:0,0:0:0:0:
237,270,52566,2,0,P|254:307|253:349,1,84,8|2,0:0|0:0,0:0:0:0:
202,129,53058,6,0,B|227:176|191:208|171:206|157:205|116:244|151:292,1,188.999994232178,0|0,0:0|2:0,0:0:0:0:
157,291,53550,1,8,0:0:0:0:
0,382,53796,1,2,0:0:0:0:
57,113,54042,6,0,P|89:144|138:139,1,84,0|2,0:0|0:0,0:0:0:0:
184,222,54411,1,0,0:0:0:0:
184,222,54534,2,0,P|207:173|307:165,1,157.5,8|0,0:0|2:0,0:0:0:0:
366,206,55027,1,0,0:0:0:0:
273,10,55273,6,0,L|264:51,1,42,8|0,0:0|2:0,0:0:0:0:
250,104,55519,2,0,L|260:64,1,42,8|0,0:0|2:0,0:0:0:0:
273,10,56011,6,0,P|217:67|70:54,1,236.250009012223,4|0,0:2|2:0,1:0:0:0:
70,54,56503,2,0,P|86:93|93:121,1,62.9999980773926,8|0,0:0|2:0,0:0:0:0:
210,261,56749,2,0,B|238:233|238:233|217:186,1,78.7500030040742,2|0,0:0|2:0,0:0:0:0:
152,159,56995,6,0,P|132:253|122:320,1,157.500006008148,4|2,0:3|0:0,1:0:0:0:
66,371,57364,1,0,0:0:0:0:
66,371,57487,2,0,P|46:343|47:295,1,78.7500030040742,8|0,0:0|2:0,0:0:0:0:
152,159,57733,1,2,0:0:0:0:
0,238,57979,6,0,P|79:283|248:274,1,236.250009012223,4|0,0:3|2:0,1:0:0:0:
334,337,58471,2,0,P|305:336|259:368,1,62.9999980773926,8|0,0:0|2:0,0:0:0:0:
274,350,58717,2,0,P|306:298|290:232,1,125.999996154785,2|4,0:0|0:3,1:0:0:0:
236,93,59209,1,2,0:0:0:0:
410,313,59455,2,0,P|455:311|513:384,1,125.999996154785,8|2,0:0|0:0,0:0:0:0:
455,233,59947,6,0,B|480:171|434:137|409:141|392:144|338:100|367:42,1,236.250009012223,4|0,0:2|2:0,1:0:0:0:
487,25,60439,2,0,P|457:57|414:60,1,62.9999980773926,8|0,0:0|2:0,0:0:0:0:
311,152,60686,2,0,P|286:145|243:140,1,62.9999980773926,2|0,0:0|2:0,0:0:0:0:
434,68,60932,6,0,P|361:73|232:43,1,157.500006008148,4|2,0:3|0:0,1:0:0:0:
203,40,61300,1,0,0:0:0:0:
203,40,61423,2,0,P|125:27|47:31,1,157.500006008148,8|2,0:0|0:0,0:0:0:0:
162,114,61915,5,4,0:3:0:0:
355,33,62161,1,2,0:0:0:0:
355,33,62284,1,0,0:0:0:0:
355,33,62407,1,10,0:2:0:0:
236,189,62653,1,2,0:0:0:0:
306,327,62899,6,0,B|338:301|338:301|330:259,1,78.7500030040742,4|0,0:3|2:0,0:0:0:0:
236,189,63145,2,0,P|248:228|254:284,1,78.7500030040742,10|0,0:2|2:0,0:0:0:0:
245,379,63391,1,10,0:2:0:0:
245,379,63637,1,0,0:0:0:0:
239,10,63883,6,0,P|295:67|442:54,1,236.250009012223,4|0,0:2|2:0,1:0:0:0:
442,54,64375,2,0,P|426:93|419:121,1,62.9999980773926,8|0,0:0|2:0,0:0:0:0:
302,261,64621,2,0,B|274:233|274:233|295:186,1,78.7500030040742,2|0,0:0|2:0,0:0:0:0:
360,159,64867,6,0,P|380:253|390:320,1,157.500006008148,4|2,0:3|0:0,1:0:0:0:
446,371,65236,1,0,0:0:0:0:
446,371,65359,2,0,P|466:343|465:295,1,78.7500030040742,8|0,0:0|2:0,0:0:0:0:
360,159,65605,1,2,0:0:0:0:
512,238,65851,6,0,P|433:283|264:274,1,236.250009012223,4|0,0:3|2:0,1:0:0:0:
178,337,66344,2,0,P|207:336|253:368,1,62.9999980773926,8|0,0:0|2:0,0:0:0:0:
238,350,66590,2,0,P|206:298|222:232,1,125.999996154785,2|4,0:0|0:3,1:0:0:0:
276,93,67082,1,2,0:0:0:0:
248,355,67328,6,0,P|262:268|291:158,1,188.999994232178,8|0,0:0|2:0,1:0:0:0:
195,39,67820,6,0,P|90:41|74:193,1,283.499991348267,4|0,0:2|2:0,1:0:0:0:
68,202,68312,2,0,P|101:200|151:228,1,78.7500030040742,8|0,0:0|2:0,0:0:0:0:
0,328,68558,2,0,P|25:313|72:293,1,78.7500030040742,2|0,0:0|2:0,0:0:0:0:
216,179,68804,6,0,P|263:213|289:312,1,157.500006008148,4|2,0:3|0:0,1:0:0:0:
262,380,69173,1,0,0:0:0:0:
253,368,69296,2,0,P|256:341|303:300,1,78.7500030040742,8|0,0:0|2:0,0:0:0:0:
321,150,69542,2,0,B|354:169|354:169|365:216,1,78.7500030040742,2|0,0:0|2:0,0:0:0:0:
181,318,69788,5,4,0:3:0:0:
104,337,70280,5,4,0:3:0:0:
27,356,70772,6,0,L|13:352,4,10.5,4|2|2|2|0,0:3|0:2|0:2|0:2|0:2,0:0:0:0:
256,192,79629,5,4,0:0:0:0:
256,192,79752,12,4,81597,0:0:0:0:
256,192,82581,5,4,0:0:0:0:
256,192,82827,1,4,0:0:0:0:
256,192,83565,5,4,0:0:0:0:
256,192,83688,12,4,85533,0:0:0:0:
256,192,86517,5,4,0:0:0:0:
220,19,86763,1,8,0:0:0:0:
308,139,87009,1,8,0:0:0:0:
204,245,87501,6,0,P|140:267|18:300,1,188.999994232178
86,122,87993,2,0,B|50:163|50:163|75:233,1,105,8|2,0:0|0:0,0:0:0:0:
108,373,88485,5,0,0:0:0:0:
197,334,88731,2,0,P|152:347|107:364,1,84,2|8,0:0|0:0,0:0:0:0:
193,201,89223,2,0,P|183:225|177:251,1,52.5,2|0,0:0|0:0,0:0:0:0:
177,251,89470,6,0,P|212:296|286:282,1,125.999996154785,0|2,0:0|0:0,0:0:0:0:
335,245,89839,1,0,0:0:0:0:
335,245,89962,1,8,0:0:0:0:
474,335,90208,1,2,0:0:0:0:
435,209,90454,6,0,P|420:242|411:289,1,84,0|2,0:0|0:0,0:0:0:0:
217,299,90946,2,0,B|209:350|209:350|250:383,1,105,8|2,0:0|0:0,0:0:0:0:
474,335,91437,6,0,P|413:310|290:316,1,188.999994232178,0|0,0:0|2:0,0:0:0:0:
296,231,91929,2,0,P|294:273|292:315,1,84,8|2,0:0|0:0,0:0:0:0:
343,100,92422,2,0,P|379:147|361:199,1,105,0|2,0:0|0:0,0:0:0:0:
205,176,92914,2,0,P|212:258|216:374,1,188.999994232178,8|0,0:0|2:0,0:0:0:0:
196,348,93406,6,0,P|144:337|78:327,1,105,0|2,0:0|0:0,0:0:0:0:
29,235,93775,1,0,0:0:0:0:
29,235,93898,2,0,P|81:246|147:256,1,105,8|2,0:0|0:0,0:0:0:0:
445,167,94389,5,0,0:0:0:0:
244,24,94635,6,0,L|249:60,1,26.25,10|0,0:2|2:0,0:0:0:0:
265,158,94881,2,0,L|260:122,1,26.25,10|0,0:2|2:0,0:0:0:0:
262,132,95374,6,0,B|276:181|221:210|215:202|209:194|151:233|166:278,1,188.999994232178
300,335,95866,2,0,P|277:300|243:277,1,84,8|2,0:0|0:0,0:0:0:0:
157,127,96358,6,0,P|121:166|59:161,1,105,0|2,0:0|0:0,0:0:0:0:
5,132,96727,1,0,0:0:0:0:
5,132,96850,1,8,0:0:0:0:
157,127,97096,2,0,P|147:155|139:194,1,52.5,2|0,0:0|0:0,0:0:0:0:
191,241,97342,6,0,P|202:295|211:375,1,125.999996154785,0|2,0:0|0:0,0:0:0:0:
279,281,97711,1,0,0:0:0:0:
279,281,97834,2,0,B|316:243|316:243|294:191,1,105,8|2,0:0|0:0,0:0:0:0:
4,245,98326,6,0,P|72:237|120:335,1,188.999994232178,0|0,0:0|2:0,0:0:0:0:
45,310,98818,5,8,0:0:0:0:
191,241,99064,1,2,0:0:0:0:
29,54,99310,6,0,P|42:108|63:174,1,105,0|2,0:0|0:0,0:0:0:0:
45,310,99679,1,0,0:0:0:0:
45,310,99802,2,0,P|85:334|135:338,1,84,8|2,0:0|0:0,0:0:0:0:
14,378,100294,6,0,P|95:336|210:322,1,188.999994232178,0|0,0:0|2:0,0:0:0:0:
200,332,100787,2,0,B|228:304|228:304|212:261,1,78.7500030040742,8|0,0:0|2:0,0:0:0:0:
119,204,101033,2,0,P|134:171|141:137,1,62.9999980773926,2|0,0:0|2:0,0:0:0:0:
279,172,101279,6,0,P|222:193|206:252,1,125.999996154785,0|2,0:0|0:0,0:0:0:0:
306,309,101648,1,0,0:0:0:0:
306,309,101771,2,0,B|397:323|397:323|424:349|424:349|490:356,1,188.999994232178,8|0,0:0|2:0,0:0:0:0:
463,273,102263,5,0,0:0:0:0:
220,366,102509,6,0,L|228:328,1,39.3750015020371,10|0,0:2|2:0,0:0:0:0:
256,192,102755,2,0,L|264:154,1,39.3750015020371,10|0,0:2|2:0,0:0:0:0:
263,38,103247,6,0,P|195:64|198:117,1,125.999996154785,0|2,0:0|0:0,0:0:0:0:
113,152,103616,1,0,0:0:0:0:
113,152,103739,2,0,P|114:113|107:79,1,62.9999980773926,8|0,0:0|2:0,0:0:0:0:
17,73,103985,2,0,P|34:146|41:216,1,125.999996154785,2|0,0:0|0:0,0:0:0:0:
256,320,104477,5,2,0:0:0:0:
26,209,104723,2,0,B|8:255|8:255|44:299,1,105,8|2,0:0|0:0,0:0:0:0:
277,133,105215,6,0,P|265:185|258:237,1,105,0|2,0:0|0:0,0:0:0:0:
165,180,105583,1,0,0:0:0:0:
181,172,105706,2,0,P|187:138|192:98,1,62.9999980773926,8|0,0:0|2:0,0:0:0:0:
256,11,105952,2,0,P|212:33|203:105,1,125.999996154785,2|0,0:0|0:0,0:0:0:0:
256,320,106444,5,2,0:0:0:0:
472,196,106691,2,0,P|480:134|495:73,1,125.999996154785,8|2,0:0|0:0,0:0:0:0:
393,266,107183,6,0,P|371:225|378:153,1,105,0|2,0:0|0:0,0:0:0:0:
280,154,107552,1,0,0:0:0:0:
280,154,107675,2,0,P|287:111|385:94,1,125.999996154785,8|2,0:0|0:0,0:0:0:0:
297,247,108167,6,0,P|239:222|179:207,1,125.999996154785,0|2,0:0|0:0,0:0:0:0:
110,123,108536,1,0,0:0:0:0:
110,123,108659,2,0,P|178:118|226:68,1,105,8|2,0:0|0:0,0:0:0:0:
227,5,109028,1,0,0:0:0:0:
216,21,109151,6,0,P|196:113|178:206,1,188.999994232178,0|0,0:0|2:0,0:0:0:0:
131,269,109643,2,0,B|80:278|80:278|42:236,1,105,8|2,0:0|0:0,0:0:0:0:
44,238,110135,5,0,0:0:0:0:
281,328,110381,6,0,L|273:290,1,39.3750015020371,10|0,0:2|2:0,0:0:0:0:
240,95,110627,2,0,L|232:57,1,39.3750015020371,10|0,0:2|2:0,0:0:0:0:
249,38,111119,6,0,P|317:64|314:117,1,125.999996154785,0|2,0:0|0:0,0:0:0:0:
399,152,111488,1,0,0:0:0:0:
399,152,111611,2,0,P|398:113|405:79,1,62.9999980773926,8|0,0:0|2:0,0:0:0:0:
495,73,111857,2,0,P|478:146|471:216,1,125.999996154785,2|0,0:0|0:0,0:0:0:0:
256,320,112350,5,2,0:0:0:0:
486,209,112596,2,0,B|504:255|504:255|468:299,1,105,8|2,0:0|0:0,0:0:0:0:
235,133,113088,6,0,P|247:185|254:237,1,105,0|2,0:0|0:0,0:0:0:0:
347,180,113456,1,0,0:0:0:0:
331,172,113580,2,0,P|325:138|320:98,1,62.9999980773926,8|0,0:0|2:0,0:0:0:0:
256,11,113826,2,0,P|300:33|309:105,1,125.999996154785,2|0,0:0|0:0,0:0:0:0:
256,320,114318,5,2,0:0:0:0:
186,361,114564,1,8,0:0:0:0:
326,361,114810,1,2,0:0:0:0:
258,236,115056,6,0,P|265:184|277:133,1,105,0|2,0:0|0:0,0:0:0:0:
270,24,115425,1,0,0:0:0:0:
256,11,115548,2,0,P|212:33|203:105,1,125.999996154785,8|2,0:0|0:0,0:0:0:0:
347,234,116040,6,0,B|302:273|259:263|261:255|208:242|170:274,1,188.999994232178,0|0,0:0|2:0,0:0:0:0:
114,335,116531,1,8,0:0:0:0:
1,198,116777,1,2,0:0:0:0:
110,34,117023,6,0,P|100:83|93:154,1,105,0|2,0:0|0:0,0:0:0:0:
156,186,117392,1,0,0:0:0:0:
168,177,117515,2,0,B|193:224|157:256|137:254|123:253|82:292|117:340,1,188.999994232178,8|0,0:0|2:0,0:0:0:0:
177,380,118008,5,0,0:0:0:0:
239,330,118254,6,0,L|246:278,1,39.3750015020371,10|0,0:2|2:0,0:0:0:0:
273,54,118500,2,0,L|267:93,1,39.3750015020371,10|0,0:2|2:0,0:0:0:0:
256,192,118746,5,0,0:0:0:0:
256,192,118869,1,0,0:0:0:0:
256,192,118992,6,0,B|373:221|356:101|483:141,1,236.250009012223,4|0,0:2|2:0,1:0:0:0:
405,34,119484,2,0,B|377:61|377:61|391:110,1,78.7500030040742,8|0,0:0|2:0,0:0:0:0:
492,263,119730,2,0,P|463:227|417:220,1,78.7500030040742,2|0,0:0|2:0,0:0:0:0:
196,47,119976,6,0,P|229:102|256:194,1,157.500006008148,4|2,0:3|0:0,1:0:0:0:
221,297,120345,1,0,0:0:0:0:
242,278,120468,2,0,P|305:299|296:406,1,157.500006008148,8|2,0:0|0:0,0:0:0:0:
367,138,120960,6,0,P|338:221|309:368,1,236.250009012223,4|0,0:3|2:0,1:0:0:0:
188,155,121452,2,0,P|226:185|279:188,1,78.7500030040742,8|0,0:0|2:0,0:0:0:0:
501,255,121698,1,2,0:0:0:0:
501,255,121821,1,0,0:0:0:0:
501,255,121944,2,0,P|460:257|411:327,1,125.999996154785,4|2,0:3|0:0,0:0:0:0:
137,283,122436,2,0,B|130:345|130:345|184:378,1,125.999996154785,8|2,0:0|0:0,0:0:0:0:
496,336,122928,6,0,P|431:281|281:275,1,236.250009012223,4|0,0:2|2:0,1:0:0:0:
213,304,123420,2,0,P|206:235|200:210,1,62.9999980773926,8|0,0:0|2:0,0:0:0:0:
438,199,123666,2,0,P|481:176|486:134,1,78.7500030040742,2|0,0:0|2:0,0:0:0:0:
344,0,123913,6,0,P|362:76|373:154,1,157.500006008148,4|2,0:3|0:0,1:0:0:0:
502,262,124282,1,0,0:0:0:0:
502,262,124405,2,0,P|429:307|359:284,1,157.500006008148,8|2,0:0|0:0,0:0:0:0:
242,117,124897,5,4,0:3:0:0:
186,330,125143,1,2,0:0:0:0:
186,330,125266,1,0,0:0:0:0:
186,330,125389,1,10,0:2:0:0:
330,220,125635,1,2,0:0:0:0:
186,330,125881,6,0,B|154:304|154:304|162:262,1,78.7500030040742,4|0,0:3|2:0,0:0:0:0:
256,192,126127,2,0,P|244:231|238:287,1,78.7500030040742,10|0,0:2|2:0,0:0:0:0:
247,382,126373,1,10,0:2:0:0:
265,2,126619,1,0,0:0:0:0:
256,192,126865,6,0,B|139:221|156:101|29:141,1,236.250009012223,4|0,0:2|2:0,1:0:0:0:
107,34,127357,2,0,B|135:61|135:61|121:110,1,78.7500030040742,8|0,0:0|2:0,0:0:0:0:
20,263,127602,2,0,P|49:227|95:220,1,78.7500030040742,2|0,0:0|2:0,0:0:0:0:
316,47,127848,6,0,P|283:102|256:194,1,157.500006008148,4|2,0:3|0:0,1:0:0:0:
291,297,128217,1,0,0:0:0:0:
270,278,128340,2,0,P|207:299|216:406,1,157.500006008148,8|2,0:0|0:0,0:0:0:0:
145,138,128832,6,0,P|174:221|203:368,1,236.250009012223,4|0,0:3|2:0,1:0:0:0:
324,155,129324,2,0,P|286:185|233:188,1,78.7500030040742,8|0,0:0|2:0,0:0:0:0:
11,255,129571,1,2,0:0:0:0:
11,255,129693,1,0,0:0:0:0:
11,255,129817,2,0,P|52:257|101:327,1,125.999996154785,4|2,0:3|0:0,0:0:0:0:
16,0,130309,6,0,B|-15:64|40:102|54:98|68:94|127:133|92:203,1,236.250009012223,8|0,0:0|2:0,1:0:0:0:
16,336,130801,6,0,P|81:281|308:285,1,283.499991348267,4|0,0:2|2:0,1:0:0:0:
331,318,131293,6,0,P|368:306|431:284,1,78.7500030040742,8|0,0:0|2:0,0:0:0:0:
285,114,131539,2,0,P|247:124|227:168,1,78.7500030040742,2|0,0:0|2:0,0:0:0:0:
213,333,131785,6,0,P|231:244|257:154,1,157.500006008148,4|2,0:3|0:0,1:0:0:0:
162,35,132154,1,0,0:0:0:0:
162,35,132277,2,0,P|166:74|178:109,1,62.9999980773926,8|0,0:0|2:0,0:0:0:0:
342,166,132523,2,0,B|370:198|370:198|358:235,1,78.7500030040742,2|0,0:0|2:0,0:0:0:0:
331,318,132769,5,4,0:3:0:0:
408,337,133261,5,4,0:3:0:0:
485,356,133753,5,4,0:3:0:0:
489,360,133876,1,2,0:0:0:0:
493,364,133999,1,6,0:0:0:0:
497,368,134122,1,2,0:0:0:0:
501,372,134245,1,4,0:0:0:0:
255,191,142610,6,0,P|183:248|201:323,1,168,0|8,0:0|0:0,0:0:0:0:
317,314,143348,2,0,P|323:234|256:191,1,168
316,65,144086,2,0,B|348:96|348:96|336:141,1,84,8|0,0:0|0:0,0:0:0:0:
504,112,144578,6,0,L|338:135,1,168,0|8,0:0|0:0,0:0:0:0:
174,249,145316,2,0,L|7:271,1,168
196,319,146054,2,0,B|164:288|164:288|176:243,1,84,8|0,0:0|0:0,0:0:0:0:
264,120,146546,6,0,L|248:264,3,144.9000002211,0|8|0|8,0:0|0:0|0:0|0:0,0:0:0:0:
200,41,148515,6,0,B|104:19|102:135|-4:97,1,220.499993270874
104,176,149499,2,0,L|22:185,2,73.4999977569581,0|10|10,0:0|0:0|0:0,0:0:0:0:
256,360,150482,5,0,0:0:0:0:
336,320,150728,2,0,P|344:279|376:240,1,84,0|8,0:0|0:0,0:0:0:0:
256,360,151220,2,0,L|255:192,1,168
176,320,151958,2,0,P|168:279|136:240,1,84,8|0,0:0|0:0,0:0:0:0:
255,192,152451,6,0,P|183:136|201:61,1,168,0|8,0:0|0:0,0:0:0:0:
317,69,153189,2,0,P|323:149|256:192,1,168
216,284,153927,2,0,P|256:272|296:284,1,84,8|0,0:0|0:0,0:0:0:0:
256,352,154419,5,0,0:0:0:0:
117,112,154911,1,8,0:0:0:0:
394,112,155403,1,0,0:0:0:0:
256,192,155895,5,8,0:0:0:0:
256,272,156141,1,0,0:0:0:0:
186,152,156387,6,0,B|248:104|256:4|256:4|264:104|325:152,1,336
256,272,157617,1,4,0:0:0:0:
256,272,157863,1,12,0:0:0:0:
16,336,158109,5,0,0:0:0:0:
16,336,158233,1,0,0:0:0:0:
16,336,158356,6,0,P|81:281|231:275,1,236.250009012223,4|0,0:2|2:0,1:0:0:0:
294,317,158848,2,0,P|317:280|358:255,1,78.7500030040742,10|0,0:2|2:0,0:0:0:0:
175,120,159094,2,0,B|150:149|150:149|156:189,1,78.7500030040742,2|0,0:0|2:0,0:0:0:0:
189,342,159340,6,0,B|169:262|246:279|230:195,1,157.500006008148,4|2,0:3|0:0,1:0:0:0:
208,0,159709,1,0,0:0:0:0:
208,0,159832,2,0,P|223:33|240:82,1,78.7500030040742,10|0,0:2|2:0,0:0:0:0:
306,165,160078,2,0,P|332:143|392:140,1,78.7500030040742,2|0,0:0|2:0,0:0:0:0:
466,158,160324,5,4,0:3:0:0:
247,224,160570,1,2,0:0:0:0:
233,261,160693,1,0,0:0:0:0:
262,287,160815,1,10,0:2:0:0:
322,240,161061,1,2,0:0:0:0:
208,147,161307,6,0,P|158:134|138:38,1,157.500006008148,4|2,0:3|0:0,0:0:0:0:
16,310,161799,6,0,P|22:339|28:377,1,62.9999980773926,10|0,0:2|2:0,0:0:0:0:
105,356,162045,2,0,P|99:327|93:289,1,62.9999980773926,2|0,0:0|2:0,0:0:0:0:
48,231,162291,6,0,B|23:169|69:135|94:139|111:142|165:98|136:40,1,236.250009012223,4|0,0:2|2:0,1:0:0:0:
0,28,162783,2,0,P|30:60|87:57,1,78.7500030040742,10|0,0:2|2:0,0:0:0:0:
205,144,163030,2,0,P|230:137|286:132,1,78.7500030040742,2|0,0:0|2:0,0:0:0:0:
126,213,163275,6,0,P|248:247|286:270,1,157.500006008148,4|2,0:3|0:0,1:0:0:0:
357,358,163644,1,0,0:0:0:0:
348,338,163767,2,0,P|368:284|465:267,1,157.500006008148,10|2,0:2|0:0,0:0:0:0:
446,88,164260,5,4,0:3:0:0:
496,350,164506,1,2,0:0:0:0:
457,360,164629,1,0,0:0:0:0:
426,334,164752,1,10,0:2:0:0:
285,273,164998,1,2,0:0:0:0:
203,378,165244,6,0,P|212:342|221:296,1,62.9999980773926,4|0,0:3|2:0,0:0:0:0:
282,82,165490,2,0,P|307:113|311:151,1,78.7500030040742,10|0,0:2|2:0,0:0:0:0:
94,282,165736,5,10,0:2:0:0:
323,342,165982,1,0,0:0:0:0:
496,336,166228,6,0,P|431:281|281:275,1,236.250009012223,4|0,0:2|2:0,1:0:0:0:
218,317,166720,2,0,P|195:280|154:255,1,78.7500030040742,10|0,0:2|2:0,0:0:0:0:
337,120,166966,2,0,B|362:149|362:149|356:189,1,78.7500030040742,2|0,0:0|2:0,0:0:0:0:
323,342,167212,6,0,B|342:262|265:279|281:195,1,157.500006008148,4|2,0:3|0:0,1:0:0:0:
304,0,167581,1,0,0:0:0:0:
304,0,167704,2,0,P|289:33|272:82,1,78.7500030040742,10|0,0:2|2:0,0:0:0:0:
206,165,167950,2,0,P|180:143|120:140,1,78.7500030040742,2|0,0:0|2:0,0:0:0:0:
46,158,168196,5,4,0:3:0:0:
265,224,168442,1,2,0:0:0:0:
279,261,168565,1,0,0:0:0:0:
250,287,168688,1,10,0:2:0:0:
190,240,168934,1,2,0:0:0:0:
195,360,169180,6,0,P|250:321|343:321,1,157.500006008148,4|2,0:3|0:0,0:0:0:0:
324,0,169672,6,0,B|355:64|300:102|286:98|272:94|213:133|248:203,1,236.250009012223,10|0,0:2|2:0,1:0:0:0:
418,348,170165,6,0,P|326:297|120:280,1,283.499991348267,4|0,0:2|2:0,1:0:0:0:
142,267,170657,6,0,B|129:231|129:231|153:199,1,78.7500030040742,10|0,0:2|2:0,0:0:0:0:
250,23,170903,2,0,P|213:39|157:47,1,78.7500030040742,2|0,0:0|2:0,0:0:0:0:
419,145,171149,6,0,P|342:126|264:113,1,157.500006008148,4|2,0:3|0:0,1:0:0:0:
69,60,171518,1,0,0:0:0:0:
90,36,171641,2,0,P|100:60|113:98,1,62.9999980773926,10|0,0:2|2:0,0:0:0:0:
256,192,171886,2,0,P|245:221|233:250,1,62.9999980773926,2|0,0:0|2:0,0:0:0:0:
27,356,172132,5,4,0:3:0:0:
104,337,172624,5,4,0:3:0:0:
181,318,173116,5,4,0:3:0:0:
185,322,173239,1,2,0:0:0:0:
189,326,173362,1,2,0:0:0:0:
193,330,173485,1,2,0:0:0:0:
197,334,173608,1,8,0:0:0:0:
332,0,174100,6,0,P|276:50|160:43,1,188.999994232178,4|0,0:2|2:0,0:0:0:0:
167,46,174592,2,0,P|189:84|211:137,1,94.499997116089,8|2,0:0|0:0,0:0:0:0:
324,147,175084,6,0,P|282:177|263:217,1,94.499997116089,4|2,0:3|0:0,0:0:0:0:
233,284,175454,1,0,0:0:0:0:
233,284,175577,2,0,P|244:316|249:385,1,94.499997116089,8|2,0:0|0:0,0:0:0:0:
0,193,176069,6,0,B|93:217|78:128|177:160,1,188.999994232178,4|0,0:3|2:0,0:0:0:0:
176,160,176561,2,0,P|147:118|153:72,1,94.499997116089,8|2,0:0|0:0,0:0:0:0:
94,24,177053,5,4,0:3:0:0:
222,100,177299,1,2,0:0:0:0:
139,229,177545,2,0,P|133:271|129:315,1,84,8|2,0:0|0:0,0:0:0:0:
278,323,178037,6,0,P|233:280|180:280,1,84,4|2,0:2|0:0,0:0:0:0:
139,229,178529,1,8,0:0:0:0:
139,229,178775,1,2,0:0:0:0:
275,145,179021,6,0,B|300:180|300:180|291:221,1,84,4|2,0:3|0:0,0:0:0:0:
216,198,179513,1,8,0:0:0:0:
322,295,179759,1,2,0:0:0:0:
275,359,180005,5,4,0:3:0:0:
216,198,180251,1,2,0:0:0:0:
216,198,180374,1,0,0:0:0:0:
216,198,180497,1,8,0:0:0:0:
337,134,180743,1,2,0:0:0:0:
430,121,180989,6,0,P|393:136|349:146,1,84,4|8,0:3|0:0,0:0:0:0:
131,88,181482,1,8,0:0:0:0:
131,88,181728,1,0,0:0:0:0:
180,0,181974,6,0,P|236:50|352:43,1,188.999994232178,4|0,0:2|2:0,0:0:0:0:
345,46,182466,2,0,P|322:84|300:137,1,94.499997116089,8|2,0:0|0:0,0:0:0:0:
188,147,182957,6,0,P|230:177|249:217,1,94.499997116089,4|2,0:3|0:0,0:0:0:0:
279,284,183326,1,0,0:0:0:0:
279,284,183449,2,0,P|268:316|263:385,1,94.499997116089,8|2,0:0|0:0,0:0:0:0:
512,193,183941,6,0,B|418:217|433:128|334:160,1,188.999994232178,4|0,0:3|2:0,0:0:0:0:
335,160,184433,2,0,P|365:118|359:72,1,94.499997116089,8|2,0:0|0:0,0:0:0:0:
418,24,184925,5,4,0:3:0:0:
290,100,185171,1,2,0:0:0:0:
373,229,185417,2,0,P|379:271|383:315,1,84,8|2,0:0|0:0,0:0:0:0:
256,384,185909,6,0,P|294:331|349:331,1,84,4|2,0:2|0:0,0:0:0:0:
139,229,186401,2,0,P|133:271|129:315,1,84,8|2,0:0|0:0,0:0:0:0:
256,384,186893,6,0,P|218:331|163:331,1,84,4|2,0:3|0:0,0:0:0:0:
49,348,187263,1,0,0:0:0:0:
58,356,187386,5,8,0:0:0:0:
256,256,187632,1,2,0:0:0:0:
454,356,187878,5,4,0:3:0:0:
256,256,188370,5,4,0:3:0:0:
58,356,188862,5,4,0:2:0:0:
