osu file format v14

[General]
AudioFilename: audio.mp3
AudioLeadIn: 0
PreviewTime:55765
Countdown: 0
SampleSet: Drum
StackLeniency: 0.7
Mode: 0
LetterboxInBreaks: 0
WidescreenStoryboard: 1

[Editor]
DistanceSpacing: 1
BeatDivisor: 4
GridSize: 32
TimelineZoom: 1.2

[Metadata]
Title:Vandraren
TitleUnicode:Vandraren
Artist:Nordman
ArtistUnicode:Nordman
Creator:pw384
Version:Normal
Source:
Tags:Swedish svenska folk rock ethnopop pop the wanderer
BeatmapID:3687920
BeatmapSetID:1773431

[Difficulty]
HPDrainRate:3
CircleSize:3.7
OverallDifficulty:4.8
ApproachRate:5
SliderMultiplier:1.5
SliderTickRate:1

[Events]
//Background and Video events
0,0,"pexels-photo-573863.jpeg",0,0
//Break Periods
2,71756,78429
2,134737,141410
//Storyboard Layer 0 (Background)
//Storyboard Layer 1 (Fail)
//Storyboard Layer 2 (Pass)
//Storyboard Layer 3 (Foreground)
//Storyboard Layer 4 (Overlay)
//Storyboard Sound Samples

[TimingPoints]
8775,492.04123305533,4,3,1,55,1,0
8775,-111.111111111111,4,3,1,55,0,0
16647,-100,4,3,1,70,0,0
24520,-111.111111111111,4,3,1,60,0,0
39527,-100,4,3,1,70,0,0
56011,-100,4,3,1,75,0,0
87501,-100,4,3,1,60,0,0
103247,-100,4,3,1,65,0,0
118992,-100,4,3,1,75,0,0
142610,-100,4,3,1,50,0,0
149498,-100,4,3,1,60,0,0
157617,-100,4,3,1,70,0,0
158356,-100,4,3,1,80,0,0
174100,-100,4,3,1,75,0,0

[Colours]
Combo1 : 166,210,168
Combo2 : 192,192,192
Combo3 : 149,197,255

[HitObjects]
33,242,8775,6,0,B|89:235|104:177|104:177|86:96|86:96|107:51|155:51|155:51|329:87|329:87|288:106|276:153,1,539.999983520508,4|4,0:0|0:0,2:0:0:0:
346,268,11235,1,4,0:0:0:0:
479,242,11727,1,4,0:0:0:0:
479,242,11973,1,4,0:0:0:0:
479,242,12711,6,0,B|423:235|408:177|408:177|426:96|426:96|405:51|357:51|357:51|183:87|183:87|224:106|236:153,1,539.999983520508,0|4,0:0|0:0,2:0:0:0:
166,268,15172,1,4,0:0:0:0:
33,242,15664,1,4,0:0:0:0:
33,242,15910,1,4,0:0:0:0:
256,352,16647,6,0,P|253:304|242:265,1,75,2|2,0:0|0:0,0:0:0:0:
200,219,17139,1,8,0:0:0:0:
256,79,17631,1,2,0:0:0:0:
113,124,18123,2,0,P|68:114|30:102,1,75,8|2,0:0|0:0,0:0:0:0:
4,171,18615,2,0,P|0:214|18:248,1,75,2|2,0:0|0:0,0:0:0:0:
73,286,19107,1,8,0:0:0:0:
200,219,19599,2,0,P|205:176|208:132,2,75,2|2|8,0:0|0:0|0:0,0:0:0:0:
256,352,20584,6,0,P|259:304|270:265,1,75,2|2,0:0|0:0,0:0:0:0:
312,219,21076,1,8,0:0:0:0:
256,79,21568,1,2,0:0:0:0:
399,124,22060,2,0,P|444:114|482:102,1,75,8|2,0:0|0:0,0:0:0:0:
508,171,22552,2,0,P|512:214|494:248,1,75,2|2,0:0|0:0,0:0:0:0:
439,286,23044,2,0,P|379:268|343:191,1,150,8|2,0:0|0:0,0:0:0:0:
300,128,23782,1,8,0:0:0:0:
300,128,24028,1,8,0:0:0:0:
182,27,24520,6,0,P|160:68|165:125,1,101.249996910095
119,225,25258,2,0,P|179:237|274:268,1,134.999995880127
298,316,25996,2,0,P|328:308|384:299,1,67.4999979400635,2|0,0:0|0:0,0:0:0:0:
421,252,26489,2,0,P|435:199|445:151,2,101.249996910095
221,360,27964,1,2,0:0:0:0:
221,360,28210,1,0,0:0:0:0:
185,293,28456,6,0,P|190:227|189:151,1,134.999995880127,0|2,0:0|0:0,0:0:0:0:
327,91,29440,2,0,P|322:157|323:233,1,134.999995880127,0|2,0:0|0:0,0:0:0:0:
185,293,30424,2,0,P|316:303|453:352,1,269.999991760254
330,27,32393,6,0,P|352:68|347:125,1,101.249996910095
393,225,33131,2,0,P|333:237|238:268,1,134.999995880127
214,316,33869,2,0,P|184:308|128:299,1,67.4999979400635,2|0,0:0|0:0,0:0:0:0:
91,252,34362,2,0,P|77:199|67:151,2,101.249996910095
291,360,35838,1,2,0:0:0:0:
291,360,36084,1,0,0:0:0:0:
327,293,36330,6,0,P|322:227|323:151,1,134.999995880127,0|2,0:0|0:0,0:0:0:0:
185,91,37314,2,0,P|190:157|189:233,1,134.999995880127,0|2,0:0|0:0,0:0:0:0:
130,273,38052,1,0,0:0:0:0:
69,318,38298,2,0,P|125:321|339:365,1,269.999991760254
400,328,39527,1,8,0:0:0:0:
400,328,39773,1,8,0:0:0:0:
309,208,40265,6,0,P|308:152|313:86,2,112.5,0|0|2,0:0|0:0|0:0,0:0:0:0:
245,248,41249,2,0,P|205:248|164:218,1,75,0|2,0:0|0:0,0:0:0:0:
119,181,41741,1,8,0:0:0:0:
119,181,41987,1,2,0:0:0:0:
55,140,42233,2,0,P|58:83|57:27,2,112.5,0|0|2,0:0|0:0|0:0,0:0:0:0:
21,207,43217,1,0,0:0:0:0:
118,321,43710,2,0,P|162:320|199:315,1,75,8|2,0:0|0:0,0:0:0:0:
256,354,44202,6,0,P|320:332|403:324,1,150,0|8,0:0|0:0,0:0:0:0:
456,273,44940,1,2,0:0:0:0:
407,215,45186,2,0,P|343:237|260:245,1,150,0|8,0:0|0:0,0:0:0:0:
132,322,46170,2,0,P|110:276|123:181,2,150,0|8|0,0:0|0:0|0:0,0:0:0:0:
197,358,47400,1,8,0:0:0:0:
201,362,47646,1,8,0:0:0:0:
203,208,48138,6,0,P|204:152|199:86,2,112.5,0|0|2,0:0|0:0|0:0,0:0:0:0:
267,248,49122,2,0,P|307:248|348:218,1,75,0|2,0:0|0:0,0:0:0:0:
393,181,49614,1,8,0:0:0:0:
393,181,49860,1,2,0:0:0:0:
457,140,50105,2,0,P|453:83|454:27,2,112.5,0|0|2,0:0|0:0|0:0,0:0:0:0:
491,207,51089,1,0,0:0:0:0:
394,321,51582,2,0,P|350:320|313:315,1,75,8|2,0:0|0:0,0:0:0:0:
256,354,52074,6,0,P|192:332|109:324,1,150,0|8,0:0|0:0,0:0:0:0:
154,182,53058,2,0,P|146:111|197:58,1,150,0|8,0:0|0:0,0:0:0:0:
253,110,53796,1,2,0:0:0:0:
257,114,54042,1,0,0:0:0:0:
402,78,54534,1,8,0:0:0:0:
362,222,55027,5,0,0:0:0:0:
362,222,55273,1,8,0:0:0:0:
362,222,55519,1,8,0:0:0:0:
256,115,56011,6,0,P|205:173|209:251,1,150,4|8,0:2|0:0,1:0:0:0:
251,301,56749,1,2,0:0:0:0:
221,369,56995,2,0,P|124:345|-15:336,1,225,4|2,0:3|0:0,1:0:0:0:
7,261,57979,1,4,0:3:0:0:
89,135,58471,1,8,0:0:0:0:
89,135,58717,1,2,0:0:0:0:
251,301,59455,2,0,P|283:285|334:283,1,75,8|2,0:0|0:0,0:0:0:0:
384,322,59947,5,4,0:2:0:0:
460,192,60439,1,8,0:0:0:0:
384,62,60932,2,0,P|345:50|254:106,1,150,4|8,0:3|0:0,1:0:0:0:
196,56,61669,2,0,P|148:45|107:38,1,75,2|4,0:0|0:3,0:0:0:0:
24,179,62407,6,0,P|67:158|122:164,1,75,10|2,0:2|0:0,0:0:0:0:
145,215,62899,1,4,0:3:0:0:
149,219,63145,1,10,0:2:0:0:
153,223,63391,1,10,0:2:0:0:
256,115,63883,6,0,P|307:173|303:251,1,150,4|8,0:2|0:0,1:0:0:0:
261,301,64621,1,2,0:0:0:0:
291,369,64867,2,0,P|388:345|527:336,1,225,4|2,0:3|0:0,1:0:0:0:
505,261,65851,1,4,0:3:0:0:
423,135,66343,1,8,0:0:0:0:
423,135,66589,1,2,0:0:0:0:
261,301,67328,6,0,B|239:279|205:281|220:327|154:312|180:275|165:262|127:269,1,150,8|4,0:0|0:2,1:0:0:0:
58,141,68312,6,0,P|38:108|49:64,1,75,8|2,0:0|0:0,0:0:0:0:
92,16,68804,1,4,0:3:0:0:
221,92,69296,2,0,P|217:128|215:185,1,75,8|2,0:0|0:0,0:0:0:0:
263,224,69788,5,4,0:3:0:0:
403,172,70280,1,4,0:3:0:0:
500,286,70772,1,4,0:3:0:0:
256,192,79629,12,4,81597,0:0:0:0:
256,192,82581,6,0,L|249:275,1,75,4|4,0:0|0:0,0:0:0:0:
256,192,83565,12,4,85533,0:0:0:0:
256,192,86517,6,0,L|263:275,2,75,4|8|8,0:0|0:0|0:0,0:0:0:0:
166,71,87501,6,0,P|94:88|1:85,1,150,0|8,0:0|0:0,0:0:0:0:
3,161,88239,1,2,0:0:0:0:
65,201,88485,2,0,P|81:232|85:277,1,75,0|2,0:0|0:0,0:0:0:0:
53,339,88977,1,8,0:0:0:0:
53,339,89223,1,2,0:0:0:0:
116,379,89470,2,0,P|188:362|281:365,2,150,0|8|0,0:0|0:0|0:0,0:0:0:0:
174,240,90946,2,0,P|162:204|162:165,1,75,8|2,0:0|0:0,0:0:0:0:
198,101,91438,5,0,0:0:0:0:
77,11,91930,1,8,0:0:0:0:
15,147,92422,2,0,P|31:213|40:297,1,150,0|8,0:0|0:0,0:0:0:0:
171,367,93406,2,0,P|158:269|311:159,1,300
355,213,94635,1,10,0:2:0:0:
359,217,94881,1,10,0:2:0:0:
346,71,95374,6,0,P|418:88|511:85,1,150,0|8,0:0|0:0,0:0:0:0:
509,161,96112,1,2,0:0:0:0:
447,201,96358,2,0,P|431:232|427:277,1,75,0|2,0:0|0:0,0:0:0:0:
459,339,96850,1,8,0:0:0:0:
463,343,97096,1,2,0:0:0:0:
396,379,97343,2,0,P|324:362|231:365,2,150,0|8|0,0:0|0:0|0:0,0:0:0:0:
338,240,98819,2,0,P|350:204|350:165,1,75,8|2,0:0|0:0,0:0:0:0:
314,101,99311,5,0,0:0:0:0:
435,11,99803,1,8,0:0:0:0:
497,147,100294,2,0,P|481:213|472:297,1,150,0|8,0:0|0:0,0:0:0:0:
417,346,101033,1,2,0:0:0:0:
417,346,101279,2,0,P|350:355|279:163,1,300,0|4,0:0|0:0,0:0:0:0:
316,118,102509,1,10,0:2:0:0:
316,118,102755,1,10,0:2:0:0:
180,53,103247,6,0,P|182:111|190:201,2,112.5,0|0|2,0:0|0:0|0:0,0:0:0:0:
110,24,104231,1,0,0:0:0:0:
110,24,104477,1,2,0:0:0:0:
41,53,104723,2,0,P|22:91|29:137,1,75,8|2,0:0|0:0,0:0:0:0:
78,173,105215,2,0,P|76:231|68:321,2,112.5,0|0|2,0:0|0:0|0:0,0:0:0:0:
23,122,106198,1,0,0:0:0:0:
169,90,106691,1,8,0:0:0:0:
169,90,106937,1,2,0:0:0:0:
169,90,107183,6,0,P|206:146|173:246,1,150,0|8,0:0|0:0,0:0:0:0:
138,363,108167,2,0,P|200:348|316:347,1,150,0|8,0:0|0:0,0:0:0:0:
192,224,109151,2,0,P|279:210|509:200,1,300
489,123,110381,1,10,0:2:0:0:
489,123,110627,1,10,0:2:0:0:
332,53,111119,6,0,P|330:111|322:201,2,112.5,0|0|2,0:0|0:0|0:0,0:0:0:0:
402,24,112103,1,0,0:0:0:0:
402,24,112349,1,2,0:0:0:0:
471,53,112595,2,0,P|490:91|483:137,1,75,8|2,0:0|0:0,0:0:0:0:
434,173,113087,2,0,P|436:231|444:321,2,112.5,0|0|2,0:0|0:0|0:0,0:0:0:0:
489,122,114072,1,0,0:0:0:0:
343,90,114563,1,8,0:0:0:0:
343,90,114809,1,2,0:0:0:0:
343,90,115055,6,0,P|306:146|339:246,1,150,0|8,0:0|0:0,0:0:0:0:
205,321,116040,2,0,P|201:273|190:171,1,150,0|8,0:0|0:0,0:0:0:0:
126,132,116777,1,2,0:0:0:0:
70,182,117023,2,0,P|74:230|85:332,2,150,0|8|0,0:0|0:0|0:0,0:0:0:0:
126,132,118254,1,10,0:2:0:0:
105,59,118500,1,10,0:2:0:0:
256,16,118992,6,0,P|316:34|428:51,1,150,4|8,0:2|0:0,1:0:0:0:
454,101,119730,1,2,0:0:0:0:
398,151,119976,2,0,P|379:234|389:383,1,225,4|2,0:3|0:0,1:0:0:0:
454,340,120960,1,4,0:3:0:0:
299,292,121452,1,8,0:0:0:0:
299,292,121698,2,0,P|296:249|289:213,1,75,2|4,0:0|0:3,1:0:0:0:
163,136,122436,2,0,P|139:107|144:61,1,75,8|2,0:0|0:0,0:0:0:0:
191,17,122928,5,4,0:2:0:0:
311,105,123420,1,8,0:0:0:0:
203,210,123913,2,0,P|214:299|221:385,1,150,4|8,0:3|0:0,1:0:0:0:
292,341,124651,2,0,P|330:325|372:321,1,75,2|4,0:0|0:3,0:0:0:0:
464,209,125389,6,0,P|424:214|388:200,1,75,10|2,0:2|0:0,0:0:0:0:
327,154,125881,1,4,0:3:0:0:
327,154,126127,1,10,0:2:0:0:
327,154,126373,1,10,0:2:0:0:
256,16,126865,6,0,P|196:34|84:51,1,150,4|8,0:2|0:0,1:0:0:0:
58,101,127602,1,2,0:0:0:0:
114,151,127848,2,0,P|133:234|123:383,1,225,4|2,0:3|0:0,1:0:0:0:
58,340,128832,1,4,0:3:0:0:
213,292,129324,1,8,0:0:0:0:
213,292,129570,2,0,P|216:249|223:213,1,75,2|4,0:0|0:3,1:0:0:0:
280,79,130309,6,0,B|301:100|335:98|320:52|386:67|360:104|375:117|413:110,1,150,8|4,0:0|0:2,1:0:0:0:
477,245,131293,5,8,0:0:0:0:
477,245,131539,1,2,0:0:0:0:
477,245,131785,1,4,0:3:0:0:
338,302,132277,2,0,P|323:265|328:226,1,75,8|2,0:0|0:0,0:0:0:0:
366,167,132769,5,4,0:3:0:0:
220,202,133261,1,4,0:3:0:0:
111,97,133753,2,0,P|105:48|102:15,2,75,4|2|4,0:3|0:0|0:0,0:0:0:0:
256,192,142610,6,0,P|192:256|192:320,1,150,0|8,0:0|0:0,0:0:0:0:
227,375,143348,2,0,P|319:351|405:341,1,150
448,338,144086,1,8,0:0:0:0:
386,198,144578,2,0,P|354:156|358:52,1,150,0|8,0:0|0:0,0:0:0:0:
410,13,145316,1,0,0:0:0:0:
185,0,146054,2,0,P|189:36|193:90,1,75,8|0,0:0|0:0,0:0:0:0:
142,131,146546,5,0,0:0:0:0:
278,64,147039,1,8,0:0:0:0:
384,174,147531,1,0,0:0:0:0:
312,308,148023,1,8,0:0:0:0:
162,281,148515,6,0,P|94:282|42:346,2,150,0|8|0,0:0|0:0|0:0,0:0:0:0:
202,343,149744,1,10,0:0:0:0:
206,347,149990,1,10,0:0:0:0:
351,332,150482,6,0,P|395:314|451:306,2,75,0|0|8,0:0|0:0|0:0,0:0:0:0:
285,375,151220,2,0,P|193:351|117:341,1,150
64,352,151958,2,0,P|51:308|51:275,1,75,8|0,0:0|0:0,0:0:0:0:
99,220,152450,2,0,P|131:178|144:81,1,150,0|8,0:0|0:0,0:0:0:0:
96,26,153188,1,0,0:0:0:0:
327,0,153926,2,0,P|323:36|319:90,1,75,8|0,0:0|0:0,0:0:0:0:
370,131,154418,5,0,0:0:0:0:
233,64,154911,1,8,0:0:0:0:
127,174,155403,1,0,0:0:0:0:
199,308,155895,1,8,0:0:0:0:
199,308,156141,1,0,0:0:0:0:
199,308,156387,6,0,P|96:310|19:334,1,150,0|8,0:0|0:0,0:0:0:0:
25,173,157371,1,0,0:0:0:0:
71,114,157617,2,0,P|73:72|73:28,1,75,4|12,0:0|0:0,0:0:0:0:
222,18,158356,6,0,P|217:86|213:193,1,150,4|10,0:2|0:2,1:0:0:0:
266,220,159094,1,2,0:0:0:0:
337,196,159340,2,0,P|398:191|445:336,1,225,4|2,0:3|0:0,1:0:0:0:
392,362,160324,1,4,0:3:0:0:
256,300,160815,1,10,0:2:0:0:
232,228,161061,2,0,P|184:219|144:208,1,75,2|4,0:0|0:3,1:0:0:0:
43,116,161799,2,0,P|30:75|37:40,1,75,10|2,0:2|0:0,0:0:0:0:
104,15,162291,5,4,0:2:0:0:
256,64,162783,1,10,0:2:0:0:
408,15,163275,2,0,P|402:74|396:172,1,150,4|10,0:3|0:2,1:0:0:0:
461,202,164014,1,2,0:0:0:0:
465,206,164260,1,4,0:3:0:0:
316,239,164752,6,0,P|282:238|234:208,1,75,10|2,0:2|0:0,0:0:0:0:
221,148,165244,1,4,0:3:0:0:
221,148,165490,1,8,0:0:0:0:
221,148,165736,1,10,0:2:0:0:
290,18,166228,6,0,P|295:86|299:193,1,150,4|10,0:2|0:2,1:0:0:0:
246,220,166966,1,2,0:0:0:0:
175,196,167212,2,0,P|114:191|67:336,1,225,4|2,0:3|0:0,1:0:0:0:
120,362,168196,1,4,0:3:0:0:
256,300,168688,1,10,0:2:0:0:
280,228,168934,2,0,P|328:219|368:208,1,75,2|4,0:0|0:3,1:0:0:0:
462,315,169672,6,0,B|424:308|409:321|435:358|369:373|384:327|350:325|329:346,1,150,10|4,0:2|0:2,1:0:0:0:
177,297,170657,6,0,P|173:260|166:221,2,75,10|2|4,0:2|0:0|0:3,0:0:0:0:
335,297,171641,2,0,P|339:260|346:221,1,75,10|2,0:2|0:0,0:0:0:0:
406,177,172132,5,4,0:3:0:0:
256,228,172624,1,4,0:3:0:0:
106,177,173116,1,4,0:3:0:0:
72,109,173362,2,0,P|76:65|81:19,1,75,2|8,0:0|0:0,0:0:0:0:
249,0,174100,6,0,B|226:46|253:71|260:66|292:93|262:139,1,150,4|8,0:2|0:0,0:0:0:0:
211,204,174838,2,0,B|193:128|288:85|343:168|330:225|270:224|244:263|255:319,1,300,2|2,0:0|0:0,0:0:0:0:
265,380,176069,1,4,0:3:0:0:
393,302,176561,1,8,0:0:0:0:
393,302,176807,2,0,P|394:225|410:120,1,150,2|2,0:0|0:0,0:0:0:0:
456,99,177545,2,0,P|448:59|444:23,2,75,8|2|4,0:0|0:0|0:2,0:0:0:0:
315,151,178529,5,8,0:0:0:0:
192,64,179021,2,0,P|151:90|133:185,1,150,4|8,0:3|0:0,0:0:0:0:
181,240,179759,1,2,0:0:0:0:
185,244,180005,1,4,0:3:0:0:
321,158,180497,6,0,P|359:152|426:146,1,75,8|0,0:0|0:0,0:0:0:0:
421,77,180989,1,4,0:3:0:0:
421,77,181236,1,8,0:0:0:0:
421,77,181482,1,8,0:0:0:0:
263,0,181974,6,0,B|286:46|259:71|252:66|220:93|250:139,1,150,4|8,0:2|0:0,0:0:0:0:
301,204,182712,2,0,B|319:128|224:85|169:168|182:225|242:224|268:263|257:319,1,300,2|2,0:0|0:0,0:0:0:0:
247,380,183942,1,4,0:3:0:0:
119,302,184434,1,8,0:0:0:0:
119,302,184680,2,0,P|118:225|102:120,1,150,2|2,0:0|0:0,0:0:0:0:
56,99,185418,2,0,P|64:59|68:23,2,75,8|2|4,0:0|0:0|0:2,0:0:0:0:
195,152,186401,6,0,P|203:112|207:76,1,75,8|2,0:0|0:0,0:0:0:0:
257,22,186893,2,0,P|334:24|372:99,1,150,4|8,0:3|0:0,0:0:0:0:
326,140,187632,1,2,0:0:0:0:
330,144,187878,5,4,0:3:0:0:
214,239,188370,1,4,0:3:0:0:
256,383,188862,1,4,0:2:0:0:
