osu file format v14

[General]
AudioFilename: audio.mp3
AudioLeadIn: 0
PreviewTime: 55765
Countdown: 0
SampleSet: Drum
StackLeniency: 0.5
Mode: 0
LetterboxInBreaks: 0
WidescreenStoryboard: 1

[Editor]
DistanceSpacing: 1.1
BeatDivisor: 4
GridSize: 32
TimelineZoom: 1.2

[Metadata]
Title:Vandraren
TitleUnicode:Vandraren
Artist:Nordman
ArtistUnicode:Nordman
Creator:pw384
Version:Hard
Source:
Tags:Swedish svenska folk rock ethnopop pop the wanderer
BeatmapID:3672348
BeatmapSetID:1773431

[Difficulty]
HPDrainRate:4.4
CircleSize:4
OverallDifficulty:6.6
ApproachRate:7
SliderMultiplier:1.6
SliderTickRate:1

[Events]
//Background and Video events
0,0,"pexels-photo-573863.jpeg",0,0
//Break Periods
2,71756,78729
2,134737,141710
//Storyboard Layer 0 (Background)
//Storyboard Layer 1 (Fail)
//Storyboard Layer 2 (Pass)
//Storyboard Layer 3 (Foreground)
//Storyboard Layer 4 (Overlay)
//Storyboard Sound Samples

[TimingPoints]
8775,492.04123305533,4,3,1,55,1,0
8775,-125,4,3,1,55,0,0
16647,-100,4,3,1,70,0,0
24520,-125,4,3,1,60,0,0
39527,-100,4,3,1,70,0,0
56011,-83.3333333333333,4,3,1,75,0,0
56503,-100,4,3,1,75,0,0
57979,-83.3333333333333,4,3,1,75,0,0
58471,-100,4,3,1,75,0,0
63883,-83.3333333333333,4,3,1,75,0,0
64375,-100,4,3,1,75,0,0
65851,-83.3333333333333,4,3,1,75,0,0
66344,-100,4,3,1,75,0,0
67328,-74.0740740740741,4,3,1,75,0,0
67820,-100,4,3,1,75,0,0
70895,-100,4,2,0,75,0,0
71756,-100,4,3,1,75,0,0
87501,-83.3333333333333,4,3,1,60,0,0
87993,-100,4,3,1,60,0,0
95374,-83.3333333333333,4,3,1,60,0,0
95866,-100,4,3,1,60,0,0
103247,-83.3333333333333,4,3,1,65,0,0
103739,-100,4,3,1,65,0,0
111119,-83.3333333333333,4,3,1,65,0,0
111611,-100,4,3,1,65,0,0
118992,-83.3333333333333,4,3,1,75,0,0
119484,-100,4,3,1,75,0,0
120960,-83.3333333333333,4,3,1,75,0,0
121452,-100,4,3,1,75,0,0
126865,-83.3333333333333,4,3,1,75,0,0
127357,-100,4,3,1,75,0,0
128832,-83.3333333333333,4,3,1,75,0,0
129324,-100,4,3,1,75,0,0
130309,-74.0740740740741,4,3,1,75,0,0
130801,-100,4,3,1,75,0,0
142610,-125,4,3,1,50,0,0
149498,-125,4,3,1,60,0,0
157617,-100,4,3,1,70,0,0
158356,-83.3333333333333,4,3,1,80,0,0
158848,-100,4,3,1,80,0,0
160324,-83.3333333333333,4,3,1,80,0,0
160815,-100,4,3,1,80,0,0
166228,-83.3333333333333,4,3,1,80,0,0
166720,-100,4,3,1,80,0,0
168196,-83.3333333333333,4,3,1,80,0,0
168688,-100,4,3,1,80,0,0
169672,-55.5555555555556,4,3,1,80,0,0
170165,-100,4,3,1,80,0,0
174100,-100,4,3,1,75,0,0

[Colours]
Combo1 : 166,210,168
Combo2 : 192,192,192
Combo3 : 149,197,255

[HitObjects]
32,192,8775,6,0,B|72:187|83:146|83:146|70:88|70:88|85:56|119:56|119:56|243:82|243:82|214:95|205:129,1,384,4|0,0:0|2:0,2:0:0:0:
256,192,10497,5,0,0:0:0:0:
256,192,10620,1,0,0:0:0:0:
256,192,10743,1,4,0:0:0:0:
168,352,11235,1,4,0:0:0:0:
344,352,11727,5,4,0:0:0:0:
344,352,11973,1,4,0:0:0:0:
480,192,12711,6,0,B|439:187|428:146|428:146|441:88|441:88|426:56|392:56|392:56|268:82|268:82|297:95|306:129,1,384,0|0,0:0|0:0,2:0:0:0:
256,192,14433,1,0,0:0:0:0:
256,192,14680,6,0,L|256:320,1,128,4|0,0:0|0:0,0:0:0:0:
256,32,15664,1,4,0:0:0:0:
256,32,15910,1,4,0:0:0:0:
256,352,16647,5,2,0:0:0:0:
179,327,16893,1,2,0:0:0:0:
102,302,17139,2,0,P|92:227|76:141,2,160,8|2|8,0:0|0:0|0:0,0:0:0:0:
256,352,18615,5,2,0:0:0:0:
333,327,18861,1,2,0:0:0:0:
410,302,19107,2,0,P|420:227|436:141,1,160,8|2,0:0|0:0,0:0:0:0:
508,112,19845,2,0,P|515:156|498:192,1,80,2|8,0:0|0:0,0:0:0:0:
256,160,20584,5,2,0:0:0:0:
216,229,20830,1,2,0:0:0:0:
176,298,21076,2,0,P|121:287|14:269,2,160,8|2|8,0:0|0:0|0:0,0:0:0:0:
256,160,22552,5,2,0:0:0:0:
296,229,22798,1,2,0:0:0:0:
336,298,23044,2,0,P|391:287|498:269,1,160,8|2,0:0|0:0,0:0:0:0:
457,197,23782,1,8,0:0:0:0:
457,197,24028,1,8,0:0:0:0:
198,35,24520,6,0,P|198:99|164:136,1,96
43,176,25258,2,0,P|97:195|122:268,1,128
78,324,25996,2,0,P|109:330|139:342,1,64,2|0,0:0|0:0,0:0:0:0:
256,288,26489,6,0,L|256:192,2,96
434,324,27964,6,0,P|402:330|372:342,1,64,2|0,0:0|0:0,0:0:0:0:
388,256,28456,6,0,P|411:198|469:176,1,128,0|2,0:0|0:0,0:0:0:0:
366,11,29440,2,0,P|317:40|332:117,1,128,0|2,0:0|0:0,0:0:0:0:
467,257,30424,2,0,P|401:267|282:313,1,192
224,364,31408,1,0,0:0:0:0:
256,32,32393,6,0,P|256:96|290:133,1,96
367,222,33131,2,0,P|425:244|447:302,1,128
349,363,33869,2,0,P|356:331|367:302,1,64,2|0,0:0|0:0,0:0:0:0:
256,288,34362,6,0,L|256:192,2,96
162,362,35837,6,0,P|156:331|144:301,1,64,2|0,0:0|0:0,0:0:0:0:
65,302,36329,6,0,P|86:244|145:222,1,128,0|2,0:0|0:0,0:0:0:0:
93,74,37313,2,0,P|44:103|59:180,1,128,0|2,0:0|0:0,0:0:0:0:
145,222,38052,1,0,0:0:0:0:
214,165,38298,2,0,P|246:255|256:351,1,192
331,304,39281,6,0,P|375:288|422:282,2,64,0|8|8,0:0|0:0|0:0,0:0:0:0:
283,91,40265,6,0,P|323:124|410:96,1,120
399,106,40757,1,8,0:0:0:0:
482,36,41003,2,0,P|476:91|474:195,1,160,2|2,0:0|0:0,0:0:0:0:
379,279,41741,2,0,P|376:241|401:204,1,80,8|2,0:0|0:0,0:0:0:0:
480,336,42233,6,0,P|429:349|335:374,1,120
350,357,42725,1,8,0:0:0:0:
255,302,42971,2,0,P|252:236|257:135,1,160,2|2,0:0|0:0,0:0:0:0:
171,185,43710,2,0,P|130:192|90:146,1,80,8|2,0:0|0:0,0:0:0:0:
63,83,44202,5,0,0:0:0:0:
256,142,44694,1,8,0:0:0:0:
449,83,45186,1,0,0:0:0:0:
350,269,45678,2,0,P|344:308|342:348,1,80,8|0,0:0|0:0,0:0:0:0:
257,301,46170,6,0,P|259:221|255:142,2,160,0|8|0,0:0|0:0|0:0,0:0:0:0:
169,348,47400,1,8,0:0:0:0:
169,348,47646,1,8,0:0:0:0:
24,192,48138,6,0,P|81:202|140:163,1,120
143,160,48630,1,8,0:0:0:0:
221,68,48876,2,0,P|244:144|256:224,1,160,2|2,0:0|0:0,0:0:0:0:
344,261,49615,1,8,0:0:0:0:
344,261,49861,1,2,0:0:0:0:
488,192,50106,6,0,P|431:202|372:163,1,120
369,160,50598,1,8,0:0:0:0:
290,68,50844,2,0,P|267:144|256:224,1,160,2|2,0:0|0:0,0:0:0:0:
168,261,51582,1,8,0:0:0:0:
168,261,51828,1,2,0:0:0:0:
130,349,52074,6,0,P|96:306|-5:306,2,160,0|8|0,0:0|0:0|0:0,0:0:0:0:
382,349,53550,1,8,0:0:0:0:
382,349,53796,1,2,0:0:0:0:
382,349,54042,6,0,P|416:306|517:306,2,160,0|8|0,0:0|0:0|0:0,0:0:0:0:
304,292,55273,1,8,0:0:0:0:
208,292,55519,1,8,0:0:0:0:
256,48,56011,6,0,P|188:88|121:80,1,143.999995605469,4|0,0:2|2:0,1:0:0:0:
111,74,56503,2,0,P|122:127|129:172,1,80,8|2,0:0|0:0,0:0:0:0:
40,192,56995,5,4,0:3:0:0:
184,264,57241,1,2,0:0:0:0:
184,264,57364,1,0,0:0:0:0:
184,264,57487,1,8,0:0:0:0:
328,336,57733,1,2,0:0:0:0:
256,371,57979,6,0,B|232:307|280:291|256:227,1,143.999995605469,4|0,0:3|2:0,1:0:0:0:
256,216,58471,2,0,L|256:136,1,80,8|2,0:0|0:0,0:0:0:0:
256,48,58963,1,4,0:3:0:0:
470,205,59455,5,8,0:0:0:0:
470,205,59701,1,2,0:0:0:0:
484,129,59947,6,0,P|410:154|409:250,1,160,4|8,0:2|0:0,1:0:0:0:
467,349,60686,1,2,0:0:0:0:
467,349,60932,2,0,P|421:321|296:288,1,160,4|8,0:3|0:0,0:0:0:0:
256,338,61669,1,2,0:0:0:0:
192,290,61915,5,4,0:3:0:0:
256,242,62161,1,2,0:0:0:0:
256,242,62284,1,0,0:0:0:0:
256,242,62407,1,10,0:2:0:0:
320,290,62653,1,2,0:0:0:0:
180,214,62899,6,0,P|176:253|192:290,1,80,4|10,0:3|0:2,0:0:0:0:
320,290,63391,2,0,P|336:251|330:211,1,80,10|0,0:2|0:0,0:0:0:0:
256,48,63883,6,0,P|324:88|391:80,1,143.999995605469,4|0,0:2|2:0,1:0:0:0:
401,74,64375,2,0,P|390:127|383:172,1,80,8|2,0:0|0:0,0:0:0:0:
472,192,64867,5,4,0:3:0:0:
328,264,65113,1,2,0:0:0:0:
328,264,65236,1,0,0:0:0:0:
328,264,65359,1,8,0:0:0:0:
184,336,65605,1,2,0:0:0:0:
256,371,65851,6,0,B|280:307|232:291|256:227,1,143.999995605469,4|0,0:3|2:0,1:0:0:0:
256,216,66344,2,0,L|256:136,1,80,8|2,0:0|0:0,0:0:0:0:
256,48,66836,1,4,0:3:0:0:
152,344,67328,6,0,B|192:328|240:336|224:376|288:376|272:336|320:328|360:344,1,216.000000823975,8|4,0:0|0:2,1:0:0:0:
360,344,68312,6,0,P|362:297|387:262,1,80,8|2,0:0|0:0,0:0:0:0:
437,324,68804,1,4,0:3:0:0:
152,344,69296,2,0,P|150:297|125:262,1,80,8|2,0:0|0:0,0:0:0:0:
75,324,69788,5,4,0:3:0:0:
256,11,70280,1,4,0:3:0:0:
437,324,70772,1,4,0:3:0:0:
256,192,79629,12,4,81597,0:0:0:0:
181,318,82581,6,0,P|175:279|190:243,1,80,4|4,0:0|0:0,0:0:0:0:
256,192,83565,12,4,85533,0:0:0:0:
330,318,86517,6,0,P|336:279|322:243,1,80,4|8,0:0|0:0,0:0:0:0:
256,288,87009,1,8,0:0:0:0:
256,104,87501,6,0,L|404:130,1,143.999995605469
398,129,87993,2,0,L|387:47,1,80,8|2,0:0|0:0,0:0:0:0:
478,82,88485,1,0,0:0:0:0:
478,82,88731,1,2,0:0:0:0:
448,206,88977,2,0,P|414:210|374:248,1,80,8|2,0:0|0:0,0:0:0:0:
424,366,89470,6,0,P|434:313|448:267,1,80,0|2,0:0|0:0,0:0:0:0:
293,209,89962,2,0,P|303:247|309:287,1,80,8|2,0:0|0:0,0:0:0:0:
256,348,90454,1,0,0:0:0:0:
256,348,90946,1,8,0:0:0:0:
128,314,91192,1,2,0:0:0:0:
202,286,91438,6,0,P|207:247|219:209,1,80
71,287,91930,2,0,P|81:326|88:366,1,80,8|2,0:0|0:0,0:0:0:0:
132,238,92422,2,0,P|103:212|64:206,1,80,0|2,0:0|0:0,0:0:0:0:
87,365,92914,2,0,P|137:339|221:325,1,120,8|0,0:0|2:0,0:0:0:0:
219,302,93406,6,0,P|217:230|293:181,2,160,0|8|0,0:0|0:0|0:0,0:0:0:0:
291,260,94635,1,10,0:2:0:0:
256,104,94881,1,10,0:2:0:0:
256,104,95374,6,0,L|108:130,1,143.999995605469
114,129,95866,2,0,L|125:47,1,80,8|2,0:0|0:0,0:0:0:0:
34,82,96358,1,0,0:0:0:0:
34,82,96604,1,2,0:0:0:0:
64,206,96850,2,0,P|98:210|138:248,1,80,8|2,0:0|0:0,0:0:0:0:
88,366,97342,6,0,P|78:313|64:267,1,80,0|2,0:0|0:0,0:0:0:0:
219,209,97834,2,0,P|208:247|202:287,1,80,8|2,0:0|0:0,0:0:0:0:
256,348,98326,1,0,0:0:0:0:
256,348,98818,1,8,0:0:0:0:
384,314,99064,1,2,0:0:0:0:
310,286,99310,6,0,P|305:247|293:209,1,80,0|2,0:0|0:0,0:0:0:0:
447,205,99802,2,0,P|418:231|379:237,1,80,8|2,0:0|0:0,0:0:0:0:
324,96,100294,2,0,P|280:64|188:96,1,160,0|8,0:0|0:0,0:0:0:0:
256,140,101033,1,2,0:0:0:0:
219,208,101279,6,0,P|207:246|202:286,1,80,0|2,0:0|0:0,0:0:0:0:
65,205,101771,2,0,P|94:231|133:236,1,80,8|2,0:0|0:0,0:0:0:0:
256,140,102263,5,4,0:0:0:0:
143,54,102509,1,10,0:2:0:0:
143,54,102755,1,10,0:2:0:0:
143,54,103247,6,0,P|138:127|195:180,1,143.999995605469
183,175,103739,2,0,P|141:174|109:198,1,80,8|2,0:0|0:0,0:0:0:0:
110,361,104231,5,0,0:0:0:0:
56,262,104477,1,2,0:0:0:0:
168,253,104723,2,0,P|179:297|187:352,1,80,8|2,0:0|0:0,0:0:0:0:
110,361,105215,5,0,0:0:0:0:
256,304,105460,2,0,L|256:240,2,40,2|0|8,0:0|0:0|0:0,0:0:0:0:
402,361,105952,1,2,0:0:0:0:
327,331,106198,6,0,P|334:291|344:253,1,80,0|2,0:0|0:0,0:0:0:0:
400,195,106691,2,0,P|368:173|329:175,1,80,8|2,0:0|0:0,0:0:0:0:
256,66,107183,6,0,P|187:99|182:175,1,160,0|8,0:0|0:0,0:0:0:0:
256,304,107921,1,2,0:0:0:0:
329,175,108167,2,0,P|324:98|256:66,1,160,0|8,0:0|0:0,0:0:0:0:
97,333,109151,5,0,0:0:0:0:
415,333,109643,1,8,0:0:0:0:
160,253,110135,5,0,0:0:0:0:
256,304,110381,1,10,0:2:0:0:
352,253,110627,1,10,0:2:0:0:
352,253,111119,6,0,P|402:290|399:371,1,143.999995605469
402,366,111611,2,0,P|435:336|476:316,1,80,8|2,0:0|0:0,0:0:0:0:
462,239,112103,5,0,0:0:0:0:
332,327,112350,1,2,0:0:0:0:
462,239,112596,2,0,P|463:199|443:165,1,80,8|2,0:0|0:0,0:0:0:0:
325,119,113088,5,0,0:0:0:0:
256,160,113334,2,0,L|256:224,2,40,2|0|8,0:0|0:0|0:0,0:0:0:0:
187,119,113826,1,2,0:0:0:0:
70,165,114072,6,0,P|50:199|50:239,1,80,0|2,0:0|0:0,0:0:0:0:
125,371,114564,2,0,P|129:341|145:291,1,80,8|2,0:0|0:0,0:0:0:0:
256,288,115056,6,0,P|216:232|116:224,1,160,0|8,0:0|0:0,0:0:0:0:
256,288,116040,2,0,P|296:232|396:224,1,160,0|8,0:0|0:0,0:0:0:0:
442,165,116777,1,2,0:0:0:0:
442,165,117023,6,0,P|462:199|462:239,1,80,0|2,0:0|0:0,0:0:0:0:
387,371,117515,2,0,P|383:341|367:291,1,80,8|2,0:0|0:0,0:0:0:0:
180,327,118008,5,0,0:0:0:0:
26,215,118254,1,10,0:2:0:0:
26,215,118500,1,10,0:2:0:0:
26,215,118992,6,0,P|84:191|162:165,1,143.999995605469,4|0,0:2|2:0,1:0:0:0:
169,151,119484,2,0,P|178:105|181:67,1,80,8|2,0:0|0:0,0:0:0:0:
99,99,119976,5,4,0:3:0:0:
256,172,120222,1,2,0:0:0:0:
256,172,120345,1,0,0:0:0:0:
256,172,120468,1,8,0:0:0:0:
413,99,120714,1,2,0:0:0:0:
486,215,120960,6,0,P|428:191|350:165,1,143.999995605469,4|0,0:3|2:0,1:0:0:0:
343,151,121452,2,0,P|334:105|331:67,1,80,8|2,0:0|0:0,0:0:0:0:
485,61,121944,1,4,0:3:0:0:
485,61,122436,5,8,0:0:0:0:
413,99,122682,1,2,0:0:0:0:
341,137,122928,6,0,P|348:205|353:309,1,160,4|8,0:2|0:0,1:0:0:0:
403,379,123666,1,2,0:0:0:0:
403,379,123913,2,0,P|448:323|428:238,1,160,4|8,0:3|0:0,0:0:0:0:
256,192,124651,1,2,0:0:0:0:
215,261,124897,5,4,0:3:0:0:
256,330,125143,1,2,0:0:0:0:
260,334,125266,1,0,0:0:0:0:
264,338,125389,1,10,0:2:0:0:
297,261,125635,1,2,0:0:0:0:
145,299,125881,6,0,P|158:342|164:386,1,80,4|10,0:3|0:2,0:0:0:0:
367,299,126373,2,0,P|354:342|348:386,1,80,10|0,0:2|0:0,0:0:0:0:
486,215,126865,6,0,P|428:191|350:165,1,143.999995605469,4|0,0:2|2:0,1:0:0:0:
343,151,127357,2,0,P|334:105|331:67,1,80,8|2,0:0|0:0,0:0:0:0:
403,24,127848,5,4,0:3:0:0:
256,125,128094,1,2,0:0:0:0:
256,125,128217,1,0,0:0:0:0:
256,125,128340,1,8,0:0:0:0:
109,24,128586,1,2,0:0:0:0:
26,215,128832,6,0,P|84:191|162:165,1,143.999995605469,4|0,0:3|2:0,1:0:0:0:
169,151,129324,2,0,P|178:105|181:67,1,80,8|2,0:0|0:0,0:0:0:0:
20,48,129817,1,4,0:3:0:0:
256,368,130309,6,0,B|288:312|264:268|256:264|248:260|224:216|256:160,1,216.000000823975,8|4,0:0|0:2,1:0:0:0:
192,312,131293,6,0,P|148:280|114:271,1,80,8|2,0:0|0:0,0:0:0:0:
46,290,131785,1,4,0:3:0:0:
319,218,132277,2,0,P|363:250|397:259,1,80,8|2,0:0|0:0,0:0:0:0:
465,240,132769,5,4,0:3:0:0:
256,265,133261,1,4,0:3:0:0:
46,290,133753,5,4,0:3:0:0:
198,318,133999,1,2,0:0:0:0:
314,212,134245,1,4,0:0:0:0:
36,91,142610,6,0,P|76:122|155:111,1,128,0|8,0:0|0:0,0:0:0:0:
249,26,143348,2,0,P|235:88|224:151,1,128
287,232,144086,1,8,0:0:0:0:
287,232,144332,1,0,0:0:0:0:
287,232,144578,6,0,P|276:295|263:357,1,128,0|8,0:0|0:0,0:0:0:0:
362,269,145316,2,0,P|423:258|476:293,1,128
408,341,146054,1,8,0:0:0:0:
408,341,146300,1,0,0:0:0:0:
336,382,146546,5,0,0:0:0:0:
114,253,147039,1,8,0:0:0:0:
176,382,147531,5,0,0:0:0:0:
398,253,148023,1,8,0:0:0:0:
256,32,148515,6,0,L|256:224,1,192
224,300,149499,2,0,P|256:296|288:300,2,64,0|10|10,0:0|0:0|0:0,0:0:0:0:
121,82,150482,5,0,0:0:0:0:
121,82,150728,2,0,P|114:43|105:14,1,64,0|8,0:0|0:0,0:0:0:0:
54,131,151220,2,0,P|106:164|167:150,1,128
256,122,151958,1,8,0:0:0:0:
256,122,152204,1,0,0:0:0:0:
314,62,152451,6,0,P|278:42|198:62,1,128,0|8,0:0|0:0,0:0:0:0:
344,149,153189,2,0,P|405:164|458:131,1,128
404,19,153927,2,0,P|396:50|391:82,1,64,8|0,0:0|0:0,0:0:0:0:
461,232,154419,5,0,0:0:0:0:
256,122,154911,1,8,0:0:0:0:
51,232,155403,1,0,0:0:0:0:
326,279,155895,5,8,0:0:0:0:
256,238,156141,1,0,0:0:0:0:
186,279,156387,5,0,0:0:0:0:
256,32,156879,1,8,0:0:0:0:
193,181,157371,5,0,0:0:0:0:
256,320,157617,1,4,0:0:0:0:
319,181,157863,1,12,0:0:0:0:
319,181,158356,6,0,P|391:172|447:213,1,143.999995605469,4|0,0:2|2:0,1:0:0:0:
470,196,158848,2,0,P|481:158|488:104,1,80,10|2,0:2|0:0,0:0:0:0:
418,19,159340,5,4,0:3:0:0:
256,80,159586,1,2,0:0:0:0:
256,80,159709,1,0,0:0:0:0:
256,80,159832,1,10,0:2:0:0:
94,19,160078,1,2,0:0:0:0:
193,181,160324,6,0,P|121:172|65:213,1,143.999995605469,4|0,0:3|2:0,1:0:0:0:
42,196,160815,2,0,P|31:158|24:104,1,80,10|2,0:2|0:0,0:0:0:0:
94,19,161307,1,4,0:3:0:0:
94,19,161799,5,10,0:2:0:0:
195,95,162045,1,2,0:0:0:0:
247,42,162291,6,0,P|213:22|166:28,1,80,4|2,0:2|0:0,0:0:0:0:
13,123,162783,2,0,P|51:111|90:105,1,80,10|2,0:2|0:0,0:0:0:0:
199,173,163275,2,0,P|125:185|96:261,1,160,4|10,0:3|0:2,0:0:0:0:
130,329,164014,1,2,0:0:0:0:
256,232,164260,5,4,0:3:0:0:
382,329,164506,1,2,0:0:0:0:
382,329,164629,1,0,0:0:0:0:
382,329,164752,1,10,0:2:0:0:
356,159,164998,1,2,0:0:0:0:
499,123,165244,6,0,P|460:111|421:105,1,80,4|10,0:3|0:2,0:0:0:0:
352,18,165736,2,0,P|316:34|296:80,1,80,10|0,0:2|0:0,0:0:0:0:
170,138,166228,6,0,P|179:193|190:285,1,143.999995605469,4|0,0:2|2:0,1:0:0:0:
169,268,166720,2,0,P|131:248|83:258,1,80,10|2,0:2|0:0,0:0:0:0:
119,329,167212,5,4,0:3:0:0:
256,220,167458,1,2,0:0:0:0:
256,220,167581,1,0,0:0:0:0:
256,220,167704,1,10,0:2:0:0:
393,329,167950,1,2,0:0:0:0:
342,138,168196,6,0,P|333:193|322:285,1,143.999995605469,4|0,0:3|2:0,1:0:0:0:
343,268,168688,2,0,P|381:248|429:258,1,80,10|2,0:2|0:0,0:0:0:0:
512,375,169180,1,4,0:3:0:0:
384,72,169672,6,0,B|344:48|272:56|320:160|192:160|240:56|168:48|128:72,1,287.999991210938,10|4,0:2|0:2,1:0:0:0:
0,375,170657,5,10,0:2:0:0:
71,323,170903,1,2,0:0:0:0:
48,237,171149,1,4,0:3:0:0:
464,237,171641,5,10,0:2:0:0:
441,323,171886,1,2,0:0:0:0:
512,375,172132,5,4,0:3:0:0:
256,288,172624,1,4,0:3:0:0:
0,375,173116,2,0,P|-7:328|-13:287,2,80,4|2|8,0:3|0:0|0:0,0:0:0:0:
192,192,174100,6,0,P|174:116|225:59,1,160,4|8,0:2|0:0,0:0:0:0:
255,135,174838,2,0,P|135:128|19:157,1,240,2|8,0:0|0:0,0:0:0:0:
160,21,175823,1,2,0:0:0:0:
127,90,176069,6,0,P|179:147|255:135,1,160,4|8,0:3|0:0,0:0:0:0:
347,65,176807,2,0,P|332:143|320:222,1,160,2|2,0:0|0:0,0:0:0:0:
255,344,177545,2,0,P|243:301|260:265,1,80,8|2,0:0|0:0,0:0:0:0:
325,305,178037,6,0,P|389:292|484:278,1,160,4|8,0:2|0:0,0:0:0:0:
183,83,179021,2,0,P|119:96|24:110,1,160,4|8,0:3|0:0,0:0:0:0:
74,182,179759,1,2,0:0:0:0:
51,267,180005,6,0,P|115:254|210:240,1,160,4|8,0:3|0:0,0:0:0:0:
208,240,180989,5,4,0:3:0:0:
320,192,181236,1,8,0:0:0:0:
320,192,181482,1,8,0:0:0:0:
320,192,181974,6,0,P|337:116|286:59,1,160,4|8,0:2|0:0,0:0:0:0:
257,135,182712,2,0,P|376:128|492:157,1,240,2|8,0:0|0:0,0:0:0:0:
352,21,183696,1,2,0:0:0:0:
384,90,183942,6,0,P|332:147|257:135,1,160,4|8,0:3|0:0,0:0:0:0:
165,65,184680,2,0,P|179:143|191:222,1,160,2|2,0:0|0:0,0:0:0:0:
256,344,185417,2,0,P|268:301|251:265,1,80,8|2,0:0|0:0,0:0:0:0:
104,192,185909,5,4,0:2:0:0:
104,192,186401,2,0,P|147:204|183:187,1,80,8|2,0:0|0:0,0:0:0:0:
256,40,186893,5,4,0:3:0:0:
256,120,187140,2,0,L|256:184,2,40,2|0|8,0:0|0:0|0:0,0:0:0:0:
177,80,187632,1,2,0:0:0:0:
335,80,187878,5,4,0:3:0:0:
256,364,188370,1,4,0:3:0:0:
177,80,188862,1,4,0:2:0:0:
