osu file format v14

[General]
AudioFilename: audio.mp3
AudioLeadIn: 0
PreviewTime: 52578
Countdown: 0
SampleSet: Normal
StackLeniency: 0.7
Mode: 1
LetterboxInBreaks: 0
WidescreenStoryboard: 0

[Editor]
DistanceSpacing: 0.4
BeatDivisor: 4
GridSize: 32
TimelineZoom: 3.599998

[Metadata]
Title:RE Aoharu
TitleUnicode:RE Aoharu
Artist:Nor feat. Konomi Kohara
ArtistUnicode:Nor feat. 小原好美
Creator:Rinze
Version:Wish
Source:ブルーアーカイブ -Blue Archive-
Tags:ler1211 electronic instrumental nexon yostar video game Original Soundtrack Vol.3 ~Reaching for the precious time~ OST 59. Nor track_59 最終編 あまねく 奇跡の始発点編 final chapter amaneku remix track_34 prologue opening story プロローグ 4th PV ブルアカ promotional video version ver. ft. featuring
BeatmapID:3980098
BeatmapSetID:1927384

[Difficulty]
HPDrainRate:6
CircleSize:5
OverallDifficulty:6
ApproachRate:5
SliderMultiplier:1.4
SliderTickRate:1

[Events]
//Background and Video events
0,0,"PSX_20230122_185244.jpg",0,60
Video,350,"output.mp4"
//Break Periods
2,47445,51378
//Storyboard Layer 0 (Background)
//Storyboard Layer 1 (Fail)
//Storyboard Layer 2 (Pass)
//Storyboard Layer 3 (Foreground)
//Storyboard Layer 4 (Overlay)
//Storyboard Sound Samples

[TimingPoints]
4579,333.333333333333,4,1,0,80,1,0
15412,-111.111111111111,4,1,0,80,0,0
24495,-111.111111111111,4,3,0,40,0,0
25828,-100,4,1,0,80,0,0
36578,-100,4,1,0,80,0,0
47412,-166.666666666667,4,1,0,30,0,0
52412,-142.857142857143,4,1,0,60,0,0
63162,-125,4,1,0,80,0,0
63412,-125,4,1,0,70,0,0
73912,-111.111111111111,4,1,0,80,0,0
84495,-100,4,1,0,80,0,0
95245,-90.9090909090909,4,1,0,80,0,1
116578,-90.9090909090909,4,1,0,80,0,0
116662,-111.111111111111,4,1,0,60,0,0

[HitObjects]
256,192,4578,5,4,0:0:0:0:
256,192,4912,1,0,0:0:0:0:
256,192,5078,1,8,0:0:0:0:
256,192,5245,1,0,0:0:0:0:
256,192,5578,1,8,0:0:0:0:
256,192,5912,1,0,0:0:0:0:
256,192,6078,1,8,0:0:0:0:
256,192,6412,1,0,0:0:0:0:
256,192,6578,1,8,0:0:0:0:
256,192,6912,1,8,0:0:0:0:
256,192,7078,1,8,0:0:0:0:
256,192,7162,1,8,0:0:0:0:
256,192,7245,1,0,0:0:0:0:
256,192,7578,1,0,0:0:0:0:
256,192,7745,1,8,0:0:0:0:
256,192,7912,1,0,0:0:0:0:
256,192,8078,1,0,0:0:0:0:
256,192,8245,1,8,0:0:0:0:
256,192,8578,1,0,0:0:0:0:
256,192,8745,1,8,0:0:0:0:
256,192,9078,1,0,0:0:0:0:
256,192,9245,1,8,0:0:0:0:
256,192,9328,1,8,0:0:0:0:
256,192,9412,1,0,0:0:0:0:
256,192,9495,1,0,0:0:0:0:
256,192,9579,1,8,0:0:0:0:
256,192,9745,1,0,0:0:0:0:
256,192,9829,1,8,0:0:0:0:
256,192,9912,1,0,0:0:0:0:
256,192,10245,1,0,0:0:0:0:
256,192,10412,1,8,0:0:0:0:
256,192,10578,1,0,0:0:0:0:
256,192,10912,1,8,0:0:0:0:
256,192,11078,1,8,0:0:0:0:
256,192,11245,1,0,0:0:0:0:
256,192,11412,1,8,0:0:0:0:
256,192,11745,1,0,0:0:0:0:
256,192,11912,1,8,0:0:0:0:
256,192,12246,1,8,0:0:0:0:
256,192,12412,1,0,0:0:0:0:
256,192,12496,1,8,0:0:0:0:
256,192,12578,1,0,0:0:0:0:
256,192,12745,1,0,0:0:0:0:
256,192,12912,1,0,0:0:0:0:
256,192,13078,1,8,0:0:0:0:
256,192,13412,1,0,0:0:0:0:
256,192,13578,1,8,0:0:0:0:
256,192,13912,1,0,0:0:0:0:
256,192,14078,1,8,0:0:0:0:
256,192,14245,1,0,0:0:0:0:
256,192,14412,1,0,0:0:0:0:
256,192,14495,1,0,0:0:0:0:
256,192,14578,1,8,0:0:0:0:
256,192,14745,1,0,0:0:0:0:
256,192,14912,1,8,0:0:0:0:
256,192,15078,1,8,0:0:0:0:
256,192,15245,1,4,0:0:0:0:
256,192,15578,1,0,0:0:0:0:
256,192,15745,1,8,0:0:0:0:
256,192,15912,1,0,0:0:0:0:
256,192,16245,1,0,0:0:0:0:
256,192,16578,1,0,0:0:0:0:
256,192,16745,1,8,0:0:0:0:
256,192,16912,1,0,0:0:0:0:
256,192,17245,1,0,0:0:0:0:
256,192,17578,1,0,0:0:0:0:
256,192,17745,1,8,0:0:0:0:
256,192,17828,1,8,0:0:0:0:
256,192,17912,1,0,0:0:0:0:
256,192,18245,1,0,0:0:0:0:
256,192,18412,1,8,0:0:0:0:
256,192,18578,1,0,0:0:0:0:
256,192,18912,1,0,0:0:0:0:
256,192,19245,1,0,0:0:0:0:
256,192,19412,1,8,0:0:0:0:
256,192,19578,1,0,0:0:0:0:
256,192,19912,1,0,0:0:0:0:
256,192,20078,1,8,0:0:0:0:
256,192,20162,1,8,0:0:0:0:
256,192,20245,1,0,0:0:0:0:
256,192,20412,1,8,0:0:0:0:
256,192,20495,1,8,0:0:0:0:
256,192,20578,1,0,0:0:0:0:
256,192,20912,1,0,0:0:0:0:
256,192,21078,1,8,0:0:0:0:
256,192,21245,1,0,0:0:0:0:
256,192,21578,1,0,0:0:0:0:
256,192,21912,1,0,0:0:0:0:
256,192,22078,1,8,0:0:0:0:
256,192,22245,1,0,0:0:0:0:
256,192,22578,1,0,0:0:0:0:
256,192,22912,1,0,0:0:0:0:
256,192,23078,1,8,0:0:0:0:
256,192,23162,1,8,0:0:0:0:
256,192,23245,1,0,0:0:0:0:
256,192,23412,1,0,0:0:0:0:
256,192,23578,1,0,0:0:0:0:
256,192,23746,1,8,0:0:0:0:
256,192,23912,1,0,0:0:0:0:
256,192,24079,1,0,0:0:0:0:
256,192,24245,1,8,0:0:0:0:
256,192,24412,1,8,0:0:0:0:
256,192,24578,1,0,0:0:0:0:
256,192,24745,1,0,0:0:0:0:
256,192,24912,1,8,0:0:0:0:
256,192,25078,1,0,0:0:0:0:
256,192,25245,1,0,0:0:0:0:
256,192,25412,1,8,0:0:0:0:
256,192,25578,1,0,0:0:0:0:
256,192,25745,1,0,0:0:0:0:
256,192,25912,1,12,0:0:0:0:
256,192,26245,1,8,0:0:0:0:
256,192,26412,1,8,0:0:0:0:
256,192,26578,1,0,0:0:0:0:
256,192,26745,1,8,0:0:0:0:
256,192,26828,1,8,0:0:0:0:
256,192,26912,1,0,0:0:0:0:
256,192,27078,1,0,0:0:0:0:
256,192,27245,1,8,0:0:0:0:
256,192,27412,1,0,0:0:0:0:
256,192,27495,1,8,0:0:0:0:
256,192,27578,1,0,0:0:0:0:
256,192,27745,1,8,0:0:0:0:
256,192,27828,1,8,0:0:0:0:
256,192,27912,1,0,0:0:0:0:
256,192,28078,1,0,0:0:0:0:
256,192,28245,1,8,0:0:0:0:
256,192,28412,1,0,0:0:0:0:
256,192,28578,1,12,0:0:0:0:
256,192,28912,1,8,0:0:0:0:
256,192,29078,1,0,0:0:0:0:
256,192,29245,1,8,0:0:0:0:
256,192,29328,1,0,0:0:0:0:
256,192,29412,1,8,0:0:0:0:
256,192,29578,1,8,0:0:0:0:
256,192,29745,1,0,0:0:0:0:
256,192,29828,1,0,0:0:0:0:
256,192,29912,1,8,0:0:0:0:
256,192,30078,1,0,0:0:0:0:
256,192,30245,1,8,0:0:0:0:
256,192,30328,1,0,0:0:0:0:
256,192,30412,1,8,0:0:0:0:
256,192,30495,1,8,0:0:0:0:
256,192,30578,1,0,0:0:0:0:
256,192,30745,1,0,0:0:0:0:
256,192,30912,1,8,0:0:0:0:
256,192,31078,1,0,0:0:0:0:
256,192,31245,1,12,0:0:0:0:
256,192,31578,1,8,0:0:0:0:
256,192,31745,1,8,0:0:0:0:
256,192,31912,1,0,0:0:0:0:
256,192,31995,1,0,0:0:0:0:
256,192,32078,1,8,0:0:0:0:
256,192,32245,1,0,0:0:0:0:
256,192,32412,1,8,0:0:0:0:
256,192,32495,1,0,0:0:0:0:
256,192,32578,1,8,0:0:0:0:
256,192,32745,1,8,0:0:0:0:
256,192,32912,1,0,0:0:0:0:
256,192,32995,1,0,0:0:0:0:
256,192,33078,1,8,0:0:0:0:
256,192,33162,1,0,0:0:0:0:
256,192,33245,1,8,0:0:0:0:
256,192,33412,1,0,0:0:0:0:
256,192,33495,1,0,0:0:0:0:
256,192,33578,1,8,0:0:0:0:
256,192,33745,1,0,0:0:0:0:
256,192,33912,1,12,0:0:0:0:
256,192,34245,1,8,0:0:0:0:
256,192,34412,1,0,0:0:0:0:
256,192,34495,1,0,0:0:0:0:
256,192,34578,1,0,0:0:0:0:
256,192,34745,1,8,0:0:0:0:
256,192,34912,1,0,0:0:0:0:
256,192,35078,1,0,0:0:0:0:
256,192,35162,1,0,0:0:0:0:
256,192,35245,1,8,0:0:0:0:
256,192,35412,1,8,0:0:0:0:
256,192,35578,1,0,0:0:0:0:
256,192,35745,1,8,0:0:0:0:
256,192,35828,1,0,0:0:0:0:
256,192,35912,1,8,0:0:0:0:
256,192,36078,1,0,0:0:0:0:
256,192,36162,1,0,0:0:0:0:
256,192,36245,1,8,0:0:0:0:
256,192,36412,1,0,0:0:0:0:
256,192,36578,1,12,0:0:0:0:
256,192,36912,1,8,0:0:0:0:
256,192,37078,1,0,0:0:0:0:
256,192,37162,1,8,0:0:0:0:
256,192,37245,1,0,0:0:0:0:
256,192,37412,1,0,0:0:0:0:
256,192,37578,1,8,0:0:0:0:
256,192,37745,1,8,0:0:0:0:
256,192,37828,1,8,0:0:0:0:
256,192,37912,1,0,0:0:0:0:
256,192,38078,1,0,0:0:0:0:
256,192,38245,1,8,0:0:0:0:
256,192,38412,1,0,0:0:0:0:
256,192,38495,1,0,0:0:0:0:
256,192,38578,1,8,0:0:0:0:
256,192,38745,1,0,0:0:0:0:
256,192,38828,1,0,0:0:0:0:
256,192,38912,1,8,0:0:0:0:
256,192,38995,1,8,0:0:0:0:
256,192,39078,1,0,0:0:0:0:
256,192,39245,1,12,0:0:0:0:
256,192,39412,1,0,0:0:0:0:
256,192,39495,1,0,0:0:0:0:
256,192,39578,1,8,0:0:0:0:
256,192,39745,1,8,0:0:0:0:
256,192,39828,1,8,0:0:0:0:
256,192,39912,1,0,0:0:0:0:
256,192,40078,1,0,0:0:0:0:
256,192,40245,1,8,0:0:0:0:
256,192,40328,1,8,0:0:0:0:
256,192,40412,1,0,0:0:0:0:
256,192,40495,1,8,0:0:0:0:
256,192,40578,1,0,0:0:0:0:
256,192,40745,1,8,0:0:0:0:
256,192,40912,1,0,0:0:0:0:
256,192,41078,1,8,0:0:0:0:
256,192,41162,1,0,0:0:0:0:
256,192,41245,1,8,0:0:0:0:
256,192,41328,1,8,0:0:0:0:
256,192,41412,1,0,0:0:0:0:
256,192,41495,1,0,0:0:0:0:
256,192,41578,1,8,0:0:0:0:
256,192,41745,1,0,0:0:0:0:
256,192,41912,1,12,0:0:0:0:
256,192,42245,1,8,0:0:0:0:
256,192,42412,1,0,0:0:0:0:
256,192,42495,1,8,0:0:0:0:
256,192,42578,1,0,0:0:0:0:
256,192,42745,1,0,0:0:0:0:
256,192,42828,1,0,0:0:0:0:
256,192,42912,1,8,0:0:0:0:
256,192,43078,1,0,0:0:0:0:
256,192,43245,1,12,0:0:0:0:
256,192,43412,1,8,0:0:0:0:
256,192,43578,1,0,0:0:0:0:
256,192,43745,1,0,0:0:0:0:
256,192,43828,1,0,0:0:0:0:
256,192,43912,1,8,0:0:0:0:
256,192,44078,1,0,0:0:0:0:
256,192,44245,1,8,0:0:0:0:
256,192,44328,1,8,0:0:0:0:
256,192,44412,1,0,0:0:0:0:
256,192,44578,1,12,0:0:0:0:
256,192,44745,1,8,0:0:0:0:
256,192,44912,1,0,0:0:0:0:
256,192,45078,1,0,0:0:0:0:
256,192,45245,1,8,0:0:0:0:
256,192,45412,1,0,0:0:0:0:
256,192,45578,1,0,0:0:0:0:
256,192,45745,1,0,0:0:0:0:
256,192,45912,1,8,0:0:0:0:
256,192,45995,1,8,0:0:0:0:
256,192,46078,1,8,0:0:0:0:
256,192,46162,1,8,0:0:0:0:
256,192,46245,1,0,0:0:0:0:
256,192,46328,1,0,0:0:0:0:
256,192,46412,1,0,0:0:0:0:
256,192,46495,1,0,0:0:0:0:
256,192,46578,1,8,0:0:0:0:
256,192,46662,1,0,0:0:0:0:
256,192,46745,1,0,0:0:0:0:
256,192,46828,1,0,0:0:0:0:
256,192,46912,1,8,0:0:0:0:
256,192,46995,1,8,0:0:0:0:
256,192,47078,1,0,0:0:0:0:
256,192,47245,1,12,0:0:0:0:
256,192,52578,5,0,0:0:0:0:
256,192,53078,1,0,0:0:0:0:
256,192,53578,1,8,0:0:0:0:
256,192,53912,1,0,0:0:0:0:
256,192,54412,1,0,0:0:0:0:
256,192,54912,1,0,0:0:0:0:
256,192,55245,1,8,0:0:0:0:
256,192,55745,1,0,0:0:0:0:
256,192,56245,1,8,0:0:0:0:
256,192,56578,1,0,0:0:0:0:
256,192,57078,1,8,0:0:0:0:
256,192,57578,1,8,0:0:0:0:
256,192,57912,1,0,0:0:0:0:
256,192,58412,1,0,0:0:0:0:
256,192,58912,1,8,0:0:0:0:
256,192,59246,1,0,0:0:0:0:
256,192,59746,1,0,0:0:0:0:
256,192,60246,1,0,0:0:0:0:
256,192,60579,1,8,0:0:0:0:
256,192,61079,1,0,0:0:0:0:
256,192,61579,1,0,0:0:0:0:
256,192,61912,1,8,0:0:0:0:
256,192,62412,1,8,0:0:0:0:
256,192,62912,1,8,0:0:0:0:
256,192,63078,1,8,0:0:0:0:
256,192,63246,1,4,0:0:0:0:
256,192,63745,1,8,0:0:0:0:
256,192,64245,1,8,0:0:0:0:
256,192,64578,1,0,0:0:0:0:
256,192,64745,1,8,0:0:0:0:
256,192,65245,1,8,0:0:0:0:
256,192,65578,1,8,0:0:0:0:
256,192,65745,1,8,0:0:0:0:
256,192,65828,1,8,0:0:0:0:
256,192,65912,1,0,0:0:0:0:
256,192,66412,1,8,0:0:0:0:
256,192,66912,1,8,0:0:0:0:
256,192,67245,1,0,0:0:0:0:
256,192,67412,1,8,0:0:0:0:
256,192,67912,1,8,0:0:0:0:
256,192,67995,1,8,0:0:0:0:
256,192,68078,1,8,0:0:0:0:
256,192,68162,1,8,0:0:0:0:
256,192,68245,1,8,0:0:0:0:
256,192,68495,1,8,0:0:0:0:
256,192,68578,1,0,0:0:0:0:
256,192,69078,1,8,0:0:0:0:
256,192,69578,1,8,0:0:0:0:
256,192,69912,1,0,0:0:0:0:
256,192,70078,1,8,0:0:0:0:
256,192,70578,1,8,0:0:0:0:
256,192,70911,1,8,0:0:0:0:
256,192,71078,1,8,0:0:0:0:
256,192,71162,1,8,0:0:0:0:
256,192,71245,1,0,0:0:0:0:
256,192,71745,1,8,0:0:0:0:
256,192,72245,1,8,0:0:0:0:
256,192,72578,1,0,0:0:0:0:
256,192,72745,1,8,0:0:0:0:
256,192,73078,1,0,0:0:0:0:
256,192,73245,1,8,0:0:0:0:
256,192,73578,1,8,0:0:0:0:
256,192,73912,1,4,0:0:0:0:
256,192,74245,1,0,0:0:0:0:
256,192,74412,1,8,0:0:0:0:
256,192,74578,1,0,0:0:0:0:
256,192,74912,1,8,0:0:0:0:
256,192,75245,1,0,0:0:0:0:
256,192,75412,1,8,0:0:0:0:
256,192,75578,1,0,0:0:0:0:
256,192,75745,1,0,0:0:0:0:
256,192,75828,1,0,0:0:0:0:
256,192,75912,1,8,0:0:0:0:
256,192,76245,1,8,0:0:0:0:
256,192,76412,1,8,0:0:0:0:
256,192,76578,1,4,0:0:0:0:
256,192,76912,1,0,0:0:0:0:
256,192,77078,1,8,0:0:0:0:
256,192,77162,1,8,0:0:0:0:
256,192,77245,1,0,0:0:0:0:
256,192,77412,1,0,0:0:0:0:
256,192,77578,1,8,0:0:0:0:
256,192,77912,1,0,0:0:0:0:
256,192,78078,1,8,0:0:0:0:
256,192,78245,1,0,0:0:0:0:
256,192,78412,1,0,0:0:0:0:
256,192,78578,1,8,0:0:0:0:
256,192,78662,1,8,0:0:0:0:
256,192,78745,1,0,0:0:0:0:
256,192,78828,1,0,0:0:0:0:
256,192,78911,1,8,0:0:0:0:
256,192,79078,1,8,0:0:0:0:
256,192,79245,1,4,0:0:0:0:
256,192,79578,1,0,0:0:0:0:
256,192,79745,1,8,0:0:0:0:
256,192,79912,1,0,0:0:0:0:
256,192,80078,1,0,0:0:0:0:
256,192,80245,1,8,0:0:0:0:
256,192,80412,1,8,0:0:0:0:
256,192,80578,1,0,0:0:0:0:
256,192,80745,1,8,0:0:0:0:
256,192,81078,1,0,0:0:0:0:
256,192,81245,1,8,0:0:0:0:
256,192,81412,1,0,0:0:0:0:
256,192,81495,1,0,0:0:0:0:
256,192,81578,1,8,0:0:0:0:
256,192,81745,1,8,0:0:0:0:
256,192,81912,1,4,0:0:0:0:
256,192,82245,1,0,0:0:0:0:
256,192,82412,1,8,0:0:0:0:
256,192,82578,1,0,0:0:0:0:
256,192,82745,1,0,0:0:0:0:
256,192,82912,1,8,0:0:0:0:
256,192,83245,1,0,0:0:0:0:
256,192,83412,1,8,0:0:0:0:
256,192,83578,1,8,0:0:0:0:
256,192,83745,1,0,0:0:0:0:
256,192,83828,1,0,0:0:0:0:
256,192,83912,1,8,0:0:0:0:
256,192,84078,1,0,0:0:0:0:
256,192,84245,1,8,0:0:0:0:
256,192,84412,1,8,0:0:0:0:
256,192,84578,1,4,0:0:0:0:
256,192,84912,1,8,0:0:0:0:
256,192,85078,1,8,0:0:0:0:
256,192,85245,1,0,0:0:0:0:
256,192,85328,1,0,0:0:0:0:
256,192,85412,1,0,0:0:0:0:
256,192,85578,1,8,0:0:0:0:
256,192,85745,1,0,0:0:0:0:
256,192,85912,1,8,0:0:0:0:
256,192,86162,1,8,0:0:0:0:
256,192,86245,1,0,0:0:0:0:
256,192,86412,1,8,0:0:0:0:
256,192,86495,1,8,0:0:0:0:
256,192,86578,1,0,0:0:0:0:
256,192,86745,1,0,0:0:0:0:
256,192,86912,1,8,0:0:0:0:
256,192,87078,1,8,0:0:0:0:
256,192,87245,1,4,0:0:0:0:
256,192,87578,1,8,0:0:0:0:
256,192,87745,1,0,0:0:0:0:
256,192,87912,1,8,0:0:0:0:
256,192,88078,1,0,0:0:0:0:
256,192,88162,1,8,0:0:0:0:
256,192,88245,1,0,0:0:0:0:
256,192,88412,1,0,0:0:0:0:
256,192,88578,1,8,0:0:0:0:
256,192,88662,1,8,0:0:0:0:
256,192,88745,1,0,0:0:0:0:
256,192,88912,1,8,0:0:0:0:
256,192,89078,1,0,0:0:0:0:
256,192,89162,1,0,0:0:0:0:
256,192,89245,1,8,0:0:0:0:
256,192,89328,1,8,0:0:0:0:
256,192,89412,1,0,0:0:0:0:
256,192,89578,1,8,0:0:0:0:
256,192,89745,1,8,0:0:0:0:
256,192,89912,1,4,0:0:0:0:
256,192,90245,1,8,0:0:0:0:
256,192,90412,1,0,0:0:0:0:
256,192,90578,1,8,0:0:0:0:
256,192,90662,1,8,0:0:0:0:
256,192,90745,1,0,0:0:0:0:
256,192,90912,1,8,0:0:0:0:
256,192,91078,1,0,0:0:0:0:
256,192,91245,1,8,0:0:0:0:
256,192,91328,1,0,0:0:0:0:
256,192,91495,1,0,0:0:0:0:
256,192,91578,1,8,0:0:0:0:
256,192,91745,1,8,0:0:0:0:
256,192,91912,1,0,0:0:0:0:
256,192,91995,1,8,0:0:0:0:
256,192,92078,1,0,0:0:0:0:
256,192,92162,1,0,0:0:0:0:
256,192,92245,1,8,0:0:0:0:
256,192,92412,1,8,0:0:0:0:
256,192,92578,1,4,0:0:0:0:
256,192,92745,1,0,0:0:0:0:
256,192,92912,1,8,0:0:0:0:
256,192,93078,1,0,0:0:0:0:
256,192,93245,1,8,0:0:0:0:
256,192,93412,1,8,0:0:0:0:
256,192,93578,1,0,0:0:0:0:
256,192,93745,1,8,0:0:0:0:
256,192,93912,1,0,0:0:0:0:
256,192,94078,1,0,0:0:0:0:
256,192,94162,1,0,0:0:0:0:
256,192,94245,1,8,0:0:0:0:
256,192,94412,1,0,0:0:0:0:
256,192,94495,1,0,0:0:0:0:
256,192,94578,1,0,0:0:0:0:
256,192,94745,1,8,0:0:0:0:
256,192,94912,1,0,0:0:0:0:
256,192,95078,1,0,0:0:0:0:
256,192,95245,1,12,0:0:0:0:
256,192,95578,1,8,0:0:0:0:
256,192,95745,1,8,0:0:0:0:
256,192,95912,1,0,0:0:0:0:
256,192,96078,1,8,0:0:0:0:
256,192,96162,1,8,0:0:0:0:
256,192,96245,1,0,0:0:0:0:
256,192,96412,1,0,0:0:0:0:
256,192,96578,1,8,0:0:0:0:
256,192,96745,1,0,0:0:0:0:
256,192,96828,1,8,0:0:0:0:
256,192,96912,1,0,0:0:0:0:
256,192,96995,1,0,0:0:0:0:
256,192,97078,1,8,0:0:0:0:
256,192,97245,1,8,0:0:0:0:
256,192,97328,1,8,0:0:0:0:
256,192,97412,1,0,0:0:0:0:
256,192,97578,1,8,0:0:0:0:
256,192,97745,1,0,0:0:0:0:
256,192,97828,1,0,0:0:0:0:
256,192,97912,1,8,0:0:0:0:
256,192,97995,1,8,0:0:0:0:
256,192,98078,1,0,0:0:0:0:
256,192,98245,1,8,0:0:0:0:
256,192,98412,1,0,0:0:0:0:
256,192,98495,1,0,0:0:0:0:
256,192,98578,1,8,0:0:0:0:
256,192,98662,1,0,0:0:0:0:
256,192,98745,1,8,0:0:0:0:
256,192,98828,1,8,0:0:0:0:
256,192,98912,1,0,0:0:0:0:
256,192,99078,1,0,0:0:0:0:
256,192,99162,1,0,0:0:0:0:
256,192,99245,1,8,0:0:0:0:
256,192,99412,1,8,0:0:0:0:
256,192,99578,1,0,0:0:0:0:
256,192,99745,1,8,0:0:0:0:
256,192,99828,1,8,0:0:0:0:
256,192,99912,1,0,0:0:0:0:
256,192,99995,1,8,0:0:0:0:
256,192,100078,1,0,0:0:0:0:
256,192,100162,1,0,0:0:0:0:
256,192,100245,1,8,0:0:0:0:
256,192,100412,1,8,0:0:0:0:
256,192,100495,1,8,0:0:0:0:
256,192,100579,1,0,0:0:0:0:
256,192,100745,1,0,0:0:0:0:
256,192,100912,1,8,0:0:0:0:
256,192,101078,1,0,0:0:0:0:
256,192,101162,1,0,0:0:0:0:
256,192,101245,1,0,0:0:0:0:
256,192,101412,1,8,0:0:0:0:
256,192,101578,1,0,0:0:0:0:
256,192,101662,1,0,0:0:0:0:
256,192,101745,1,8,0:0:0:0:
256,192,101828,1,0,0:0:0:0:
256,192,101912,1,8,0:0:0:0:
256,192,102078,1,8,0:0:0:0:
256,192,102245,1,0,0:0:0:0:
256,192,102328,1,0,0:0:0:0:
256,192,102412,1,8,0:0:0:0:
256,192,102578,1,8,0:0:0:0:
256,192,102662,1,8,0:0:0:0:
256,192,102745,1,0,0:0:0:0:
256,192,102828,1,0,0:0:0:0:
256,192,102912,1,8,0:0:0:0:
256,192,103078,1,0,0:0:0:0:
256,192,103162,1,8,0:0:0:0:
256,192,103246,1,0,0:0:0:0:
256,192,103412,1,0,0:0:0:0:
256,192,103578,1,8,0:0:0:0:
256,192,103662,1,8,0:0:0:0:
256,192,103745,1,8,0:0:0:0:
256,192,103912,1,0,0:0:0:0:
256,192,104078,1,8,0:0:0:0:
256,192,104162,1,0,0:0:0:0:
256,192,104245,1,8,0:0:0:0:
256,192,104328,1,8,0:0:0:0:
256,192,104412,1,0,0:0:0:0:
256,192,104495,1,0,0:0:0:0:
256,192,104578,1,8,0:0:0:0:
256,192,104745,1,8,0:0:0:0:
256,192,104912,1,0,0:0:0:0:
256,192,104995,1,0,0:0:0:0:
256,192,105078,1,8,0:0:0:0:
256,192,105162,1,8,0:0:0:0:
256,192,105245,1,0,0:0:0:0:
256,192,105412,1,0,0:0:0:0:
256,192,105495,1,0,0:0:0:0:
256,192,105578,1,8,0:0:0:0:
256,192,105745,1,8,0:0:0:0:
256,192,105912,1,4,0:0:0:0:
256,192,106245,1,8,0:0:0:0:
256,192,106412,1,0,0:0:0:0:
256,192,106495,1,8,0:0:0:0:
256,192,106578,1,0,0:0:0:0:
256,192,106745,1,0,0:0:0:0:
256,192,106828,1,0,0:0:0:0:
256,192,106912,1,8,0:0:0:0:
256,192,107078,1,0,0:0:0:0:
256,192,107245,1,8,0:0:0:0:
256,192,107328,1,8,0:0:0:0:
256,192,107412,1,0,0:0:0:0:
256,192,107495,1,0,0:0:0:0:
256,192,107578,1,8,0:0:0:0:
256,192,107745,1,0,0:0:0:0:
256,192,107912,1,8,0:0:0:0:
256,192,108078,1,0,0:0:0:0:
256,192,108162,1,0,0:0:0:0:
256,192,108245,1,8,0:0:0:0:
256,192,108412,1,8,0:0:0:0:
256,192,108578,1,0,0:0:0:0:
256,192,108662,1,0,0:0:0:0:
256,192,108745,1,8,0:0:0:0:
256,192,108828,1,0,0:0:0:0:
256,192,108912,1,8,0:0:0:0:
256,192,109078,1,8,0:0:0:0:
256,192,109245,1,0,0:0:0:0:
256,192,109412,1,0,0:0:0:0:
256,192,109495,1,0,0:0:0:0:
256,192,109578,1,8,0:0:0:0:
256,192,109745,1,8,0:0:0:0:
256,192,109912,1,0,0:0:0:0:
256,192,109995,1,0,0:0:0:0:
256,192,110078,1,0,0:0:0:0:
256,192,110245,1,8,0:0:0:0:
256,192,110412,1,0,0:0:0:0:
256,192,110495,1,0,0:0:0:0:
256,192,110578,1,8,0:0:0:0:
256,192,110662,1,8,0:0:0:0:
256,192,110745,1,0,0:0:0:0:
256,192,110912,1,8,0:0:0:0:
256,192,110995,1,0,0:0:0:0:
256,192,111078,1,8,0:0:0:0:
256,192,111162,1,8,0:0:0:0:
256,192,111245,1,0,0:0:0:0:
256,192,111412,1,0,0:0:0:0:
256,192,111495,1,0,0:0:0:0:
256,192,111578,1,8,0:0:0:0:
256,192,111745,1,8,0:0:0:0:
256,192,111912,1,0,0:0:0:0:
256,192,111995,1,8,0:0:0:0:
256,192,112078,1,0,0:0:0:0:
256,192,112162,1,0,0:0:0:0:
256,192,112245,1,8,0:0:0:0:
256,192,112328,1,8,0:0:0:0:
256,192,112412,1,0,0:0:0:0:
256,192,112578,1,8,0:0:0:0:
256,192,112745,1,8,0:0:0:0:
256,192,112912,1,0,0:0:0:0:
256,192,113078,1,8,0:0:0:0:
256,192,113162,1,8,0:0:0:0:
256,192,113245,1,8,0:0:0:0:
256,192,113412,1,0,0:0:0:0:
256,192,113578,1,8,0:0:0:0:
256,192,113662,1,8,0:0:0:0:
256,192,113745,1,8,0:0:0:0:
256,192,113828,1,8,0:0:0:0:
256,192,113912,1,0,0:0:0:0:
256,192,114078,1,0,0:0:0:0:
256,192,114162,1,0,0:0:0:0:
256,192,114245,1,8,0:0:0:0:
256,192,114412,1,8,0:0:0:0:
256,192,114578,1,0,0:0:0:0:
256,192,114662,1,0,0:0:0:0:
256,192,114745,1,0,0:0:0:0:
256,192,114828,1,0,0:0:0:0:
256,192,114912,1,8,0:0:0:0:
256,192,115078,1,8,0:0:0:0:
256,192,115245,1,0,0:0:0:0:
256,192,115328,1,0,0:0:0:0:
256,192,115412,1,8,0:0:0:0:
256,192,115495,1,8,0:0:0:0:
256,192,115578,1,0,0:0:0:0:
256,192,115745,1,8,0:0:0:0:
256,192,115828,1,8,0:0:0:0:
256,192,115912,1,8,0:0:0:0:
256,192,116078,1,0,0:0:0:0:
256,192,116162,1,0,0:0:0:0:
256,192,116245,1,8,0:0:0:0:
256,192,116328,1,8,0:0:0:0:
256,192,116412,1,8,0:0:0:0:
256,192,116495,1,8,0:0:0:0:
256,192,116578,1,0,0:0:0:0:
256,192,116912,1,8,0:0:0:0:
256,192,117245,1,8,0:0:0:0:
256,192,117578,1,8,0:0:0:0:
256,192,117912,1,8,0:0:0:0:
256,192,118245,1,8,0:0:0:0:
256,192,118412,1,0,0:0:0:0:
256,192,118495,1,0,0:0:0:0:
256,192,118578,1,0,0:0:0:0:
256,192,118662,1,0,0:0:0:0:
256,192,118745,1,0,0:0:0:0:
256,192,118912,1,8,0:0:0:0:
256,192,119245,1,0,0:0:0:0:
256,192,119412,1,8,0:0:0:0:
256,192,119578,1,0,0:0:0:0:
256,192,119745,1,0,0:0:0:0:
256,192,119912,1,8,0:0:0:0:
256,192,120245,1,8,0:0:0:0:
256,192,120579,1,8,0:0:0:0:
256,192,120912,1,8,0:0:0:0:
256,192,121079,1,0,0:0:0:0:
256,192,121162,1,0,0:0:0:0:
256,192,121245,1,8,0:0:0:0:
256,192,121329,1,0,0:0:0:0:
256,192,121412,1,0,0:0:0:0:
256,192,121579,1,8,0:0:0:0:
256,192,121912,1,0,0:0:0:0:
256,192,122079,1,0,0:0:0:0:
256,192,122245,1,8,0:0:0:0:
256,192,122412,1,0,0:0:0:0:
256,192,122579,1,8,0:0:0:0:
256,192,122911,1,8,0:0:0:0:
256,192,123245,1,8,0:0:0:0:
256,192,123578,1,8,0:0:0:0:
256,192,123745,1,0,0:0:0:0:
256,192,123828,1,0,0:0:0:0:
256,192,123911,1,8,0:0:0:0:
256,192,123995,1,8,0:0:0:0:
256,192,124078,1,0,0:0:0:0:
256,192,124245,1,8,0:0:0:0:
256,192,124578,1,8,0:0:0:0:
256,192,124745,1,8,0:0:0:0:
256,192,124911,1,0,0:0:0:0:
256,192,125078,1,0,0:0:0:0:
256,192,125245,1,8,0:0:0:0:
256,192,125578,1,8,0:0:0:0:
256,192,125912,1,8,0:0:0:0:
256,192,126245,1,8,0:0:0:0:
256,192,126412,1,0,0:0:0:0:
256,192,126495,1,8,0:0:0:0:
256,192,126578,1,8,0:0:0:0:
256,192,126662,1,8,0:0:0:0:
256,192,126745,1,0,0:0:0:0:
256,192,126912,1,8,0:0:0:0:
256,192,127245,1,0,0:0:0:0:
256,192,127412,1,8,0:0:0:0:
256,192,127578,1,8,0:0:0:0:
256,192,127745,1,0,0:0:0:0:
256,192,127912,1,8,0:0:0:0:
256,192,128245,1,8,0:0:0:0:
256,192,128579,1,8,0:0:0:0:
256,192,128912,1,8,0:0:0:0:
256,192,129079,1,0,0:0:0:0:
256,192,129162,1,0,0:0:0:0:
256,192,129245,1,0,0:0:0:0:
256,192,129329,1,0,0:0:0:0:
256,192,129412,1,0,0:0:0:0:
256,192,129579,1,8,0:0:0:0:
256,192,129912,1,0,0:0:0:0:
256,192,130079,1,8,0:0:0:0:
256,192,130245,1,0,0:0:0:0:
256,192,130412,1,0,0:0:0:0:
256,192,130579,1,8,0:0:0:0:
256,192,130912,1,8,0:0:0:0:
256,192,131246,1,8,0:0:0:0:
256,192,131579,1,8,0:0:0:0:
256,192,131746,1,0,0:0:0:0:
256,192,131829,1,0,0:0:0:0:
256,192,131912,1,8,0:0:0:0:
256,192,131996,1,0,0:0:0:0:
256,192,132079,1,0,0:0:0:0:
256,192,132246,1,8,0:0:0:0:
256,192,132579,1,0,0:0:0:0:
256,192,132746,1,0,0:0:0:0:
256,192,132912,1,8,0:0:0:0:
256,192,133079,1,0,0:0:0:0:
256,192,133246,1,8,0:0:0:0:
256,192,133578,1,8,0:0:0:0:
256,192,133912,1,8,0:0:0:0:
256,192,134245,1,8,0:0:0:0:
256,192,134412,1,0,0:0:0:0:
256,192,134495,1,0,0:0:0:0:
256,192,134578,1,8,0:0:0:0:
256,192,134662,1,8,0:0:0:0:
256,192,134745,1,0,0:0:0:0:
256,192,134912,1,8,0:0:0:0:
256,192,135245,1,8,0:0:0:0:
256,192,135412,1,8,0:0:0:0:
256,192,135578,1,0,0:0:0:0:
256,192,135745,1,0,0:0:0:0:
256,192,135912,1,8,0:0:0:0:
256,192,136245,1,8,0:0:0:0:
256,192,136579,1,8,0:0:0:0:
256,192,136912,1,8,0:0:0:0:
256,192,137079,1,0,0:0:0:0:
256,192,137162,1,8,0:0:0:0:
256,192,137245,1,8,0:0:0:0:
256,192,137329,1,8,0:0:0:0:
256,192,137412,1,0,0:0:0:0:
256,192,137579,1,8,0:0:0:0:
256,192,137745,1,8,0:0:0:0:
