osu file format v14

[General]
AudioFilename: audio.ogg
AudioLeadIn: 0
PreviewTime: 52526
Countdown: 0
SampleSet: Soft
StackLeniency: 0.7
Mode: 3
LetterboxInBreaks: 0
SpecialStyle: 0
WidescreenStoryboard: 0

[Editor]
Bookmarks: 4193,15193,25860,36526,47193,52526,63193,73860,84526,95193,105860,116526,127193,137693
DistanceSpacing: 0.4
BeatDivisor: 4
GridSize: 32
TimelineZoom: 1

[Metadata]
Title:RE Aoharu
TitleUnicode:RE Aoharu
Artist:Nor feat. Kohara Konomi
ArtistUnicode:Nor feat. 小原好美
Creator:cai_ji_ccc
Version:Hard
Source:ブルーアーカイブ -Blue Archive-
Tags:japanese AelSan Hidden is fun electronic instrumental nexon yostar video game Original Soundtrack Vol.3 ~Reaching for the precious time~ OST 59. Nor track_59 最終編 あまねく 奇跡の始発点編 final chapter amaneku remix track_34 prologue opening story プロローグ 4th PV ブルアカ promotional video version ver. ft. featuring
BeatmapID:4045170
BeatmapSetID:1953362

[Difficulty]
HPDrainRate:7.5
CircleSize:4
OverallDifficulty:7.5
ApproachRate:5
SliderMultiplier:1.4
SliderTickRate:1

[Events]
//Background and Video events
Video,-80,"4th PV.mp4"
0,0,"IMG_20230311_140118.jpg",0,0
//Break Periods
//Storyboard Layer 0 (Background)
//Storyboard Layer 1 (Fail)
//Storyboard Layer 2 (Pass)
//Storyboard Layer 3 (Foreground)
//Storyboard Layer 4 (Overlay)
//Storyboard Sound Samples
Sample,15693,0,"F#4.ogg",80
Sample,18360,0,"E4.ogg",80
Sample,21026,0,"D4.ogg",80
Sample,23193,0,"D4.ogg",80
Sample,23360,0,"E4.ogg",80
Sample,23693,0,"C#4D.ogg",50
Sample,23693,0,"C#5.ogg",80
Sample,26026,0,"C#5.ogg",80
Sample,26360,0,"F#4.ogg",80
Sample,27193,0,"D4T.ogg",80
Sample,28693,0,"C#5.ogg",80
Sample,29026,0,"E4.ogg",80
Sample,29860,0,"D4T.ogg",80
Sample,31360,0,"C#5.ogg",80
Sample,31693,0,"D4.ogg",80
Sample,32526,0,"D4T.ogg",80
Sample,34026,0,"E4.ogg",80
Sample,34360,0,"C#5.ogg",80
Sample,35193,0,"D4T.ogg",80
Sample,37860,0,"D4T.ogg",80
Sample,40526,0,"D4T.ogg",80
Sample,44693,0,"snare.ogg",40
Sample,44693,0,"C#5.ogg",80
Sample,44860,0,"A4.ogg",80
Sample,45026,0,"snare.ogg",40
Sample,45026,0,"D4.ogg",80
Sample,45193,0,"D4T.ogg",80
Sample,45860,0,"don.ogg",70
Sample,45860,0,"D4T.ogg",80
Sample,46526,0,"E4T.ogg",80
Sample,46860,0,"A3T.ogg",80
Sample,53860,0,"A2_.ogg",80
Sample,55193,0,"F#2_.ogg",80
Sample,56526,0,"A2_.ogg",80
Sample,57860,0,"G2_.ogg",80
Sample,59193,0,"A2_.ogg",80
Sample,60526,0,"F#2_.ogg",80
Sample,61860,0,"A2_.ogg",80
Sample,62860,0,"E4.ogg",45
Sample,65026,0,"D4.ogg",70
Sample,67693,0,"D4.ogg",70
Sample,68193,0,"A3.ogg",70
Sample,70360,0,"D4.ogg",70
Sample,93193,0,"A3T.ogg",80
Sample,94360,0,"A4.ogg",100
Sample,96526,0,"D5.ogg",100
Sample,99193,0,"D5.ogg",100
Sample,101860,0,"E5.ogg",100
Sample,104526,0,"D5.ogg",100
Sample,107193,0,"D5.ogg",100
Sample,109860,0,"D5.ogg",100
Sample,115193,0,"D5.ogg",100
Sample,115526,0,"snare.ogg",40
Sample,116693,0,"C#5.ogg",80
Sample,116860,0,"A4.ogg",80
Sample,117026,0,"F#4.ogg",80
Sample,119360,0,"C#5.ogg",80
Sample,119526,0,"A4.ogg",80
Sample,119693,0,"E4.ogg",80
Sample,122026,0,"C#5.ogg",80
Sample,122193,0,"A4.ogg",80
Sample,122360,0,"D4.ogg",80
Sample,124693,0,"E4.ogg",80
Sample,124860,0,"A4.ogg",80
Sample,125026,0,"C#5.ogg",80
Sample,127360,0,"C#5.ogg",80
Sample,127526,0,"A4.ogg",80
Sample,127693,0,"F#4.ogg",80
Sample,130026,0,"C#5.ogg",80
Sample,130193,0,"A4.ogg",80
Sample,130360,0,"E4.ogg",80
Sample,132693,0,"C#5.ogg",80
Sample,132860,0,"A4.ogg",80
Sample,133026,0,"D4.ogg",80
Sample,135360,0,"E4.ogg",80
Sample,135526,0,"A4.ogg",80
Sample,135693,0,"C#5.ogg",80

[TimingPoints]
4527,333.333333333333,4,2,1,50,1,0
25860,-100,4,2,1,50,0,1
47193,-100,4,2,1,50,0,0
63193,-100,4,2,1,30,0,0
73860,-100,4,2,1,50,0,0
84526,-100,4,2,1,50,0,1
86860,-100,4,2,1,50,0,0
87193,-100,4,2,1,50,0,1
89526,-100,4,2,1,50,0,0
89860,-100,4,2,1,50,0,1
92193,-100,4,2,1,50,0,0
92526,-100,4,2,1,50,0,1
93860,-100,4,2,1,50,0,0
95193,-100,4,2,1,50,0,1
116526,-100,4,1,1,30,0,0

[HitObjects]
448,192,4193,5,0,0:0:0:25:snare.ogg
320,192,4276,1,0,0:0:0:30:snare.ogg
192,192,4360,1,0,0:0:0:35:snare.ogg
64,192,4443,1,0,0:0:0:40:snare.ogg
320,192,4526,1,12,0:0:0:0:
448,192,4526,1,0,0:0:0:80:D5.ogg
64,192,4860,1,8,0:0:0:0:
192,192,4860,1,0,0:0:0:80:A4.ogg
320,192,5026,1,2,0:0:0:0:
448,192,5026,1,0,0:0:0:80:F#4.ogg
64,192,5193,1,8,0:0:0:0:
192,192,5193,1,0,0:0:0:0:
64,192,5526,1,2,0:0:0:0:
320,192,5526,1,8,0:0:0:0:
448,192,5526,1,0,0:0:0:0:
320,192,5860,1,8,0:0:0:0:
448,192,5860,1,0,0:0:0:0:
64,192,6026,1,2,0:0:0:0:
192,192,6026,1,0,0:0:0:0:
320,192,6193,1,8,0:0:0:0:
448,192,6193,1,0,0:0:0:0:
64,192,6526,1,2,0:0:0:0:
192,192,6526,1,8,0:0:0:0:
448,192,6526,1,0,0:0:0:0:
64,192,6860,1,2,0:0:0:0:
320,192,6860,1,8,0:0:0:0:
192,192,6943,1,0,0:0:0:40:snare.ogg
448,192,7026,1,0,0:0:0:40:snare.ogg
320,192,7110,1,0,0:0:0:40:snare.ogg
64,192,7193,1,10,0:0:0:0:
192,192,7193,1,0,0:0:0:80:D5.ogg
320,192,7526,1,8,0:0:0:0:
448,192,7526,1,0,0:0:0:80:A4.ogg
64,192,7693,1,2,0:0:0:0:
192,192,7693,1,0,0:0:0:80:E4.ogg
320,192,7860,1,8,0:0:0:0:
448,192,7860,1,0,0:0:0:0:
64,192,8193,1,2,0:0:0:0:
192,192,8193,1,8,0:0:0:0:
448,192,8193,1,0,0:0:0:0:
64,192,8526,1,8,0:0:0:0:
192,192,8526,1,0,0:0:0:0:
320,192,8693,1,2,0:0:0:0:
448,192,8693,1,0,0:0:0:0:
64,192,8860,1,8,0:0:0:0:
192,192,8860,1,0,0:0:0:0:
192,192,9193,1,8,0:0:0:0:
448,192,9193,1,2,0:0:0:0:
64,192,9276,1,0,0:0:0:40:snare.ogg
320,192,9360,1,0,0:0:0:40:snare.ogg
192,192,9443,1,0,0:0:0:40:snare.ogg
448,192,9526,1,10,0:0:0:0:
320,192,9610,1,0,0:0:0:40:snare.ogg
64,192,9693,1,0,0:0:0:40:snare.ogg
192,192,9776,1,0,0:0:0:40:snare.ogg
320,192,9860,1,10,0:0:0:0:
448,192,9860,1,0,0:0:0:80:D5.ogg
64,192,10193,1,8,0:0:0:0:
192,192,10193,1,0,0:0:0:80:A4.ogg
320,192,10360,1,2,0:0:0:0:
448,192,10360,1,0,0:0:0:80:D4.ogg
64,192,10526,1,8,0:0:0:0:
192,192,10526,1,0,0:0:0:0:
64,192,10860,1,8,0:0:0:0:
320,192,10860,1,2,0:0:0:0:
448,192,10860,1,0,0:0:0:0:
320,192,11193,1,8,0:0:0:0:
448,192,11193,1,0,0:0:0:0:
64,192,11360,1,2,0:0:0:0:
192,192,11360,1,0,0:0:0:0:
320,192,11526,1,8,0:0:0:0:
448,192,11526,1,0,0:0:0:0:
64,192,11860,1,8,0:0:0:0:
192,192,11860,1,2,0:0:0:0:
448,192,11860,1,0,0:0:0:0:
64,192,12193,1,8,0:0:0:0:
320,192,12193,1,2,0:0:0:0:
448,192,12276,1,0,0:0:0:40:snare.ogg
192,192,12360,1,0,0:0:0:40:snare.ogg
320,192,12443,1,0,0:0:0:40:snare.ogg
64,192,12526,1,10,0:0:0:0:
448,192,12526,1,0,0:0:0:80:D4.ogg
192,192,12860,1,8,0:0:0:0:
320,192,12860,1,0,0:0:0:80:A4.ogg
64,192,13026,1,2,0:0:0:0:
448,192,13026,1,0,0:0:0:80:C#5.ogg
192,192,13193,1,8,0:0:0:0:
320,192,13193,1,0,0:0:0:0:
64,192,13526,1,8,0:0:0:0:
192,192,13526,1,2,0:0:0:0:
448,192,13526,1,0,0:0:0:0:
64,192,13860,1,8,0:0:0:0:
448,192,13860,1,0,0:0:0:0:
192,192,14026,1,2,0:0:0:0:
320,192,14026,1,0,0:0:0:0:
64,192,14193,1,8,0:0:0:0:
448,192,14193,1,0,0:0:0:0:
64,192,14526,1,8,0:0:0:0:
320,192,14526,1,2,0:0:0:0:
448,192,14526,1,0,0:0:0:0:
64,192,14860,1,8,0:0:0:0:
192,192,14860,1,2,0:0:0:0:
448,192,14860,1,0,0:0:0:0:
320,192,15026,1,0,0:0:0:40:snare.ogg
192,192,15110,1,0,0:0:0:40:snare.ogg
64,192,15193,1,2,0:0:0:0:
320,192,15193,1,8,0:0:0:0:
448,192,15193,128,0,15360:0:0:0:80:D5.ogg
192,192,15360,128,0,15526:0:0:0:80:C#5.ogg
320,192,15526,128,8,15693:0:0:0:0:
448,192,15526,1,0,0:0:0:80:A4.ogg
64,192,15693,128,2,15860:0:0:0:0:
320,192,15860,1,8,0:0:0:0:
448,192,15860,1,0,0:0:0:0:
192,192,16026,1,0,0:0:0:0:
64,192,16193,1,2,0:0:0:0:
448,192,16193,1,8,0:0:0:0:
320,192,16360,1,0,0:0:0:0:
64,192,16526,1,8,0:0:0:0:
192,192,16526,1,0,0:0:0:0:
320,192,16693,1,2,0:0:0:0:
448,192,16693,1,0,0:0:0:0:
64,192,16860,1,8,0:0:0:0:
192,192,16860,1,0,0:0:0:0:
448,192,17026,1,0,0:0:0:0:
64,192,17193,1,2,0:0:0:0:
320,192,17193,1,8,0:0:0:0:
192,192,17360,1,0,0:0:0:0:
320,192,17526,1,8,0:0:0:0:
448,192,17526,1,2,0:0:0:0:
192,192,17693,1,0,0:0:0:40:snare.ogg
320,192,17776,1,0,0:0:0:40:snare.ogg
64,192,17860,128,10,18026:0:0:0:0:
448,192,17860,1,0,0:0:0:80:D5.ogg
192,192,18026,128,0,18193:0:0:0:80:C#5.ogg
64,192,18193,1,8,0:0:0:0:
320,192,18193,128,0,18360:0:0:0:80:A4.ogg
448,192,18360,128,2,18526:0:0:0:0:
64,192,18526,1,8,0:0:0:0:
320,192,18526,1,0,0:0:0:0:
192,192,18693,1,0,0:0:0:0:
320,192,18860,1,2,0:0:0:0:
448,192,18860,1,8,0:0:0:0:
192,192,19026,1,0,0:0:0:0:
64,192,19193,1,8,0:0:0:0:
448,192,19193,1,0,0:0:0:0:
192,192,19360,1,2,0:0:0:0:
320,192,19360,1,0,0:0:0:0:
64,192,19526,1,8,0:0:0:0:
448,192,19526,1,0,0:0:0:0:
320,192,19693,1,0,0:0:0:0:
64,192,19860,1,8,0:0:0:0:
192,192,19860,1,2,0:0:0:0:
448,192,19943,1,0,0:0:0:40:snare.ogg
320,192,20026,1,0,0:0:0:40:snare.ogg
64,192,20110,1,0,0:0:0:40:snare.ogg
192,192,20193,1,10,0:0:0:0:
448,192,20276,1,0,0:0:0:40:snare.ogg
320,192,20360,1,0,0:0:0:40:snare.ogg
64,192,20443,1,0,0:0:0:40:snare.ogg
192,192,20526,1,10,0:0:0:0:
448,192,20526,128,0,20693:0:0:0:80:D5.ogg
320,192,20693,128,0,20860:0:0:0:80:C#5.ogg
64,192,20860,128,8,21026:0:0:0:0:
448,192,20860,1,0,0:0:0:80:A4.ogg
192,192,21026,128,2,21193:0:0:0:0:
64,192,21193,1,8,0:0:0:0:
448,192,21193,1,0,0:0:0:0:
320,192,21360,1,0,0:0:0:0:
64,192,21526,1,8,0:0:0:0:
192,192,21526,1,2,0:0:0:0:
448,192,21693,1,0,0:0:0:0:
192,192,21860,1,8,0:0:0:0:
320,192,21860,1,0,0:0:0:0:
64,192,22026,1,2,0:0:0:0:
448,192,22026,1,0,0:0:0:0:
192,192,22193,1,8,0:0:0:0:
320,192,22193,1,0,0:0:0:0:
64,192,22360,1,0,0:0:0:0:
320,192,22526,1,2,0:0:0:0:
448,192,22526,1,8,0:0:0:0:
192,192,22693,1,0,0:0:0:0:
64,192,22860,1,2,0:0:0:0:
448,192,22860,1,8,0:0:0:0:
320,192,22943,1,0,0:0:0:40:snare.ogg
192,192,23026,1,0,0:0:0:40:snare.ogg
448,192,23110,1,0,0:0:0:40:snare.ogg
64,192,23193,1,2,0:0:0:0:
320,192,23193,1,0,0:0:0:50:A#3D.ogg
64,192,23360,1,0,0:0:0:50:B3D.ogg
192,192,23526,1,0,0:0:0:50:C4D.ogg
448,192,23526,1,0,0:0:0:80:A4.ogg
448,192,23693,1,2,0:0:0:0:
64,192,23860,1,0,0:0:0:50:D4D.ogg
192,192,23860,1,0,0:0:0:0:
192,192,24026,1,0,0:0:0:50:D#4D.ogg
320,192,24193,1,2,0:0:0:0:
448,192,24193,1,0,0:0:0:50:E4D.ogg
320,192,24360,1,0,0:0:0:50:F4D.ogg
64,192,24526,1,8,0:0:0:0:
192,192,24526,1,0,0:0:0:0:
448,192,24693,1,0,0:0:0:0:
64,192,24860,1,2,0:0:0:0:
320,192,24860,1,8,0:0:0:0:
192,192,25026,1,8,0:0:0:0:
320,192,25193,1,8,0:0:0:0:
448,192,25193,1,0,0:0:0:0:
64,192,25360,1,2,0:0:0:0:
192,192,25360,1,8,0:0:0:0:
320,192,25526,1,8,0:0:0:0:
448,192,25526,1,0,0:0:0:0:
192,192,25610,1,0,0:0:0:40:snare.ogg
64,192,25693,1,0,0:0:0:40:snare.ogg
448,192,25776,1,0,0:0:0:40:snare.ogg
64,192,25860,1,4,0:0:0:0:
192,192,25860,1,8,0:0:0:0:
320,192,25860,1,0,0:0:0:80:D5.ogg
320,192,26026,1,0,0:0:0:40:snare.ogg
64,192,26193,1,10,0:0:0:0:
448,192,26193,1,0,0:0:0:80:A4.ogg
64,192,26360,1,2,0:0:0:0:
192,192,26526,1,8,0:0:0:0:
448,192,26526,1,0,0:0:0:80:D4T.ogg
448,192,26693,1,2,0:0:0:0:
64,192,26860,1,2,0:0:0:0:
320,192,26860,1,8,0:0:0:0:
64,192,27026,1,0,0:0:0:40:snare.ogg
320,192,27193,1,8,0:0:0:0:
448,192,27193,1,0,0:0:0:70:don.ogg
64,192,27360,1,0,0:0:0:40:snare.ogg
192,192,27360,1,0,0:0:0:0:
320,192,27526,1,8,0:0:0:0:
448,192,27526,1,0,0:0:0:0:
448,192,27693,1,2,0:0:0:0:
64,192,27860,1,8,0:0:0:0:
192,192,27860,1,0,0:0:0:80:D4T.ogg
64,192,28026,1,0,0:0:0:40:snare.ogg
192,192,28193,1,8,0:0:0:0:
448,192,28193,1,2,0:0:0:0:
320,192,28360,1,0,0:0:0:40:snare.ogg
192,192,28443,1,0,0:0:0:40:snare.ogg
64,192,28526,1,4,0:0:0:0:
320,192,28526,1,8,0:0:0:0:
448,192,28526,1,0,0:0:0:80:D5.ogg
448,192,28693,1,0,0:0:0:40:snare.ogg
64,192,28860,1,10,0:0:0:0:
192,192,28860,1,0,0:0:0:80:A4.ogg
64,192,29026,1,2,0:0:0:0:
320,192,29193,1,8,0:0:0:0:
448,192,29193,1,0,0:0:0:80:D4T.ogg
320,192,29360,1,2,0:0:0:0:
64,192,29526,1,2,0:0:0:0:
192,192,29526,1,8,0:0:0:0:
192,192,29693,1,0,0:0:0:40:snare.ogg
320,192,29860,1,8,0:0:0:0:
448,192,29860,1,0,0:0:0:70:don.ogg
64,192,30026,1,0,0:0:0:40:snare.ogg
192,192,30026,1,0,0:0:0:0:
320,192,30193,1,8,0:0:0:0:
448,192,30193,1,0,0:0:0:0:
448,192,30360,1,2,0:0:0:0:
64,192,30526,1,8,0:0:0:0:
192,192,30526,1,0,0:0:0:80:E4T.ogg
320,192,30693,1,0,0:0:0:40:snare.ogg
192,192,30776,1,0,0:0:0:40:snare.ogg
64,192,30860,1,2,0:0:0:0:
448,192,30860,1,8,0:0:0:0:
192,192,31026,1,0,0:0:0:40:snare.ogg
320,192,31110,1,0,0:0:0:40:snare.ogg
64,192,31193,1,8,0:0:0:0:
192,192,31193,1,4,0:0:0:0:
448,192,31193,1,0,0:0:0:80:D5.ogg
64,192,31360,1,0,0:0:0:40:snare.ogg
320,192,31526,1,10,0:0:0:0:
448,192,31526,1,0,0:0:0:80:A4.ogg
448,192,31693,1,2,0:0:0:0:
64,192,31860,1,8,0:0:0:0:
192,192,31860,1,0,0:0:0:80:D4T.ogg
192,192,32026,1,2,0:0:0:0:
320,192,32193,1,8,0:0:0:0:
448,192,32193,1,2,0:0:0:0:
320,192,32360,1,0,0:0:0:40:snare.ogg
64,192,32526,1,8,0:0:0:0:
192,192,32526,1,0,0:0:0:70:don.ogg
320,192,32693,1,0,0:0:0:40:snare.ogg
448,192,32693,1,0,0:0:0:0:
64,192,32860,1,8,0:0:0:0:
192,192,32860,1,0,0:0:0:0:
64,192,33026,1,2,0:0:0:0:
320,192,33193,1,8,0:0:0:0:
448,192,33193,1,0,0:0:0:80:D4T.ogg
320,192,33360,1,0,0:0:0:40:snare.ogg
64,192,33526,1,8,0:0:0:0:
448,192,33526,1,2,0:0:0:0:
320,192,33693,1,0,0:0:0:40:snare.ogg
192,192,33776,1,0,0:0:0:40:snare.ogg
64,192,33860,1,8,0:0:0:0:
320,192,33860,1,4,0:0:0:0:
448,192,33860,1,0,0:0:0:80:D4.ogg
448,192,34026,1,0,0:0:0:40:snare.ogg
64,192,34193,1,10,0:0:0:0:
192,192,34193,1,0,0:0:0:80:A4.ogg
64,192,34360,1,2,0:0:0:0:
320,192,34526,1,8,0:0:0:0:
448,192,34526,1,0,0:0:0:80:D4T.ogg
320,192,34693,1,2,0:0:0:0:
64,192,34860,1,2,0:0:0:0:
192,192,34860,1,8,0:0:0:0:
192,192,35026,1,0,0:0:0:40:snare.ogg
320,192,35193,1,8,0:0:0:0:
448,192,35193,1,0,0:0:0:70:don.ogg
64,192,35360,1,0,0:0:0:40:snare.ogg
192,192,35360,1,0,0:0:0:0:
320,192,35526,1,8,0:0:0:0:
448,192,35526,1,0,0:0:0:0:
448,192,35693,1,2,0:0:0:0:
64,192,35860,1,8,0:0:0:0:
192,192,35860,1,0,0:0:0:80:E4T.ogg
64,192,36026,1,0,0:0:0:40:snare.ogg
320,192,36193,1,2,0:0:0:0:
448,192,36193,1,8,0:0:0:0:
192,192,36360,1,0,0:0:0:40:snare.ogg
320,192,36443,1,0,0:0:0:40:snare.ogg
64,192,36526,1,4,0:0:0:0:
192,192,36526,1,8,0:0:0:0:
448,192,36526,1,0,0:0:0:80:D5.ogg
320,192,36693,1,0,0:0:0:40:snare.ogg
448,192,36693,1,0,0:0:0:80:C#5.ogg
64,192,36860,1,10,0:0:0:0:
192,192,36860,1,0,0:0:0:80:A4.ogg
192,192,37026,1,2,0:0:0:0:
448,192,37026,1,0,0:0:0:80:F#4.ogg
320,192,37193,1,8,0:0:0:0:
448,192,37193,1,0,0:0:0:80:D4T.ogg
320,192,37360,1,2,0:0:0:0:
64,192,37526,1,2,0:0:0:0:
192,192,37526,1,8,0:0:0:0:
64,192,37693,1,0,0:0:0:40:snare.ogg
192,192,37860,1,8,0:0:0:0:
320,192,37860,1,0,0:0:0:70:don.ogg
320,192,38026,1,0,0:0:0:40:snare.ogg
448,192,38026,1,0,0:0:0:0:
64,192,38193,1,8,0:0:0:0:
192,192,38193,1,0,0:0:0:40:snare.ogg
192,192,38360,1,0,0:0:0:40:snare.ogg
320,192,38526,1,10,0:0:0:0:
448,192,38526,1,0,0:0:0:80:D4T.ogg
448,192,38693,1,0,0:0:0:40:snare.ogg
64,192,38860,1,2,0:0:0:0:
192,192,38860,1,8,0:0:0:0:
320,192,39026,1,0,0:0:0:40:snare.ogg
192,192,39110,1,0,0:0:0:40:snare.ogg
64,192,39193,1,4,0:0:0:0:
320,192,39193,1,8,0:0:0:0:
448,192,39193,1,0,0:0:0:80:D5.ogg
64,192,39360,1,0,0:0:0:40:snare.ogg
192,192,39360,1,0,0:0:0:80:C#5.ogg
320,192,39526,1,10,0:0:0:0:
448,192,39526,1,0,0:0:0:80:A4.ogg
64,192,39693,1,2,0:0:0:0:
448,192,39693,1,0,0:0:0:80:E4.ogg
64,192,39860,1,8,0:0:0:0:
192,192,39860,1,0,0:0:0:80:D4T.ogg
192,192,40026,1,2,0:0:0:0:
320,192,40193,1,8,0:0:0:0:
448,192,40193,1,2,0:0:0:0:
320,192,40360,1,0,0:0:0:40:snare.ogg
64,192,40526,1,8,0:0:0:0:
448,192,40526,1,0,0:0:0:70:don.ogg
64,192,40693,1,0,0:0:0:40:snare.ogg
192,192,40693,1,0,0:0:0:0:
320,192,40860,1,8,0:0:0:0:
448,192,40860,1,0,0:0:0:40:snare.ogg
448,192,41026,1,0,0:0:0:40:snare.ogg
64,192,41193,1,10,0:0:0:0:
192,192,41193,1,0,0:0:0:80:E4T.ogg
320,192,41360,1,0,0:0:0:40:snare.ogg
192,192,41443,1,0,0:0:0:40:snare.ogg
64,192,41526,1,2,0:0:0:0:
448,192,41526,1,8,0:0:0:0:
192,192,41693,1,0,0:0:0:40:snare.ogg
320,192,41776,1,0,0:0:0:40:snare.ogg
64,192,41860,1,8,0:0:0:0:
192,192,41860,1,4,0:0:0:0:
448,192,41860,1,0,0:0:0:80:D5.ogg
320,192,42026,1,0,0:0:0:40:snare.ogg
448,192,42026,1,0,0:0:0:80:C#5.ogg
64,192,42193,1,10,0:0:0:0:
192,192,42193,1,0,0:0:0:80:A4.ogg
192,192,42360,1,2,0:0:0:0:
448,192,42360,1,0,0:0:0:80:D4.ogg
320,192,42526,1,8,0:0:0:0:
448,192,42526,1,0,0:0:0:80:D4T.ogg
320,192,42693,1,2,0:0:0:0:
64,192,42860,1,8,0:0:0:0:
192,192,42860,1,2,0:0:0:0:
64,192,43026,1,0,0:0:0:40:snare.ogg
192,192,43193,1,12,0:0:0:0:
320,192,43193,1,0,0:0:0:70:don.ogg
448,192,43193,1,0,0:0:0:80:D4T.ogg
320,192,43360,1,0,0:0:0:40:snare.ogg
448,192,43360,1,0,0:0:0:0:
64,192,43526,1,8,0:0:0:0:
192,192,43526,1,0,0:0:0:40:snare.ogg
192,192,43693,1,0,0:0:0:40:snare.ogg
320,192,43860,1,10,0:0:0:0:
448,192,43860,1,0,0:0:0:80:D4T.ogg
448,192,44026,1,0,0:0:0:40:snare.ogg
64,192,44193,1,8,0:0:0:0:
192,192,44193,1,2,0:0:0:0:
320,192,44360,1,0,0:0:0:40:snare.ogg
192,192,44443,1,0,0:0:0:40:snare.ogg
64,192,44526,1,14,0:0:0:0:
448,192,44526,1,0,0:0:0:50:A#3D.ogg
320,192,44526,1,0,0:0:0:80:D5.ogg
448,192,44693,1,0,0:0:0:50:B3D.ogg
192,192,44860,1,10,0:0:0:0:
64,192,44860,1,0,0:0:0:50:C4D.ogg
64,192,45026,1,0,0:0:0:50:C#4D.ogg
320,192,45193,1,8,0:0:0:0:
448,192,45193,1,0,0:0:0:50:D4D.ogg
320,192,45360,1,0,0:0:0:50:D#4D.ogg
192,192,45526,1,8,0:0:0:0:
64,192,45526,1,0,0:0:0:50:E4D.ogg
192,192,45693,1,0,0:0:0:50:F4D.ogg
448,192,45860,1,0,0:0:0:50:F4D.ogg
320,192,45943,1,0,0:0:0:50:F#4D.ogg
64,192,46026,1,0,0:0:0:50:G4D.ogg
192,192,46110,1,0,0:0:0:50:G#4D.ogg
448,192,46193,1,0,0:0:0:50:A4D.ogg
320,192,46276,1,0,0:0:0:50:A#4D.ogg
64,192,46360,1,0,0:0:0:50:B4D.ogg
192,192,46443,1,0,0:0:0:50:C5D.ogg
448,192,46526,1,0,0:0:0:50:C#5D.ogg
320,192,46610,1,0,0:0:0:50:D5D.ogg
192,192,46693,1,0,0:0:0:50:D#5D.ogg
448,192,46776,1,0,0:0:0:50:E5D.ogg
320,192,46860,1,0,0:0:0:50:F5D.ogg
64,192,46943,1,0,0:0:0:50:F#5D.ogg
192,192,47026,1,0,0:0:0:50:G5D.ogg
320,192,47110,1,0,0:0:0:50:G#5D.ogg
64,192,47193,1,4,0:0:0:0:
192,192,47193,1,0,0:0:0:100:A5.ogg
448,192,49193,128,0,52526:0:0:0:0:
64,192,52526,128,0,53026:0:0:0:100:C#3S.ogg
192,192,52526,1,0,0:0:0:80:G2_.ogg
448,192,53026,128,0,53526:0:0:0:100:D3S.ogg
192,192,53526,128,0,53860:0:0:0:100:A3S.ogg
320,192,53860,128,0,54360:0:0:0:100:C#3S.ogg
64,192,54360,128,0,54860:0:0:0:100:D3S.ogg
192,192,54860,128,0,55193:0:0:0:100:A2S.ogg
448,192,55193,128,0,55693:0:0:0:100:C#3S.ogg
64,192,55693,128,0,56193:0:0:0:100:D3S.ogg
320,192,56193,128,0,56526:0:0:0:100:A3S.ogg
192,192,56526,128,0,57026:0:0:0:100:E3S.ogg
448,192,57026,128,0,57526:0:0:0:100:D3S.ogg
320,192,57526,128,0,57860:0:0:0:100:A2S.ogg
64,192,57860,128,0,58360:0:0:0:100:C#3S.ogg
448,192,58360,128,0,58860:0:0:0:100:D3S.ogg
192,192,58860,128,0,59193:0:0:0:100:A3S.ogg
320,192,59193,128,0,59693:0:0:0:100:C#3S.ogg
64,192,59693,128,0,60193:0:0:0:100:D3S.ogg
192,192,60193,128,0,60526:0:0:0:100:A2S.ogg
448,192,60526,128,0,61026:0:0:0:100:C#3S.ogg
64,192,61026,128,0,61526:0:0:0:100:D3S.ogg
320,192,61526,128,0,61860:0:0:0:100:A3S.ogg
192,192,61860,128,0,62360:0:0:0:45:C#4.ogg
448,192,62360,128,0,62860:0:0:0:45:A4.ogg
64,192,62860,1,0,0:0:0:20:snare.ogg
192,192,62943,1,0,0:0:0:20:snare.ogg
448,192,63026,1,0,0:0:0:20:snare.ogg
320,192,63110,1,0,0:0:0:20:snare.ogg
64,192,63193,128,6,64526:0:0:0:0:
192,192,63193,1,0,0:0:0:70:C#4.ogg
320,192,63693,1,2,0:0:0:0:
448,192,63693,1,0,0:0:0:70:D4.ogg
192,192,64193,1,2,0:0:0:0:
320,192,64193,1,0,0:0:0:70:A4.ogg
320,192,64526,1,0,0:0:0:30:snare.ogg
448,192,64526,128,0,65860:0:0:0:70:C#4.ogg
64,192,64693,1,2,0:0:0:0:
192,192,64693,1,0,0:0:0:0:
320,192,65026,1,0,0:0:0:30:snare.ogg
64,192,65193,1,2,0:0:0:0:
192,192,65193,1,0,0:0:0:0:
64,192,65526,1,2,0:0:0:0:
320,192,65526,1,0,0:0:0:70:A3.ogg
192,192,65693,1,0,0:0:0:30:snare.ogg
320,192,65776,1,2,0:0:0:0:
64,192,65860,1,2,0:0:0:0:
192,192,65860,128,0,67193:0:0:0:70:C#4.ogg
320,192,66360,1,2,0:0:0:0:
448,192,66360,1,0,0:0:0:70:D4.ogg
64,192,66860,1,2,0:0:0:0:
448,192,66860,1,0,0:0:0:70:A4.ogg
320,192,67193,128,0,68526:0:0:0:30:snare.ogg
448,192,67193,1,0,0:0:0:70:E4.ogg
64,192,67360,1,2,0:0:0:0:
192,192,67360,1,0,0:0:0:0:
448,192,67693,1,0,0:0:0:30:snare.ogg
192,192,67860,1,2,0:0:0:0:
64,192,67943,1,0,0:0:0:30:snare.ogg
448,192,68026,1,0,0:0:0:30:snare.ogg
192,192,68110,1,0,0:0:0:30:snare.ogg
64,192,68193,1,2,0:0:0:0:
448,192,68360,1,0,0:0:0:30:snare.ogg
192,192,68443,1,0,0:0:0:30:snare.ogg
64,192,68526,128,2,69860:0:0:0:0:
448,192,68526,1,0,0:0:0:70:C#4.ogg
320,192,69026,1,2,0:0:0:0:
448,192,69026,1,0,0:0:0:70:D4.ogg
192,192,69526,1,2,0:0:0:0:
448,192,69526,1,0,0:0:0:70:A4.ogg
320,192,69860,1,0,0:0:0:30:snare.ogg
448,192,69860,128,0,71193:0:0:0:70:C#4.ogg
64,192,70026,1,2,0:0:0:0:
192,192,70026,1,0,0:0:0:0:
320,192,70360,1,0,0:0:0:30:snare.ogg
64,192,70526,1,2,0:0:0:0:
192,192,70526,1,0,0:0:0:0:
64,192,70860,1,2,0:0:0:0:
320,192,70860,1,0,0:0:0:70:A3.ogg
192,192,71026,1,0,0:0:0:30:snare.ogg
64,192,71110,1,2,0:0:0:0:
192,192,71193,1,2,0:0:0:0:
320,192,71193,128,0,72526:0:0:0:70:C#4.ogg
192,192,71693,1,2,0:0:0:0:
448,192,71693,1,0,0:0:0:70:D4.ogg
64,192,72193,1,2,0:0:0:0:
448,192,72193,1,0,0:0:0:70:A3.ogg
64,192,72526,1,0,0:0:0:30:snare.ogg
192,192,72526,1,0,0:0:0:100:D5M.ogg
448,192,72693,1,2,0:0:0:0:
320,192,73026,1,0,0:0:0:30:snare.ogg
448,192,73026,1,0,0:0:0:100:A4M.ogg
64,192,73193,1,2,0:0:0:0:
64,192,73526,1,2,0:0:0:0:
192,192,73526,1,0,0:0:0:100:A5M.ogg
320,192,73693,1,0,0:0:0:30:snare.ogg
192,192,73776,1,0,0:0:0:30:snare.ogg
64,192,73860,1,14,0:0:0:0:
448,192,73860,1,0,0:0:0:100:D5M.ogg
320,192,74026,1,0,0:0:0:0:
64,192,74193,1,8,0:0:0:0:
192,192,74193,1,0,0:0:0:0:
320,192,74360,1,2,0:0:0:0:
448,192,74360,1,0,0:0:0:0:
64,192,74526,1,8,0:0:0:0:
192,192,74526,1,0,0:0:0:80:D4T.ogg
448,192,74693,1,0,0:0:0:0:
192,192,74860,1,2,0:0:0:0:
320,192,74860,1,8,0:0:0:0:
64,192,75026,1,0,0:0:0:0:
320,192,75193,1,8,0:0:0:0:
448,192,75193,1,0,0:0:0:100:D5M.ogg
64,192,75360,1,2,0:0:0:0:
192,192,75360,1,0,0:0:0:0:
448,192,75526,1,8,0:0:0:0:
192,192,75693,1,0,0:0:0:100:A4M.ogg
320,192,75693,1,0,0:0:0:0:
64,192,75860,1,2,0:0:0:0:
448,192,75860,1,8,0:0:0:0:
320,192,76026,1,0,0:0:0:0:
64,192,76193,1,10,0:0:0:0:
448,192,76193,1,0,0:0:0:100:A5M.ogg
192,192,76360,1,0,0:0:0:40:snare.ogg
320,192,76443,1,0,0:0:0:40:snare.ogg
64,192,76526,1,4,0:0:0:0:
192,192,76526,1,8,0:0:0:0:
448,192,76526,1,0,0:0:0:100:D5M.ogg
320,192,76693,1,0,0:0:0:0:
64,192,76860,1,8,0:0:0:0:
448,192,76860,1,0,0:0:0:0:
192,192,77026,1,2,0:0:0:0:
320,192,77026,1,0,0:0:0:0:
64,192,77193,1,8,0:0:0:0:
448,192,77193,1,0,0:0:0:80:D4T.ogg
192,192,77360,1,0,0:0:0:0:
320,192,77526,1,8,0:0:0:0:
448,192,77526,1,2,0:0:0:0:
64,192,77693,1,0,0:0:0:0:
192,192,77860,1,8,0:0:0:0:
320,192,77860,1,0,0:0:0:100:D5M.ogg
64,192,78026,1,2,0:0:0:0:
448,192,78026,1,0,0:0:0:0:
192,192,78193,1,8,0:0:0:0:
320,192,78360,1,0,0:0:0:100:A4M.ogg
448,192,78360,1,0,0:0:0:0:
64,192,78526,1,2,0:0:0:0:
192,192,78526,1,8,0:0:0:0:
448,192,78610,1,0,0:0:0:40:snare.ogg
320,192,78693,1,0,0:0:0:40:snare.ogg
192,192,78776,1,0,0:0:0:40:snare.ogg
64,192,78860,1,10,0:0:0:0:
448,192,78860,1,0,0:0:0:100:A5M.ogg
320,192,79026,1,0,0:0:0:40:snare.ogg
192,192,79110,1,0,0:0:0:40:snare.ogg
64,192,79193,1,4,0:0:0:0:
320,192,79193,1,8,0:0:0:0:
448,192,79193,1,0,0:0:0:100:E5M.ogg
192,192,79360,1,0,0:0:0:0:
320,192,79526,1,8,0:0:0:0:
448,192,79526,1,0,0:0:0:0:
64,192,79693,1,2,0:0:0:0:
192,192,79693,1,0,0:0:0:0:
320,192,79860,1,8,0:0:0:0:
448,192,79860,1,0,0:0:0:80:E4T.ogg
64,192,80026,1,0,0:0:0:0:
192,192,80193,1,8,0:0:0:0:
448,192,80193,1,2,0:0:0:0:
320,192,80360,1,0,0:0:0:0:
64,192,80526,1,8,0:0:0:0:
192,192,80526,1,0,0:0:0:100:E5M.ogg
320,192,80693,1,2,0:0:0:0:
448,192,80693,1,0,0:0:0:0:
64,192,80860,1,8,0:0:0:0:
192,192,81026,1,0,0:0:0:100:F#5M.ogg
320,192,81026,1,0,0:0:0:0:
64,192,81193,1,8,0:0:0:0:
448,192,81193,1,2,0:0:0:0:
320,192,81360,1,0,0:0:0:0:
64,192,81526,1,10,0:0:0:0:
192,192,81526,1,0,0:0:0:100:D5M.ogg
448,192,81693,1,0,0:0:0:40:snare.ogg
320,192,81776,1,0,0:0:0:40:snare.ogg
64,192,81860,1,4,0:0:0:0:
192,192,81860,1,8,0:0:0:0:
448,192,81860,1,0,0:0:0:100:A4M.ogg
320,192,82026,1,0,0:0:0:0:
64,192,82193,1,8,0:0:0:0:
192,192,82193,1,0,0:0:0:0:
320,192,82360,1,2,0:0:0:0:
448,192,82360,1,0,0:0:0:0:
64,192,82526,1,8,0:0:0:0:
192,192,82526,1,0,0:0:0:80:A3T.ogg
448,192,82693,1,0,0:0:0:0:
64,192,82860,1,2,0:0:0:0:
320,192,82860,1,8,0:0:0:0:
192,192,83026,1,0,0:0:0:0:
320,192,83193,1,8,0:0:0:0:
448,192,83193,1,0,0:0:0:100:D5M.ogg
64,192,83360,1,2,0:0:0:0:
192,192,83360,1,0,0:0:0:0:
448,192,83526,1,8,0:0:0:0:
192,192,83693,1,0,0:0:0:100:A4M.ogg
320,192,83693,1,0,0:0:0:0:
64,192,83860,1,8,0:0:0:0:
448,192,83860,1,2,0:0:0:0:
192,192,84026,1,0,0:0:0:0:
320,192,84193,1,10,0:0:0:0:
448,192,84193,1,0,0:0:0:100:A5M.ogg
64,192,84360,1,0,0:0:0:40:snare.ogg
192,192,84443,1,0,0:0:0:40:snare.ogg
64,192,84526,1,4,0:0:0:0:
320,192,84526,1,8,0:0:0:0:
448,192,84526,1,0,0:0:0:100:D5M.ogg
448,192,84693,1,0,0:0:0:40:snare.ogg
64,192,84860,1,8,0:0:0:0:
192,192,84860,1,0,0:0:0:0:
192,192,85026,1,0,0:0:0:40:snare.ogg
64,192,85193,1,8,0:0:0:0:
448,192,85193,1,0,0:0:0:80:D4T.ogg
448,192,85360,1,0,0:0:0:40:snare.ogg
64,192,85526,1,8,0:0:0:0:
320,192,85526,1,0,0:0:0:0:
64,192,85693,1,0,0:0:0:40:snare.ogg
192,192,85860,1,8,0:0:0:0:
320,192,85860,1,0,0:0:0:100:D5M.ogg
448,192,85860,1,0,0:0:0:0:
320,192,86026,1,0,0:0:0:40:snare.ogg
64,192,86193,1,8,0:0:0:0:
448,192,86193,1,0,0:0:0:0:
64,192,86360,1,0,0:0:0:40:snare.ogg
192,192,86360,1,0,0:0:0:100:A4M.ogg
320,192,86526,1,8,0:0:0:0:
448,192,86526,1,0,0:0:0:0:
448,192,86693,1,0,0:0:0:40:snare.ogg
64,192,86860,1,8,0:0:0:0:
192,192,86860,1,0,0:0:0:100:A5M.ogg
320,192,86860,1,0,0:0:0:0:
192,192,87026,1,0,0:0:0:40:snare.ogg
64,192,87193,1,8,0:0:0:0:
320,192,87193,1,4,0:0:0:0:
448,192,87193,1,0,0:0:0:100:D5M.ogg
448,192,87360,1,0,0:0:0:40:snare.ogg
64,192,87443,1,0,0:0:0:40:snare.ogg
192,192,87526,1,8,0:0:0:0:
320,192,87526,1,0,0:0:0:0:
320,192,87693,1,0,0:0:0:40:snare.ogg
64,192,87860,1,8,0:0:0:0:
192,192,87860,1,0,0:0:0:80:D4T.ogg
64,192,88026,1,0,0:0:0:40:snare.ogg
192,192,88193,1,8,0:0:0:0:
448,192,88193,1,0,0:0:0:0:
448,192,88360,1,0,0:0:0:40:snare.ogg
64,192,88526,1,8,0:0:0:0:
192,192,88526,1,0,0:0:0:100:D5M.ogg
320,192,88526,1,0,0:0:0:0:
320,192,88693,1,0,0:0:0:40:snare.ogg
64,192,88860,1,8,0:0:0:0:
448,192,88860,1,0,0:0:0:0:
320,192,89026,1,0,0:0:0:40:snare.ogg
448,192,89026,1,0,0:0:0:100:A4M.ogg
64,192,89193,1,8,0:0:0:0:
192,192,89193,1,0,0:0:0:0:
192,192,89360,1,0,0:0:0:40:snare.ogg
64,192,89526,1,8,0:0:0:0:
320,192,89526,1,0,0:0:0:100:A5M.ogg
448,192,89526,1,0,0:0:0:0:
448,192,89693,1,0,0:0:0:40:snare.ogg
64,192,89860,1,4,0:0:0:0:
192,192,89860,1,8,0:0:0:0:
320,192,89860,1,0,0:0:0:100:E5M.ogg
64,192,90026,1,0,0:0:0:0:
192,192,90193,1,8,0:0:0:0:
448,192,90193,1,0,0:0:0:0:
448,192,90360,1,0,0:0:0:40:snare.ogg
192,192,90526,1,8,0:0:0:0:
320,192,90526,1,0,0:0:0:80:E4T.ogg
192,192,90693,1,0,0:0:0:40:snare.ogg
64,192,90860,1,8,0:0:0:0:
320,192,90860,1,0,0:0:0:0:
320,192,91026,1,0,0:0:0:40:snare.ogg
64,192,91193,1,8,0:0:0:0:
192,192,91193,1,0,0:0:0:100:E5M.ogg
448,192,91193,1,0,0:0:0:0:
64,192,91360,1,0,0:0:0:40:snare.ogg
192,192,91526,1,8,0:0:0:0:
448,192,91526,1,0,0:0:0:0:
320,192,91693,1,0,0:0:0:40:snare.ogg
448,192,91693,1,0,0:0:0:100:F#5M.ogg
64,192,91860,1,8,0:0:0:0:
192,192,91860,1,0,0:0:0:0:
192,192,92026,1,0,0:0:0:40:snare.ogg
64,192,92193,1,8,0:0:0:0:
320,192,92193,1,0,0:0:0:100:D5M.ogg
448,192,92193,1,0,0:0:0:0:
320,192,92360,1,0,0:0:0:40:snare.ogg
64,192,92526,1,12,0:0:0:0:
192,192,92526,1,0,0:0:0:50:A#3D.ogg
448,192,92526,1,0,0:0:0:100:A4M.ogg
192,192,92693,1,0,0:0:0:50:B3D.ogg
320,192,92860,1,8,0:0:0:0:
448,192,92860,1,0,0:0:0:50:C4D.ogg
448,192,93026,1,0,0:0:0:50:C#4D.ogg
64,192,93193,1,8,0:0:0:0:
192,192,93193,1,0,0:0:0:50:D4D.ogg
64,192,93360,1,0,0:0:0:50:D#4D.ogg
320,192,93526,1,8,0:0:0:0:
448,192,93526,1,0,0:0:0:50:E4D.ogg
320,192,93693,1,0,0:0:0:50:F4D.ogg
64,192,93860,1,8,0:0:0:0:
192,192,93860,1,0,0:0:0:100:D5.ogg
448,192,94026,1,0,0:0:0:40:snare.ogg
192,192,94193,1,8,0:0:0:0:
320,192,94193,1,2,0:0:0:0:
64,192,94360,1,0,0:0:0:40:snare.ogg
320,192,94526,1,8,0:0:0:0:
448,192,94526,1,0,0:0:0:0:
64,192,94693,1,2,0:0:0:0:
192,192,94693,1,0,0:0:0:0:
320,192,94860,1,10,0:0:0:0:
448,192,94860,1,0,0:0:0:100:A5.ogg
192,192,95026,1,0,0:0:0:40:snare.ogg
320,192,95110,1,0,0:0:0:40:snare.ogg
64,192,95193,1,4,0:0:0:0:
192,192,95193,1,8,0:0:0:0:
448,192,95193,1,0,0:0:0:100:D5.ogg
448,192,95360,1,0,0:0:0:40:snare.ogg
64,192,95526,1,8,0:0:0:0:
192,192,95526,1,2,0:0:0:0:
320,192,95693,1,2,0:0:0:0:
448,192,95693,1,0,0:0:0:0:
64,192,95860,1,8,0:0:0:0:
192,192,95860,1,0,0:0:0:80:D4T.ogg
64,192,96026,1,2,0:0:0:0:
448,192,96026,1,0,0:0:0:0:
320,192,96193,1,2,0:0:0:0:
448,192,96193,1,8,0:0:0:0:
192,192,96360,1,0,0:0:0:40:snare.ogg
64,192,96526,1,8,0:0:0:0:
448,192,96526,1,0,0:0:0:70:don.ogg
448,192,96693,1,0,0:0:0:40:snare.ogg
64,192,96860,1,8,0:0:0:0:
192,192,96860,1,0,0:0:0:0:
320,192,97026,1,2,0:0:0:0:
448,192,97026,1,0,0:0:0:100:A4.ogg
64,192,97193,1,8,0:0:0:0:
320,192,97193,1,0,0:0:0:0:
64,192,97360,1,0,0:0:0:40:snare.ogg
192,192,97526,1,10,0:0:0:0:
448,192,97526,1,0,0:0:0:100:A5.ogg
320,192,97693,1,0,0:0:0:40:snare.ogg
192,192,97776,1,0,0:0:0:40:snare.ogg
64,192,97860,1,4,0:0:0:0:
320,192,97860,1,8,0:0:0:0:
448,192,97860,1,0,0:0:0:100:D5.ogg
64,192,98026,1,0,0:0:0:40:snare.ogg
320,192,98193,1,8,0:0:0:0:
448,192,98193,1,2,0:0:0:0:
64,192,98360,1,2,0:0:0:0:
192,192,98360,1,0,0:0:0:0:
320,192,98526,1,8,0:0:0:0:
448,192,98526,1,0,0:0:0:80:D4T.ogg
64,192,98693,1,2,0:0:0:0:
448,192,98693,1,0,0:0:0:0:
64,192,98860,1,2,0:0:0:0:
192,192,98860,1,8,0:0:0:0:
320,192,99026,1,0,0:0:0:40:snare.ogg
64,192,99193,1,8,0:0:0:0:
448,192,99193,1,0,0:0:0:70:don.ogg
64,192,99360,1,0,0:0:0:40:snare.ogg
320,192,99526,1,8,0:0:0:0:
448,192,99526,1,0,0:0:0:0:
64,192,99693,1,2,0:0:0:0:
192,192,99693,1,0,0:0:0:100:A4.ogg
192,192,99860,1,8,0:0:0:0:
448,192,99860,1,0,0:0:0:0:
448,192,100026,1,0,0:0:0:40:snare.ogg
64,192,100193,1,10,0:0:0:0:
320,192,100193,1,0,0:0:0:100:A5.ogg
192,192,100360,1,0,0:0:0:40:snare.ogg
320,192,100443,1,0,0:0:0:40:snare.ogg
64,192,100526,1,8,0:0:0:0:
192,192,100526,1,4,0:0:0:0:
448,192,100526,1,0,0:0:0:100:E5.ogg
448,192,100693,1,0,0:0:0:40:snare.ogg
64,192,100860,1,2,0:0:0:0:
320,192,100860,1,8,0:0:0:0:
192,192,101026,1,2,0:0:0:0:
448,192,101026,1,0,0:0:0:0:
64,192,101193,1,8,0:0:0:0:
320,192,101193,1,0,0:0:0:80:D4T.ogg
64,192,101360,1,2,0:0:0:0:
192,192,101360,1,0,0:0:0:0:
320,192,101526,1,8,0:0:0:0:
448,192,101526,1,2,0:0:0:0:
192,192,101693,1,0,0:0:0:40:snare.ogg
64,192,101860,1,8,0:0:0:0:
448,192,101860,1,0,0:0:0:70:don.ogg
448,192,102026,1,0,0:0:0:40:snare.ogg
64,192,102193,1,8,0:0:0:0:
192,192,102193,1,0,0:0:0:0:
320,192,102360,1,2,0:0:0:0:
448,192,102360,1,0,0:0:0:100:F#5.ogg
64,192,102526,1,8,0:0:0:0:
320,192,102526,1,0,0:0:0:0:
64,192,102693,1,0,0:0:0:40:snare.ogg
192,192,102860,1,10,0:0:0:0:
448,192,102860,1,0,0:0:0:100:D5.ogg
320,192,103026,1,0,0:0:0:40:snare.ogg
192,192,103110,1,0,0:0:0:40:snare.ogg
64,192,103193,1,4,0:0:0:0:
320,192,103193,1,8,0:0:0:0:
448,192,103193,1,0,0:0:0:100:A4.ogg
64,192,103360,1,0,0:0:0:40:snare.ogg
192,192,103526,1,8,0:0:0:0:
448,192,103526,1,2,0:0:0:0:
64,192,103693,1,2,0:0:0:0:
320,192,103693,1,0,0:0:0:0:
192,192,103860,1,8,0:0:0:0:
448,192,103860,1,0,0:0:0:80:D4T.ogg
320,192,104026,1,2,0:0:0:0:
448,192,104026,1,0,0:0:0:0:
64,192,104193,1,2,0:0:0:0:
192,192,104193,1,8,0:0:0:0:
320,192,104360,1,0,0:0:0:40:snare.ogg
64,192,104526,1,8,0:0:0:0:
448,192,104526,1,0,0:0:0:70:don.ogg
64,192,104693,1,0,0:0:0:40:snare.ogg
320,192,104860,1,8,0:0:0:0:
448,192,104860,1,0,0:0:0:0:
64,192,105026,1,2,0:0:0:0:
192,192,105026,1,0,0:0:0:100:A4.ogg
192,192,105193,1,8,0:0:0:0:
448,192,105193,1,0,0:0:0:0:
448,192,105360,1,0,0:0:0:40:snare.ogg
64,192,105526,1,10,0:0:0:0:
320,192,105526,1,0,0:0:0:100:A5.ogg
192,192,105693,1,0,0:0:0:40:snare.ogg
320,192,105776,1,0,0:0:0:40:snare.ogg
64,192,105860,1,4,0:0:0:0:
192,192,105860,1,8,0:0:0:0:
448,192,105860,128,0,107193:0:0:0:100:D5.ogg
64,192,106026,1,0,0:0:0:40:snare.ogg
192,192,106193,1,2,0:0:0:0:
320,192,106193,1,8,0:0:0:0:
320,192,106360,1,2,0:0:0:0:
64,192,106526,1,8,0:0:0:0:
192,192,106526,1,0,0:0:0:80:D4T.ogg
64,192,106693,1,2,0:0:0:0:
320,192,106693,1,0,0:0:0:0:
192,192,106860,1,8,0:0:0:0:
320,192,106860,1,2,0:0:0:0:
192,192,107026,1,0,0:0:0:40:snare.ogg
64,192,107193,1,8,0:0:0:0:
320,192,107193,1,0,0:0:0:70:don.ogg
64,192,107360,1,0,0:0:0:40:snare.ogg
192,192,107360,1,0,0:0:0:0:
320,192,107526,1,8,0:0:0:0:
448,192,107526,1,2,0:0:0:0:
64,192,107693,1,0,0:0:0:40:snare.ogg
448,192,107693,1,0,0:0:0:100:A4.ogg
64,192,107860,1,8,0:0:0:0:
192,192,107860,1,2,0:0:0:0:
192,192,108026,1,0,0:0:0:40:snare.ogg
320,192,108193,1,10,0:0:0:0:
448,192,108193,1,0,0:0:0:100:A5.ogg
320,192,108360,1,0,0:0:0:40:snare.ogg
64,192,108526,1,4,0:0:0:0:
192,192,108526,128,8,109860:0:0:0:0:
448,192,108526,1,0,0:0:0:100:D5.ogg
448,192,108693,1,0,0:0:0:40:snare.ogg
64,192,108860,1,8,0:0:0:0:
320,192,108860,1,2,0:0:0:0:
64,192,109026,1,2,0:0:0:0:
320,192,109193,1,8,0:0:0:0:
448,192,109193,1,0,0:0:0:80:D4T.ogg
64,192,109360,1,2,0:0:0:0:
448,192,109360,1,0,0:0:0:0:
64,192,109526,1,2,0:0:0:0:
320,192,109526,1,8,0:0:0:0:
320,192,109693,1,0,0:0:0:40:snare.ogg
64,192,109860,1,8,0:0:0:0:
448,192,109860,1,0,0:0:0:70:don.ogg
320,192,110026,1,0,0:0:0:40:snare.ogg
448,192,110026,1,0,0:0:0:0:
64,192,110193,1,8,0:0:0:0:
192,192,110193,1,2,0:0:0:0:
64,192,110360,1,0,0:0:0:40:snare.ogg
448,192,110360,1,0,0:0:0:100:A4.ogg
320,192,110526,1,2,0:0:0:0:
448,192,110526,1,8,0:0:0:0:
320,192,110693,1,0,0:0:0:40:snare.ogg
64,192,110860,1,10,0:0:0:0:
192,192,110860,1,0,0:0:0:100:A5.ogg
192,192,111026,1,0,0:0:0:40:snare.ogg
64,192,111193,1,8,0:0:0:0:
320,192,111193,128,4,112526:0:0:0:0:
448,192,111193,1,0,0:0:0:100:E5.ogg
64,192,111360,1,0,0:0:0:40:snare.ogg
192,192,111526,1,8,0:0:0:0:
448,192,111526,1,2,0:0:0:0:
448,192,111693,1,2,0:0:0:0:
64,192,111860,1,8,0:0:0:0:
192,192,111860,1,0,0:0:0:80:D4T.ogg
64,192,112026,1,2,0:0:0:0:
448,192,112026,1,0,0:0:0:0:
192,192,112193,1,8,0:0:0:0:
448,192,112193,1,2,0:0:0:0:
192,192,112360,1,0,0:0:0:40:snare.ogg
64,192,112526,1,12,0:0:0:0:
192,192,112526,1,0,0:0:0:70:don.ogg
448,192,112526,1,0,0:0:0:100:E5.ogg
320,192,112693,1,0,0:0:0:40:snare.ogg
448,192,112693,1,0,0:0:0:0:
64,192,112860,1,8,0:0:0:0:
192,192,112860,1,2,0:0:0:0:
64,192,113026,1,0,0:0:0:40:snare.ogg
448,192,113026,1,0,0:0:0:100:F#5.ogg
320,192,113193,1,8,0:0:0:0:
448,192,113193,1,2,0:0:0:0:
320,192,113360,1,0,0:0:0:40:snare.ogg
64,192,113526,1,10,0:0:0:0:
192,192,113526,1,0,0:0:0:100:D5.ogg
192,192,113693,1,0,0:0:0:40:snare.ogg
64,192,113860,1,14,0:0:0:0:
320,192,113860,1,0,0:0:0:50:A#3D.ogg
448,192,113860,1,0,0:0:0:100:A4.ogg
448,192,114026,1,0,0:0:0:50:B3D.ogg
192,192,114193,1,0,0:0:0:50:C4D.ogg
320,192,114193,1,0,0:0:0:0:
192,192,114360,1,0,0:0:0:50:C#4D.ogg
64,192,114526,1,0,0:0:0:50:D4D.ogg
320,192,114526,1,0,0:0:0:80:D4T.ogg
320,192,114693,1,0,0:0:0:50:D#4D.ogg
64,192,114860,1,0,0:0:0:50:E4D.ogg
448,192,114860,1,0,0:0:0:0:
64,192,115026,1,0,0:0:0:50:F4D.ogg
320,192,115193,1,8,0:0:0:0:
448,192,115193,1,0,0:0:0:70:don.ogg
192,192,115360,1,0,0:0:0:40:snare.ogg
64,192,115526,1,8,0:0:0:0:
192,192,115693,1,0,0:0:0:40:snare.ogg
320,192,115693,1,0,0:0:0:100:A4.ogg
448,192,115860,1,8,0:0:0:0:
320,192,116026,1,0,0:0:0:40:snare.ogg
64,192,116193,1,10,0:0:0:0:
192,192,116193,1,0,0:0:0:100:A5.ogg
320,192,116360,1,0,0:0:0:40:snare.ogg
64,192,116526,1,12,0:0:0:0:
448,192,116526,1,0,0:0:0:80:D5.ogg
192,192,116693,1,2,0:0:0:0:
320,192,116860,1,8,0:0:0:0:
448,192,117026,1,2,0:0:0:0:
64,192,117193,1,8,0:0:0:0:
320,192,117360,1,2,0:0:0:0:
192,192,117526,1,8,0:0:0:0:
448,192,117693,1,2,0:0:0:0:
320,192,117860,1,8,0:0:0:0:
64,192,118026,1,2,0:0:0:0:
192,192,118193,1,8,0:0:0:0:
448,192,118360,1,2,0:0:0:0:
320,192,118443,1,2,0:0:0:0:
192,192,118526,1,8,0:0:0:0:
448,192,118610,1,2,0:0:0:0:
320,192,118693,1,2,0:0:0:0:
64,192,118860,1,8,0:0:0:0:
192,192,119026,1,2,0:0:0:0:
320,192,119193,1,6,0:0:0:0:
448,192,119193,1,0,0:0:0:80:D5.ogg
64,192,119360,1,2,0:0:0:0:
192,192,119443,1,2,0:0:0:0:
320,192,119526,1,8,0:0:0:0:
192,192,119693,1,2,0:0:0:0:
64,192,119860,1,8,0:0:0:0:
320,192,120026,1,2,0:0:0:0:
192,192,120193,1,8,0:0:0:0:
448,192,120360,1,2,0:0:0:0:
320,192,120526,1,8,0:0:0:0:
64,192,120693,1,2,0:0:0:0:
192,192,120860,1,8,0:0:0:0:
448,192,121026,1,2,0:0:0:0:
320,192,121110,1,2,0:0:0:0:
192,192,121193,1,8,0:0:0:0:
448,192,121276,1,2,0:0:0:0:
320,192,121360,1,2,0:0:0:0:
64,192,121526,1,8,0:0:0:0:
192,192,121693,1,2,0:0:0:0:
64,192,121860,1,12,0:0:0:0:
448,192,121860,1,0,0:0:0:80:D5.ogg
320,192,122026,1,2,0:0:0:0:
192,192,122193,1,8,0:0:0:0:
64,192,122360,1,2,0:0:0:0:
320,192,122526,1,8,0:0:0:0:
448,192,122693,1,2,0:0:0:0:
192,192,122860,1,8,0:0:0:0:
320,192,123026,1,2,0:0:0:0:
64,192,123193,1,8,0:0:0:0:
192,192,123360,1,2,0:0:0:0:
448,192,123526,1,8,0:0:0:0:
320,192,123693,1,2,0:0:0:0:
192,192,123776,1,2,0:0:0:0:
64,192,123860,1,8,0:0:0:0:
320,192,123943,1,2,0:0:0:0:
192,192,124026,1,2,0:0:0:0:
448,192,124193,1,8,0:0:0:0:
320,192,124360,1,2,0:0:0:0:
64,192,124526,1,12,0:0:0:0:
448,192,124526,1,0,0:0:0:80:D4.ogg
192,192,124693,1,2,0:0:0:0:
320,192,124860,1,8,0:0:0:0:
448,192,125026,1,2,0:0:0:0:
192,192,125193,1,8,0:0:0:0:
64,192,125360,1,2,0:0:0:0:
320,192,125526,1,8,0:0:0:0:
192,192,125693,1,2,0:0:0:0:
448,192,125860,1,8,0:0:0:0:
320,192,126026,1,2,0:0:0:0:
64,192,126193,1,8,0:0:0:0:
192,192,126360,1,2,0:0:0:0:
320,192,126443,1,2,0:0:0:0:
448,192,126526,1,8,0:0:0:0:
192,192,126610,1,2,0:0:0:0:
320,192,126693,1,2,0:0:0:0:
64,192,126860,1,8,0:0:0:0:
192,192,127026,1,2,0:0:0:0:
64,192,127193,1,12,0:0:0:0:
448,192,127193,1,0,0:0:0:80:D5.ogg
320,192,127360,1,2,0:0:0:0:
192,192,127526,1,8,0:0:0:0:
64,192,127693,1,2,0:0:0:0:
448,192,127860,1,8,0:0:0:0:
192,192,128026,1,2,0:0:0:0:
320,192,128193,1,8,0:0:0:0:
64,192,128360,1,2,0:0:0:0:
192,192,128526,1,8,0:0:0:0:
448,192,128693,1,2,0:0:0:0:
320,192,128860,1,8,0:0:0:0:
64,192,129026,1,2,0:0:0:0:
192,192,129110,1,2,0:0:0:0:
320,192,129193,1,8,0:0:0:0:
64,192,129276,1,2,0:0:0:0:
192,192,129360,1,2,0:0:0:0:
448,192,129526,1,8,0:0:0:0:
320,192,129693,1,2,0:0:0:0:
64,192,129860,1,12,0:0:0:0:
192,192,129860,1,0,0:0:0:80:D5.ogg
448,192,130026,1,2,0:0:0:0:
320,192,130110,1,2,0:0:0:0:
192,192,130193,1,8,0:0:0:0:
320,192,130360,1,2,0:0:0:0:
448,192,130526,1,8,0:0:0:0:
192,192,130693,1,2,0:0:0:0:
320,192,130860,1,8,0:0:0:0:
64,192,131026,1,2,0:0:0:0:
192,192,131193,1,8,0:0:0:0:
448,192,131360,1,2,0:0:0:0:
320,192,131526,1,8,0:0:0:0:
64,192,131693,1,2,0:0:0:0:
192,192,131776,1,2,0:0:0:0:
320,192,131860,1,8,0:0:0:0:
64,192,131943,1,2,0:0:0:0:
192,192,132026,1,2,0:0:0:0:
448,192,132193,1,8,0:0:0:0:
320,192,132360,1,2,0:0:0:0:
64,192,132526,1,12,0:0:0:0:
448,192,132526,1,0,0:0:0:80:D5.ogg
192,192,132693,1,2,0:0:0:0:
320,192,132860,1,8,0:0:0:0:
448,192,133026,1,2,0:0:0:0:
192,192,133193,1,8,0:0:0:0:
64,192,133360,1,2,0:0:0:0:
320,192,133526,1,8,0:0:0:0:
192,192,133693,1,2,0:0:0:0:
448,192,133860,1,8,0:0:0:0:
320,192,134026,1,2,0:0:0:0:
64,192,134193,1,8,0:0:0:0:
192,192,134360,1,2,0:0:0:0:
320,192,134443,1,2,0:0:0:0:
448,192,134526,1,8,0:0:0:0:
192,192,134610,1,2,0:0:0:0:
320,192,134693,1,2,0:0:0:0:
64,192,134860,1,8,0:0:0:0:
192,192,135026,1,2,0:0:0:0:
64,192,135193,1,12,0:0:0:0:
448,192,135193,1,0,0:0:0:80:D4.ogg
320,192,135360,1,2,0:0:0:0:
192,192,135526,1,8,0:0:0:0:
64,192,135693,1,2,0:0:0:0:
320,192,135860,1,8,0:0:0:0:
448,192,136026,1,2,0:0:0:0:
192,192,136193,1,8,0:0:0:0:
320,192,136360,1,2,0:0:0:0:
64,192,136526,1,8,0:0:0:0:
192,192,136693,1,2,0:0:0:0:
448,192,136860,1,8,0:0:0:0:
320,192,137026,1,2,0:0:0:0:
192,192,137110,1,2,0:0:0:0:
64,192,137193,1,8,0:0:0:0:
320,192,137276,1,2,0:0:0:0:
192,192,137360,1,2,0:0:0:0:
448,192,137526,1,8,0:0:0:0:
320,192,137693,1,2,0:0:0:0:
