osu file format v14

[General]
AudioFilename: audio.ogg
AudioLeadIn: 0
PreviewTime: 52526
Countdown: 0
SampleSet: Soft
StackLeniency: 0.7
Mode: 2
LetterboxInBreaks: 0
WidescreenStoryboard: 0

[Editor]
Bookmarks: 52526,62860,105860,116526,127193,137860
DistanceSpacing: 1
BeatDivisor: 4
GridSize: 4
TimelineZoom: 2.1

[Metadata]
Title:RE Aoharu
TitleUnicode:RE Aoharu
Artist:Nor feat. Kohara Konomi
ArtistUnicode:Nor feat. 小原好美
Creator:Kukkai
Version:Where All Miracles Begin
Source:ブルーアーカイブ -Blue Archive-
Tags:-Luminate -Hex- Hex japanese aice room electronic instrumental nexon yostar video game Original Soundtrack Vol.3 ~Reaching for the precious time~ OST 59. Nor track_59 最終編 あまねく 奇跡の始発点編 final chapter amaneku remix track_34 prologue opening story プロローグ 4th PV ブルアカ promotional video version ver. ft. featuring arona アロナ
BeatmapID:4404071
BeatmapSetID:2099486

[Difficulty]
HPDrainRate:6
CircleSize:4.2
OverallDifficulty:9.3
ApproachRate:9.3
SliderMultiplier:2
SliderTickRate:2

[Events]
//Background and Video events
0,0,"56.jpg",0,0
Video,-80,"4th PV.mp4"
//Break Periods
//Storyboard Layer 0 (Background)
//Storyboard Layer 1 (Fail)
//Storyboard Layer 2 (Pass)
//Storyboard Layer 3 (Foreground)
//Storyboard Layer 4 (Overlay)
//Storyboard Sound Samples

[TimingPoints]
4527,333.333333333333,4,2,1,50,1,0
15193,-100,4,2,1,55,0,0
25860,-90.9090909090909,4,2,1,60,0,0
47360,-90.9090909090909,4,2,1,10,0,0
52526,-111.111111111111,4,2,2,40,0,0
63193,-100,4,2,1,50,0,0
68526,-100,4,2,1,55,0,0
69860,-100,4,2,1,60,0,0
71193,-100,4,2,1,62,0,0
72526,-100,4,2,1,65,0,0
73860,-100,4,2,1,70,0,0
95193,-90.9090909090909,4,2,1,70,0,1
116526,-100,4,2,1,40,0,0

[Colours]
Combo1 : 210,210,0
Combo2 : 38,255,255
Combo3 : 255,66,255

[HitObjects]
336,200,4193,5,8,0:2:0:0:
384,200,4276,1,8,0:2:0:0:
384,200,4360,1,8,0:2:0:0:
336,200,4443,1,8,0:2:0:0:
136,200,4526,6,0,L|12:200,2,100,4|0|0,3:1|0:2|3:2,0:0:0:0:
284,200,5026,1,8,0:2:0:0:
136,200,5193,2,0,L|136:60,1,100,0|0,3:2|0:0,0:0:0:0:
288,100,5526,6,0,L|388:100,2,100,8|0|0,3:2|0:0|3:2,0:0:0:0:
136,100,6026,1,8,0:2:0:0:
288,100,6193,2,0,L|408:100,1,100,0|0,3:2|0:0,0:0:0:0:
236,100,6526,2,0,L|236:228,1,100,8|0,3:2|0:0,0:0:0:0:
388,200,6860,2,0,L|388:80,1,100,8|8,3:2|0:2,0:0:0:0:
336,100,7110,1,8,0:2:0:0:
176,264,7193,6,0,L|304:264,1,100,8|0,3:2|0:0,0:0:0:0:
328,268,7443,1,0,0:0:0:0:
276,264,7526,1,0,3:2:0:0:
124,264,7693,1,8,0:0:0:0:
276,264,7860,2,0,L|150:264,1,100,0|0,3:2|0:0,0:0:0:0:
328,260,8193,6,0,L|444:260,2,100,8|0|0,3:2|0:0|3:2,0:0:0:0:
176,264,8693,1,8,0:0:0:0:
328,260,8860,2,0,L|328:144,1,100,0|0,3:2|0:0,0:0:0:0:
176,148,9193,5,8,3:2:0:0:
128,148,9276,1,0,0:0:0:0:
128,148,9360,1,0,0:0:0:0:
176,148,9443,1,0,0:0:0:0:
296,116,9526,2,0,L|296:56,1,50,8|0,3:2|0:0,0:0:0:0:
244,64,9693,2,0,L|244:136,1,50,0|0,0:0|0:0,0:0:0:0:
392,292,9860,6,0,L|252:292,2,100,8|0|0,3:2|0:0|3:2,0:0:0:0:
240,288,10360,1,8,0:0:0:0:
92,292,10526,2,0,L|92:160,1,100,0|0,3:2|0:0,0:0:0:0:
244,192,10860,6,0,L|376:192,2,100,8|0|0,3:2|0:0|3:2,0:0:0:0:
396,188,11360,1,8,0:0:0:0:
248,188,11526,2,0,L|248:80,1,100,0|0,3:2|0:0,0:0:0:0:
400,84,11860,2,0,L|288:84,1,100,8|0,3:2|0:0,0:0:0:0:
148,88,12193,2,0,L|148:204,1,100,8|8,3:2|0:0,0:0:0:0:
200,188,12443,1,8,0:0:0:0:
356,264,12526,6,0,L|232:264,1,100,8|0,3:2|0:0,0:0:0:0:
204,264,12776,1,0,0:0:0:0:
256,264,12860,1,0,3:2:0:0:
408,200,13026,1,8,0:0:0:0:
256,264,13193,2,0,L|256:144,1,100,0|0,3:2|0:0,0:0:0:0:
404,152,13526,6,0,L|512:152,2,100,8|0|0,3:2|0:0|3:2,0:0:0:0:
252,156,14026,1,8,0:0:0:0:
404,152,14193,2,0,L|276:152,1,100,0|0,3:2|0:0,0:0:0:0:
152,152,14526,2,0,L|152:264,1,100,8|0,3:2|0:0,0:0:0:0:
400,248,14860,2,0,L|280:248,1,100,8|0,3:2|0:0,0:0:0:0:
248,248,15110,1,0,0:0:0:0:
432,188,15193,5,12,3:1:0:0:
312,188,15360,1,0,0:0:0:0:
432,188,15526,1,8,3:1:0:0:
200,156,15693,1,8,0:0:0:0:
432,188,15860,2,0,L|432:56,1,100,8|0,3:1|0:0,0:0:0:0:
204,288,16193,2,0,L|88:288,1,100,8|0,3:1|0:0,0:0:0:0:
336,200,16526,5,8,3:1:0:0:
184,200,16693,1,8,0:0:0:0:
412,200,16860,2,0,P|432:144|384:112,1,100,8|0,3:1|0:0,0:0:0:0:
360,116,17110,1,0,0:0:0:0:
212,328,17193,2,0,L|336:328,1,100,8|0,3:1|0:0,0:0:0:0:
88,248,17526,2,0,P|64:196|100:164,1,100,8|8,3:1|0:0,0:0:0:0:
140,168,17776,1,8,0:0:0:0:
296,104,17860,5,8,3:1:0:0:
176,104,18026,1,0,0:0:0:0:
116,104,18110,1,0,0:0:0:0:
56,100,18193,1,8,3:1:0:0:
284,40,18360,1,8,0:0:0:0:
56,100,18526,2,0,L|56:232,1,100,8|0,3:1|0:0,0:0:0:0:
288,212,18860,2,0,L|396:212,1,100,8|0,3:1|0:0,0:0:0:0:
160,148,19193,5,8,3:1:0:0:
300,144,19360,1,8,0:0:0:0:
60,328,19526,2,0,P|44:264|72:236,1,100,8|0,3:1|0:0,0:0:0:0:
112,244,19776,1,0,0:0:0:0:
264,240,19860,2,0,L|344:240,1,50,8|0,3:1|0:0,0:0:0:0:
264,240,20026,2,0,L|200:240,1,50,0|0,0:0|0:0,0:0:0:0:
368,180,20193,2,0,L|480:180,1,100,8|0,3:1|0:0,0:0:0:0:
420,180,20443,1,0,0:0:0:0:
220,120,20526,5,8,3:1:0:0:
340,124,20693,1,0,0:0:0:0:
220,120,20860,1,8,3:1:0:0:
448,68,21026,1,8,0:0:0:0:
220,120,21193,2,0,L|88:120,1,100,8|0,3:1|0:0,0:0:0:0:
348,232,21526,2,0,L|348:116,1,100,8|0,3:1|0:0,0:0:0:0:
116,224,21860,5,8,3:1:0:0:
264,224,22026,1,8,0:0:0:0:
32,176,22193,2,0,P|16:120|56:72,1,100,8|0,3:1|0:0,0:0:0:0:
88,84,22443,1,0,0:0:0:0:
244,300,22526,2,0,L|128:300,1,100,8|0,3:1|0:0,0:0:0:0:
376,220,22860,2,0,L|480:220,1,100,8|0,3:1|0:0,0:0:0:0:
424,220,23110,1,0,0:0:0:0:
224,152,23193,5,8,3:1:0:0:
344,152,23360,1,8,3:1:0:0:
224,152,23526,1,8,3:1:0:0:
452,100,23693,1,8,3:2:0:0:
224,88,23860,1,8,3:1:0:0:
344,88,24026,1,8,3:1:0:0:
112,152,24193,1,8,3:2:0:0:
344,152,24360,1,8,3:1:0:0:
112,152,24526,5,0,3:2:0:0:
252,156,24693,1,0,3:2:0:0:
24,104,24860,1,8,0:2:0:0:
248,96,25026,1,0,0:2:0:0:
128,100,25193,1,0,3:2:0:0:
352,64,25360,1,8,0:2:0:0:
128,100,25526,2,0,P|104:48|160:16,1,100,0|0,3:2|0:0,0:0:0:0:
184,16,25776,1,0,0:0:0:0:
352,152,25860,5,4,3:1:0:0:
232,152,26026,1,0,0:0:0:0:
352,152,26193,1,8,3:2:0:0:
112,300,26360,1,8,0:2:0:0:
352,208,26526,1,0,3:2:0:0:
228,204,26693,1,8,0:2:0:0:
480,156,26860,1,8,3:2:0:0:
480,156,27026,1,0,0:0:0:0:
240,156,27193,5,0,3:3:0:0:
484,96,27360,1,8,0:2:0:0:
364,96,27526,1,0,3:2:0:0:
244,100,27693,1,8,0:2:0:0:
484,288,27860,2,0,L|484:168,1,110.000003356934,8|0,3:2|0:2,0:2:0:0:
216,176,28193,2,0,L|368:176,1,110.000003356934,8|0,3:2|0:2,0:2:0:0:
272,176,28443,1,0,0:0:0:0:
104,112,28526,5,4,3:1:0:0:
224,112,28693,1,0,0:2:0:0:
104,112,28860,1,8,3:2:0:0:
348,72,29026,1,8,0:2:0:0:
104,112,29193,2,0,L|104:224,1,110.000003356934,0|8,3:2|0:2,0:2:0:0:
336,304,29526,1,8,3:2:0:0:
216,304,29693,1,0,0:2:0:0:
96,304,29860,5,0,3:2:0:0:
336,228,30026,1,8,0:2:0:0:
80,216,30193,2,0,L|80:88,1,110.000003356934,0|8,3:2|0:2,0:2:0:0:
324,104,30526,2,0,L|168:104,1,110.000003356934,8|0,3:2|0:2,0:2:0:0:
464,184,30860,2,0,P|472:112|444:80,1,110.000003356934,8|0,3:2|0:2,0:2:0:0:
396,84,31110,1,0,0:2:0:0:
204,228,31193,5,4,3:1:0:0:
324,228,31360,1,0,0:2:0:0:
444,228,31526,1,8,3:2:0:0:
188,164,31693,1,8,0:2:0:0:
424,160,31860,2,0,L|424:40,1,110.000003356934,0|8,3:2|0:2,0:2:0:0:
180,48,32193,2,0,L|304:48,1,110.000003356934,8|0,3:2|0:2,0:2:0:0:
52,216,32526,5,0,3:2:0:0:
296,220,32693,1,8,0:2:0:0:
176,220,32860,1,0,3:2:0:0:
296,220,33026,1,8,0:2:0:0:
32,172,33193,2,0,L|32:44,1,110.000003356934,8|0,3:2|0:2,0:2:0:0:
280,56,33526,2,0,L|120:56,1,110.000003356934,8|0,3:2|0:2,0:2:0:0:
224,56,33776,1,0,0:2:0:0:
408,252,33860,5,4,3:1:0:0:
288,252,34026,1,0,0:2:0:0:
168,252,34193,1,8,3:2:0:0:
440,196,34360,1,8,0:2:0:0:
168,188,34526,2,0,L|308:188,1,110.000003356934,0|8,3:2|0:2,0:2:0:0:
44,192,34860,2,0,L|44:64,1,110.000003356934,8|0,3:2|0:2,0:2:0:0:
276,80,35193,5,0,3:2:0:0:
48,276,35360,1,8,0:2:0:0:
168,280,35526,1,0,3:2:0:0:
48,276,35693,1,8,0:2:0:0:
292,224,35860,2,0,L|160:224,1,110.000003356934,8|0,3:2|0:2,0:2:0:0:
428,172,36193,2,0,P|448:112|388:80,1,110.000003356934,8|0,3:2|0:2,0:2:0:0:
364,80,36443,1,0,0:2:0:0:
192,260,36526,5,4,3:1:0:0:
312,260,36693,1,0,0:0:0:0:
84,188,36860,1,8,3:1:0:0:
312,260,37026,1,8,0:1:0:0:
84,188,37193,2,0,L|84:72,1,110.000003356934,8|0,3:1|0:1,0:0:0:0:
312,204,37526,2,0,L|440:204,1,110.000003356934,8|0,3:1|0:0,0:0:0:0:
172,140,37860,5,0,3:3:0:0:
424,208,38026,1,8,0:1:0:0:
172,140,38193,2,0,L|40:140,1,110.000003356934,8|0,3:1|0:1,0:0:0:0:
324,72,38526,2,0,L|448:72,1,110.000003356934,8|0,3:1|0:0,0:0:0:0:
148,200,38860,2,0,L|32:200,1,110.000003356934,8|0,3:1|0:0,0:0:0:0:
92,200,39110,1,0,0:0:0:0:
276,136,39193,5,4,3:1:0:0:
144,136,39360,1,0,0:0:0:0:
396,116,39526,1,8,3:1:0:0:
144,136,39693,1,8,0:1:0:0:
396,116,39860,2,0,L|508:116,1,110.000003356934,8|0,3:1|0:1,0:0:0:0:
272,248,40193,2,0,L|424:248,1,110.000003356934,8|0,3:1|0:0,0:0:0:0:
136,188,40526,5,0,3:3:0:0:
380,248,40693,1,8,0:1:0:0:
136,188,40860,2,0,L|136:68,1,110.000003356934,8|0,3:1|0:1,0:0:0:0:
384,80,41193,2,0,L|504:80,1,110.000003356934,8|0,3:1|0:0,0:0:0:0:
232,56,41526,2,0,L|108:56,1,110.000003356934,8|0,3:1|0:0,0:0:0:0:
176,56,41776,1,0,0:0:0:0:
384,140,41860,5,4,3:1:0:0:
264,144,42026,1,0,0:0:0:0:
488,76,42193,1,8,3:1:0:0:
264,144,42360,1,8,0:1:0:0:
488,76,42526,2,0,L|360:76,1,110.000003356934,8|0,3:1|0:1,0:0:0:0:
132,368,42860,2,0,L|132:244,1,110.000003356934,8|0,3:1|0:0,0:0:0:0:
368,208,43193,5,4,3:1:0:0:
128,260,43360,1,8,0:1:0:0:
368,208,43526,2,0,L|488:208,1,110.000003356934,8|0,3:1|0:1,0:0:0:0:
216,152,43860,2,0,L|88:152,1,110.000003356934,8|0,3:1|0:0,0:0:0:0:
344,64,44193,2,0,L|216:64,1,110.000003356934,8|0,3:1|0:0,0:0:0:0:
288,64,44443,1,0,0:0:0:0:
488,64,44526,5,4,3:1:0:0:
368,64,44693,1,8,3:1:0:0:
488,64,44860,1,8,3:1:0:0:
216,268,45026,1,8,3:1:0:0:
336,268,45193,1,8,3:1:0:0:
456,268,45360,1,8,3:1:0:0:
188,200,45526,1,8,3:1:0:0:
308,200,45693,1,8,3:1:0:0:
68,160,45860,5,2,3:1:0:0:
68,104,45943,1,8,0:0:0:0:
212,104,46026,1,8,0:0:0:0:
268,104,46110,1,8,0:0:0:0:
212,104,46193,1,8,0:0:0:0:
156,104,46276,1,8,0:0:0:0:
320,332,46360,5,2,3:1:0:0:
376,332,46443,1,8,0:0:0:0:
208,304,46526,1,8,0:0:0:0:
152,304,46610,1,8,0:0:0:0:
208,304,46693,1,8,0:0:0:0:
264,304,46776,1,8,0:0:0:0:
88,244,46860,5,2,3:1:0:0:
144,244,46943,1,8,0:0:0:0:
316,176,47026,1,8,0:0:0:0:
372,176,47110,1,8,0:0:0:0:
148,168,47193,5,4,3:2:0:0:
256,192,47360,12,0,52193,0:0:0:0:
420,336,52526,6,0,L|168:200,2,269.999991760254,2|2|2,0:2|0:2|0:2,0:0:0:0:
200,340,53860,6,0,P|136:300|224:164,1,269.999991760254,2|2,0:2|0:2,0:0:0:0:
468,180,54860,1,2,0:2:0:0:
200,340,55193,6,0,L|408:160,2,269.999991760254,2|2|2,0:2|0:2|0:2,0:0:0:0:
440,344,56526,5,2,0:2:0:0:
168,344,57026,2,0,L|424:212,1,269.999991760254,2|2,0:2|0:2,0:0:0:0:
148,272,57860,6,0,P|88:244|184:108,1,269.999991760254,2|2,0:2|0:2,0:0:0:0:
424,120,58860,1,2,0:2:0:0:
208,344,59193,6,0,L|468:236,1,269.999991760254,2|2,0:2|0:2,0:0:0:0:
180,216,60193,1,2,0:2:0:0:
412,172,60526,6,0,L|160:40,2,269.999991760254,2|2|2,0:2|0:2|0:2,0:0:0:0:
144,320,61860,6,0,L|444:320,2,269.999991760254,2|2|2,0:2|0:2|0:0,0:0:0:0:
100,316,62943,1,8,0:2:0:0:
56,316,63026,1,8,0:2:0:0:
100,316,63110,1,8,0:2:0:0:
324,264,63193,6,0,L|440:264,2,100,4|0|0,0:1|0:0|0:0,0:0:0:0:
172,264,63693,2,0,L|172:140,1,100,10|0,0:2|0:0,0:0:0:0:
272,168,64026,1,0,0:0:0:0:
120,168,64193,2,0,L|12:168,1,100,10|0,0:2|0:0,0:0:0:0:
264,360,64526,5,2,0:2:0:0:
364,360,64693,2,0,L|364:220,1,100,8|0,0:2|0:0,0:0:0:0:
212,264,65026,1,2,0:2:0:0:
112,268,65193,2,0,L|112:144,1,100,8|0,0:2|0:0,0:0:0:0:
264,168,65526,2,0,L|380:168,1,100,10|8,0:2|0:2,0:0:0:0:
316,168,65776,1,8,0:2:0:0:
112,116,65860,6,0,L|8:116,2,100,10|0|0,0:2|0:0|0:0,0:0:0:0:
264,116,66360,2,0,L|376:116,2,100,10|0|0,0:2|0:0|0:0,0:0:0:0:
416,116,66860,2,0,L|416:224,1,100,10|0,0:2|0:0,0:0:0:0:
172,360,67193,5,2,0:2:0:0:
72,360,67360,2,0,L|72:260,1,100,8|0,0:2|0:0,0:0:0:0:
224,264,67693,1,2,0:2:0:0:
324,268,67860,2,0,L|324:180,1,50,8|0,0:2|0:2,0:0:0:0:
272,192,68026,2,0,L|272:124,1,50,0|0,0:2|0:2,0:0:0:0:
348,144,68193,2,0,L|456:144,1,100,10|0,0:2|0:2,0:0:0:0:
396,144,68443,1,0,0:2:0:0:
244,360,68526,6,0,L|132:360,2,100,10|0|0,0:2|0:0|0:0,0:0:0:0:
92,360,69026,2,0,L|92:252,1,100,10|0,0:2|0:0,0:0:0:0:
196,260,69360,1,0,0:0:0:0:
344,260,69526,2,0,L|488:260,1,100,10|0,0:2|0:0,0:0:0:0:
184,172,69860,6,0,L|72:172,2,100,2|8|0,0:2|0:2|0:0,0:0:0:0:
336,172,70360,2,0,L|448:172,2,100,2|8|0,0:2|0:2|0:0,0:0:0:0:
184,168,70860,2,0,L|184:280,1,100,10|8,0:2|0:2,0:0:0:0:
236,168,71110,1,8,0:2:0:0:
392,272,71193,6,0,L|504:272,2,100,10|0|0,0:2|0:0|0:0,0:0:0:0:
240,276,71693,2,0,L|344:276,1,100,10|0,0:2|0:0,0:0:0:0:
340,276,72026,1,0,0:0:0:0:
188,276,72193,2,0,L|64:276,1,100,10|0,0:2|0:0,0:0:0:0:
392,172,72526,6,0,L|496:172,2,100,2|8|0,0:1|0:2|0:0,0:0:0:0:
140,112,73026,1,2,0:1:0:0:
190,112,73110,1,0,0:0:0:0:
240,112,73193,1,8,0:2:0:0:
88,112,73360,1,0,0:0:0:0:
340,108,73526,2,0,L|340:256,1,100,2|0,0:1|0:2,0:0:0:0:
288,204,73776,1,0,0:2:0:0:
36,356,73860,6,0,L|168:356,1,100,6|0,3:1|0:0,0:0:0:0:
288,356,74193,1,0,3:1:0:0:
136,352,74360,1,8,0:2:0:0:
288,356,74526,2,0,L|416:356,1,100,0|0,3:1|0:0,0:0:0:0:
236,356,74860,2,0,L|360:356,1,100,0|0,3:1|0:0,0:0:0:0:
72,232,75193,5,2,3:1:0:0:
224,232,75360,1,8,0:2:0:0:
72,232,75526,1,0,3:1:0:0:
320,160,75693,1,2,0:1:0:0:
168,164,75860,2,0,L|168:44,1,100,0|0,3:1|0:0,0:0:0:0:
400,64,76193,1,2,3:1:0:0:
452,64,76276,1,0,0:0:0:0:
504,64,76360,1,0,0:0:0:0:
452,64,76443,1,0,0:0:0:0:
256,296,76526,6,0,L|128:296,1,100,6|0,3:1|0:0,0:0:0:0:
308,296,76860,1,0,3:1:0:0:
160,296,77026,1,8,0:2:0:0:
308,296,77193,2,0,L|308:176,1,100,0|0,3:1|0:0,0:0:0:0:
156,196,77526,2,0,L|52:196,1,100,0|0,3:1|0:0,0:0:0:0:
328,120,77860,5,2,3:1:0:0:
180,120,78026,1,8,0:2:0:0:
332,120,78193,1,0,3:1:0:0:
52,256,78360,1,2,0:1:0:0:
200,264,78526,2,0,L|200:208,1,50,0|0,3:1|0:0,0:0:0:0:
148,200,78693,2,0,L|84:200,1,50,0|0,0:0|0:0,0:0:0:0:
252,148,78860,2,0,L|324:148,1,50,2|0,3:1|0:0,0:0:0:0:
144,84,79026,2,0,L|224:84,1,50,0|0,0:0|0:0,0:0:0:0:
384,84,79193,6,0,L|496:84,1,100,6|0,3:1|0:0,0:0:0:0:
332,84,79526,1,0,3:1:0:0:
484,84,79693,1,8,0:2:0:0:
332,84,79860,2,0,L|208:84,1,100,0|0,3:1|0:0,0:0:0:0:
384,88,80193,2,0,L|384:216,1,100,0|0,3:1|0:0,0:0:0:0:
136,280,80526,5,2,3:1:0:0:
288,284,80693,1,8,0:2:0:0:
440,284,80860,1,0,3:1:0:0:
176,208,81026,1,2,0:1:0:0:
72,216,81193,2,0,L|72:104,1,100,0|0,3:1|0:0,0:0:0:0:
320,112,81526,2,0,L|212:112,1,100,2|0,3:1|0:0,0:0:0:0:
168,112,81776,1,0,0:0:0:0:
356,232,81860,6,0,L|460:232,1,100,6|0,3:1|0:0,0:0:0:0:
304,232,82193,1,0,3:1:0:0:
456,236,82360,1,8,0:2:0:0:
304,232,82526,2,0,L|192:232,1,100,0|0,3:1|0:0,0:0:0:0:
356,232,82860,2,0,L|356:120,1,100,0|0,3:1|0:0,0:0:0:0:
104,336,83193,5,2,3:1:0:0:
256,336,83360,1,8,0:2:0:0:
104,336,83526,1,0,3:1:0:0:
348,236,83693,1,2,0:1:0:0:
196,244,83860,2,0,L|196:120,1,100,0|0,3:1|0:0,0:0:0:0:
432,140,84193,2,0,P|448:80|416:36,1,100,2|0,3:1|0:0,0:0:0:0:
380,52,84443,1,0,0:0:0:0:
132,356,84526,6,0,L|12:356,1,100,6|0,3:1|0:0,0:0:0:0:
272,276,84860,2,0,L|160:276,1,100,8|8,3:1|0:2,0:0:0:0:
408,200,85193,2,0,L|524:200,1,100,8|0,3:1|0:0,0:0:0:0:
280,120,85526,2,0,L|400:120,1,100,8|0,3:1|0:0,0:0:0:0:
112,332,85860,5,10,3:1:0:0:
260,332,86026,1,8,0:2:0:0:
112,332,86193,1,8,3:1:0:0:
392,248,86360,1,2,0:1:0:0:
244,252,86526,1,8,3:1:0:0:
92,252,86693,1,0,0:0:0:0:
364,160,86860,2,0,L|500:160,1,100,2|0,3:1|0:0,0:0:0:0:
232,376,87193,6,0,L|232:248,1,100,6|0,3:1|0:0,0:0:0:0:
476,264,87526,2,0,L|476:116,1,100,8|8,3:1|0:2,0:0:0:0:
232,168,87860,2,0,L|356:168,1,100,8|0,3:1|0:0,0:0:0:0:
92,124,88193,2,0,L|200:124,1,100,8|0,3:1|0:0,0:0:0:0:
448,64,88526,5,10,3:1:0:0:
296,64,88693,1,8,0:2:0:0:
448,64,88860,1,8,3:1:0:0:
144,344,89026,1,2,0:1:0:0:
296,344,89193,1,8,3:1:0:0:
448,344,89360,1,0,0:0:0:0:
184,248,89526,2,0,L|60:248,1,100,2|0,3:1|0:0,0:0:0:0:
368,184,89860,6,0,L|512:184,1,100,6|0,3:1|0:0,0:0:0:0:
212,120,90193,2,0,L|320:120,1,100,8|8,3:1|0:2,0:0:0:0:
56,364,90526,2,0,L|56:244,1,100,8|0,3:1|0:0,0:0:0:0:
308,256,90860,2,0,L|308:144,1,100,8|0,3:1|0:0,0:0:0:0:
48,128,91193,5,10,3:1:0:0:
200,128,91360,1,8,0:2:0:0:
48,128,91526,1,8,3:1:0:0:
328,76,91693,1,2,0:1:0:0:
176,72,91860,1,8,3:1:0:0:
328,76,92026,1,0,0:0:0:0:
48,128,92193,2,0,L|156:128,1,100,2|0,3:1|0:0,0:0:0:0:
484,356,92526,5,14,3:1:0:0:
484,236,92693,1,8,0:1:0:0:
236,228,92860,1,8,3:1:0:0:
356,228,93026,1,8,0:1:0:0:
124,176,93193,1,8,3:1:0:0:
4,176,93360,1,8,0:1:0:0:
252,96,93526,1,8,3:1:0:0:
132,96,93693,1,8,0:1:0:0:
372,320,93860,5,10,3:1:0:0:
252,320,94026,1,0,0:0:0:0:
488,232,94193,1,8,0:0:0:0:
212,224,94360,1,2,3:1:0:0:
212,100,94526,1,0,3:0:0:0:
436,96,94693,1,8,0:0:0:0:
212,100,94860,1,2,3:1:0:0:
92,100,95026,1,0,0:0:0:0:
352,232,95193,6,0,L|496:232,1,110.000003356934,6|0,3:1|0:0,0:0:0:0:
236,172,95526,1,8,3:2:0:0:
464,232,95693,1,8,0:2:0:0:
236,172,95860,2,0,L|116:172,1,110.000003356934,0|8,3:2|0:2,0:2:0:0:
360,96,96193,2,0,L|360:244,1,110.000003356934,8|0,3:2|0:2,0:2:0:0:
104,336,96526,5,2,3:1:0:0:
248,336,96693,1,8,0:2:0:0:
392,336,96860,1,0,3:2:0:0:
80,232,97026,1,2,0:1:0:0:
224,228,97193,1,8,3:2:0:0:
80,232,97360,1,0,0:2:0:0:
392,232,97526,1,2,3:1:0:0:
248,232,97693,1,0,0:2:0:0:
248,160,97776,1,0,0:2:0:0:
444,88,97860,6,0,L|328:88,1,110.000003356934,6|0,3:1|0:2,0:2:0:0:
108,92,98193,1,8,3:2:0:0:
336,88,98360,1,8,0:2:0:0:
108,92,98526,2,0,L|108:212,1,110.000003356934,0|8,3:2|0:2,0:2:0:0:
368,216,98860,2,0,L|500:216,1,110.000003356934,8|0,3:2|0:2,0:2:0:0:
208,360,99193,5,2,3:1:0:0:
64,360,99360,2,0,L|64:240,1,110.000003356934,8|0,0:2|3:2,0:2:0:0:
380,244,99693,1,2,0:1:0:0:
236,240,99860,1,8,3:2:0:0:
380,244,100026,1,0,0:2:0:0:
72,152,100193,1,2,3:1:0:0:
216,152,100360,1,0,0:2:0:0:
216,80,100443,1,0,0:2:0:0:
4,216,100526,6,0,L|120:216,1,110.000003356934,6|0,3:1|0:2,0:2:0:0:
360,224,100860,1,8,3:2:0:0:
120,216,101026,1,8,0:2:0:0:
360,224,101193,2,0,L|244:224,1,110.000003356934,0|8,3:2|0:2,0:2:0:0:
488,216,101526,2,0,L|488:104,1,110.000003356934,8|0,3:2|0:2,0:2:0:0:
176,312,101860,5,2,3:1:0:0:
32,312,102026,1,8,0:2:0:0:
176,312,102193,1,0,3:2:0:0:
436,212,102360,1,2,0:1:0:0:
292,208,102526,1,8,3:2:0:0:
436,212,102693,1,0,0:2:0:0:
180,156,102860,1,2,3:1:0:0:
36,152,103026,2,0,L|100:152,1,55.0000016784668,0|0,0:2|0:2,0:2:0:0:
292,364,103193,6,0,L|168:364,1,110.000003356934,6|0,3:1|0:2,0:2:0:0:
408,288,103526,1,8,3:2:0:0:
184,360,103693,1,8,0:2:0:0:
408,288,103860,2,0,L|408:160,1,110.000003356934,0|8,3:2|0:2,0:2:0:0:
180,176,104193,2,0,L|312:176,1,110.000003356934,8|0,3:2|0:2,0:2:0:0:
32,112,104526,5,2,3:1:0:0:
176,112,104693,1,8,0:2:0:0:
32,112,104860,1,0,3:2:0:0:
280,288,105026,1,2,0:1:0:0:
424,284,105193,1,8,3:2:0:0:
424,284,105360,1,0,0:2:0:0:
172,172,105526,1,2,3:1:0:0:
316,172,105693,2,0,L|252:172,1,55.0000016784668,0|0,0:2|0:2,0:2:0:0:
24,292,105860,6,0,L|172:292,1,110.000003356934,6|0,3:1|0:0,0:0:0:0:
384,296,106193,1,8,3:1:0:0:
132,292,106360,1,8,0:1:0:0:
384,296,106526,2,0,L|496:296,1,110.000003356934,8|0,3:1|0:1,0:0:0:0:
224,216,106860,2,0,L|224:88,1,110.000003356934,8|0,3:1|0:0,0:0:0:0:
468,72,107193,5,2,3:1:0:0:
224,216,107360,1,8,0:1:0:0:
368,216,107526,1,8,3:1:0:0:
64,128,107693,1,2,0:1:0:0:
208,128,107860,1,8,3:1:0:0:
64,128,108026,1,0,0:0:0:0:
340,308,108193,1,10,3:1:0:0:
196,316,108360,2,0,L|284:316,1,55.0000016784668,0|0,0:0|0:0,0:0:0:0:
480,168,108526,6,0,L|340:168,1,110.000003356934,6|0,3:1|0:0,0:0:0:0:
120,128,108860,1,8,3:1:0:0:
368,168,109026,1,8,0:1:0:0:
120,128,109193,2,0,L|8:128,1,110.000003356934,8|0,3:1|0:1,0:0:0:0:
260,64,109526,2,0,L|384:64,1,110.000003356934,8|0,3:1|0:0,0:0:0:0:
96,312,109860,5,2,3:1:0:0:
352,216,110026,1,8,0:1:0:0:
208,216,110193,1,8,3:1:0:0:
452,144,110360,1,2,0:1:0:0:
308,140,110526,1,8,3:1:0:0:
164,140,110693,1,0,0:0:0:0:
464,280,110860,2,0,P|472:204|444:164,1,110.000003356934,10|0,3:1|0:0,0:0:0:0:
396,168,111110,1,0,0:0:0:0:
180,316,111193,6,0,L|328:316,1,110.000003356934,6|0,3:1|0:0,0:0:0:0:
52,216,111526,1,8,3:1:0:0:
284,316,111693,1,8,0:1:0:0:
52,216,111860,2,0,L|204:216,1,110.000003356934,8|0,3:1|0:1,0:0:0:0:
404,220,112193,2,0,L|404:108,1,110.000003356934,8|0,3:1|0:0,0:0:0:0:
152,112,112526,5,6,3:1:0:0:
296,112,112693,1,8,0:1:0:0:
440,108,112860,1,8,3:1:0:0:
152,64,113026,1,2,0:1:0:0:
296,64,113193,1,8,3:1:0:0:
440,60,113360,1,0,0:0:0:0:
148,248,113526,1,10,3:1:0:0:
4,248,113693,2,0,L|68:248,1,55.0000016784668,0|0,0:0|0:0,0:0:0:0:
264,356,113860,5,6,3:1:0:0:
120,356,114026,1,8,3:1:0:0:
380,288,114193,1,8,3:1:0:0:
236,288,114360,1,8,3:1:0:0:
496,224,114526,1,8,3:1:0:0:
352,220,114693,1,8,3:1:0:0:
104,148,114860,1,8,3:1:0:0:
248,148,115026,1,8,3:1:0:0:
12,88,115193,5,2,3:1:0:0:
156,88,115360,1,8,0:0:0:0:
12,88,115526,1,8,0:0:0:0:
308,320,115693,1,2,3:1:0:0:
164,320,115860,1,8,0:0:0:0:
20,320,116026,1,8,0:0:0:0:
312,240,116193,1,2,3:1:0:0:
456,240,116360,1,8,0:0:0:0:
192,160,116526,6,0,L|84:160,2,100,2|2|2,0:1|0:2|0:2,0:0:0:0:
344,160,117026,1,2,0:2:0:0:
244,156,117193,2,0,L|244:264,1,100,0|0,0:0|0:0,0:0:0:0:
344,256,117526,2,0,L|344:148,1,100,0|0,0:0|0:0,0:0:0:0:
444,156,117860,6,0,L|444:280,1,100,0|0,0:0|0:0,0:0:0:0:
344,256,118193,1,0,0:0:0:0:
244,260,118360,1,0,0:0:0:0:
199,239,118443,1,0,0:0:0:0:
184,193,118526,1,0,0:0:0:0:
205,149,118610,1,0,0:0:0:0:
251,134,118693,1,0,0:0:0:0:
352,136,118860,1,0,0:0:0:0:
352,36,119026,1,0,0:0:0:0:
108,348,119193,6,0,L|220:348,1,100,2|2,0:2|0:2,0:0:0:0:
260,348,119443,1,0,0:0:0:0:
308,348,119526,1,2,0:2:0:0:
152,272,119693,1,2,0:2:0:0:
52,268,119860,2,0,L|52:152,1,100,0|0,0:0|0:0,0:0:0:0:
152,164,120193,2,0,L|152:288,1,100,0|0,0:0|0:0,0:0:0:0:
252,268,120526,6,0,L|252:152,1,100,0|0,0:0|0:0,0:0:0:0:
352,172,120860,1,0,0:0:0:0:
252,176,121026,2,0,L|252:108,1,50,0|0,0:0|0:0,0:0:0:0:
304,128,121193,1,0,0:0:0:0:
352,132,121276,2,0,L|352:52,1,50,0|0,0:0|0:0,0:0:0:0:
252,80,121526,2,0,L|112:80,1,100,0|0,0:0|0:0,0:0:0:0:
380,268,121860,6,0,L|484:268,2,100,2|2|2,0:2|0:2|0:2,0:0:0:0:
232,276,122360,1,2,0:2:0:0:
332,276,122526,2,0,L|332:168,1,100,0|0,0:0|0:0,0:0:0:0:
232,176,122860,2,0,L|232:52,1,100,0|0,0:0|0:0,0:0:0:0:
132,76,123193,6,0,L|132:200,1,100,0|0,0:0|0:0,0:0:0:0:
232,176,123526,1,0,0:0:0:0:
332,176,123693,1,0,0:0:0:0:
377,158,123776,1,0,0:0:0:0:
395,113,123860,1,0,0:0:0:0:
374,69,123943,1,0,0:0:0:0:
328,53,124026,1,0,0:0:0:0:
228,56,124193,2,0,L|228:172,1,100,0|0,0:0|0:0,0:0:0:0:
456,312,124526,5,2,0:2:0:0:
356,312,124693,1,2,0:2:0:0:
256,312,124860,1,2,0:2:0:0:
408,236,125026,1,2,0:2:0:0:
308,240,125193,2,0,L|308:128,1,100,0|0,0:0|0:0,0:0:0:0:
208,144,125526,2,0,L|208:32,1,100,0|0,0:0|0:0,0:0:0:0:
308,44,125860,6,0,L|308:152,1,100,0|0,0:0|0:0,0:0:0:0:
208,144,126193,1,0,0:0:0:0:
308,144,126360,1,0,0:0:0:0:
356,144,126443,1,0,0:0:0:0:
404,144,126526,1,0,0:0:0:0:
356,144,126610,1,0,0:0:0:0:
308,144,126693,1,0,0:0:0:0:
208,144,126860,2,0,L|316:144,1,100,0|0,0:0|0:0,0:0:0:0:
68,344,127193,5,2,0:2:0:0:
168,344,127360,1,2,0:2:0:0:
268,344,127526,1,2,0:2:0:0:
120,256,127693,1,2,0:2:0:0:
220,256,127860,2,0,L|220:148,1,100,0|0,0:0|0:0,0:0:0:0:
120,156,128193,2,0,L|120:24,1,100,0|0,0:0|0:0,0:0:0:0:
220,52,128526,6,0,L|220:176,1,100,0|0,0:0|0:0,0:0:0:0:
120,156,128860,1,0,0:0:0:0:
20,156,129026,1,0,0:0:0:0:
72,156,129110,1,0,0:0:0:0:
120,156,129193,1,0,0:0:0:0:
168,156,129276,1,0,0:0:0:0:
220,156,129360,1,0,0:0:0:0:
120,156,129526,2,0,L|0:156,1,100,0|0,0:0|0:0,0:0:0:0:
256,300,129860,6,0,L|372:300,1,100,2|2,0:2|0:2,0:0:0:0:
304,300,130110,1,0,0:0:0:0:
256,300,130193,1,2,0:2:0:0:
104,296,130360,1,2,0:2:0:0:
204,300,130526,2,0,L|204:184,1,100,0|0,0:0|0:0,0:0:0:0:
304,196,130860,2,0,L|304:76,1,100,0|0,0:0|0:0,0:0:0:0:
404,104,131193,6,0,L|404:224,1,100,0|0,0:0|0:0,0:0:0:0:
304,204,131526,1,0,0:0:0:0:
204,200,131693,1,0,0:0:0:0:
252,200,131776,1,0,0:0:0:0:
304,200,131860,1,0,0:0:0:0:
352,200,131943,1,0,0:0:0:0:
304,204,132026,1,0,0:0:0:0:
204,200,132193,2,0,L|100:200,1,100,0|0,0:0|0:0,0:0:0:0:
344,352,132526,6,0,L|344:240,1,100,2|2,0:2|0:2,0:0:0:0:
244,252,132860,1,2,0:2:0:0:
392,204,133026,2,0,L|500:204,2,100,2|0|0,0:2|0:0|0:0,0:0:0:0:
292,208,133526,2,0,L|292:88,1,100,0|0,0:0|0:0,0:0:0:0:
192,108,133860,6,0,L|192:220,1,100,0|0,0:0|0:0,0:0:0:0:
292,204,134193,1,0,0:0:0:0:
392,204,134360,1,0,0:0:0:0:
342,204,134443,1,0,0:0:0:0:
292,204,134526,1,0,0:0:0:0:
242,204,134610,1,0,0:0:0:0:
192,204,134693,1,0,0:0:0:0:
292,204,134860,2,0,L|292:84,1,100,0|0,0:0|0:0,0:0:0:0:
60,360,135193,6,0,L|180:360,1,100,2|2,0:2|0:2,0:0:0:0:
260,360,135526,1,2,0:2:0:0:
108,292,135693,2,0,L|108:184,1,100,2|0,0:2|0:0,0:0:0:0:
208,196,136026,1,0,0:0:0:0:
308,200,136193,2,0,L|308:64,1,100,0|0,0:0|0:0,0:0:0:0:
208,100,136526,6,0,L|208:204,1,100,0|0,0:0|0:0,0:0:0:0:
308,204,136860,1,0,0:0:0:0:
408,212,137026,1,0,0:0:0:0:
452,192,137110,1,0,0:0:0:0:
470,146,137193,1,0,0:0:0:0:
451,102,137276,1,0,0:0:0:0:
405,84,137360,1,0,0:0:0:0:
304,84,137526,1,0,0:0:0:0:
405,84,137693,1,0,0:0:0:0:
