osu file format v14

[General]
AudioFilename: audio.ogg
AudioLeadIn: 0
PreviewTime: 52526
Countdown: 0
SampleSet: Soft
StackLeniency: 0.7
Mode: 2
LetterboxInBreaks: 0
WidescreenStoryboard: 1

[Editor]
Bookmarks: 105860,116526,127193,137860
DistanceSpacing: 1
BeatDivisor: 2
GridSize: 4
TimelineZoom: 1.2

[Metadata]
Title:RE Aoharu
TitleUnicode:RE Aoharu
Artist:Nor feat. Kohara Konomi
ArtistUnicode:Nor feat. 小原好美
Creator:Kukkai
Version:Cup
Source:ブルーアーカイブ -Blue Archive-
Tags:-Luminate -Hex- Hex japanese aice room electronic instrumental nexon yostar video game Original Soundtrack Vol.3 ~Reaching for the precious time~ OST 59. Nor track_59 最終編 あまねく 奇跡の始発点編 final chapter amaneku remix track_34 prologue opening story プロローグ 4th PV ブルアカ promotional video version ver. ft. featuring arona アロナ
BeatmapID:4410731
BeatmapSetID:2099486

[Difficulty]
HPDrainRate:3
CircleSize:2.5
OverallDifficulty:6
ApproachRate:6
SliderMultiplier:1.2
SliderTickRate:0.5

[Events]
//Background and Video events
0,0,"56.jpg",0,0
Video,-80,"4th PV.mp4"
//Break Periods
//Storyboard Layer 0 (Background)
//Storyboard Layer 1 (Fail)
//Storyboard Layer 2 (Pass)
//Storyboard Layer 3 (Foreground)
//Storyboard Layer 4 (Overlay)
//Storyboard Sound Samples

[TimingPoints]
4527,333.333333333333,4,2,1,50,1,0
15193,-100,4,2,1,55,0,0
25860,-100,4,2,1,60,0,0
47526,-100,4,2,1,10,0,0
52526,-111.111111111111,4,2,2,40,0,0
63193,-100,4,2,1,50,0,0
68526,-100,4,2,1,55,0,0
69860,-100,4,2,1,60,0,0
71193,-100,4,2,1,62,0,0
72526,-100,4,2,1,65,0,0
73860,-100,4,2,1,70,0,0
95193,-100,4,2,1,70,0,1
116526,-100,4,2,1,40,0,0

[Colours]
Combo1 : 210,210,0
Combo2 : 38,255,255
Combo3 : 255,66,255

[HitObjects]
160,344,4526,6,0,P|152:276|184:192,1,120,0|0,3:2|3:2,0:0:0:0:
284,216,5193,2,0,L|284:64,1,120,0|8,3:2|3:2,0:0:0:0:
404,96,5860,6,0,P|412:168|392:236,1,120,0|0,3:2|3:2,0:0:0:0:
284,224,6526,2,0,L|132:224,1,120,8|8,3:2|3:2,0:0:0:0:
308,136,7193,6,0,L|432:136,2,120,8|0|0,3:2|3:2|3:2,0:0:0:0:
188,140,8193,1,8,3:2:0:0:
308,136,8526,6,0,L|308:280,1,120,0|0,3:2|3:2,0:0:0:0:
188,268,9193,2,0,L|104:268,2,60,8|0|8,3:2|0:0|3:2,0:0:0:0:
332,268,9860,6,0,L|488:268,2,120,8|0|0,3:2|3:2|3:2,0:0:0:0:
212,268,10860,6,0,L|212:120,1,120,8|0,3:2|3:2,0:0:0:0:
332,152,11526,1,0,3:2:0:0:
452,160,11860,2,0,L|452:16,1,120,8|8,3:2|3:2,0:0:0:0:
304,276,12526,6,0,L|160:276,2,120,8|0|0,3:2|3:2|3:2,0:0:0:0:
424,276,13526,6,0,L|424:140,1,120,8|0,3:2|3:2,0:0:0:0:
304,148,14193,1,0,3:2:0:0:
184,148,14526,2,0,L|184:272,1,120,8|8,3:2|3:2,0:0:0:0:
344,280,15193,6,0,L|480:280,2,120,12|8|8,3:1|3:1|3:1,0:0:0:0:
224,284,16193,1,8,3:1:0:0:
104,288,16526,6,0,L|104:140,1,120,8|8,3:1|3:1,0:0:0:0:
224,160,17193,2,0,L|356:160,1,120,8|8,3:1|3:1,0:0:0:0:
192,80,17860,6,0,L|40:80,2,120,8|8|8,3:1|3:1|3:1,0:0:0:0:
312,72,18860,1,8,3:1:0:0:
432,72,19193,6,0,L|432:212,1,120,8|8,3:1|3:1,0:0:0:0:
312,200,19860,1,8,3:1:0:0:
252,200,20026,1,0,0:0:0:0:
192,200,20193,1,8,3:1:0:0:
348,364,20526,6,0,L|348:216,1,120,8|8,3:1|3:1,0:0:0:0:
228,244,21193,2,0,L|228:88,1,120,8|8,3:1|3:1,0:0:0:0:
108,120,21860,6,0,L|264:120,1,120,8|8,3:1|3:1,0:0:0:0:
348,120,22526,2,0,L|348:252,1,120,8|8,3:1|3:1,0:0:0:0:
192,344,23193,6,0,L|56:344,2,120,8|8|8,3:1|3:1|3:1,0:0:0:0:
312,340,24193,1,8,3:2:0:0:
432,340,24526,6,0,L|208:340,2,180,0|0|0,3:2|0:2|3:2,0:0:0:0:
272,356,25860,6,0,L|272:212,1,120,4|8,3:1|3:2,0:0:0:0:
212,236,26360,1,8,0:2:0:0:
152,232,26526,2,0,L|152:104,1,120,0|8,3:2|3:2,0:0:0:0:
272,112,27193,6,0,L|408:112,1,120,0|0,3:3|3:2,0:0:0:0:
272,112,27860,2,0,L|136:112,1,120,8|8,3:2|3:2,0:0:0:0:
296,272,28526,6,0,L|432:272,1,120,4|8,3:1|3:2,0:0:0:0:
356,272,29026,1,8,0:2:0:0:
296,272,29193,1,0,3:2:0:0:
176,272,29526,1,8,3:2:0:0:
296,272,29860,6,0,L|296:112,1,120,0|0,3:2|3:2,0:0:0:0:
176,168,30526,2,0,L|176:16,1,120,8|8,3:2|3:2,0:0:0:0:
324,316,31193,6,0,L|200:288,1,120,4|8,3:1|3:2,0:0:0:0:
148,276,31693,1,8,0:2:0:0:
206,289,31860,2,0,L|336:320,1,120,0|8,3:2|3:2,0:0:0:0:
444,316,32526,6,0,L|444:184,1,120,0|0,3:2|3:2,0:0:0:0:
324,192,33193,2,0,L|452:192,1,120,8|8,3:2|3:2,0:0:0:0:
300,124,33860,6,0,L|176:124,1,120,4|8,3:1|3:2,0:0:0:0:
240,124,34360,1,8,0:2:0:0:
300,120,34526,2,0,L|300:244,1,120,0|8,3:2|3:2,0:0:0:0:
180,236,35193,6,0,L|36:236,2,120,0|0|8,3:2|3:2|3:2,0:0:0:0:
300,240,36193,1,8,3:2:0:0:
156,352,36526,6,0,L|156:224,1,120,4|8,3:1|3:1,0:0:0:0:
216,236,37026,1,8,0:1:0:0:
276,236,37193,2,0,L|276:88,1,120,8|8,3:1|3:1,0:0:0:0:
156,124,37860,6,0,L|64:124,2,60,0|8|8,3:3|0:1|3:1,0:0:0:0:
276,124,38526,1,8,3:1:0:0:
396,124,38860,1,8,3:1:0:0:
244,360,39193,6,0,L|244:220,1,120,4|8,3:1|3:1,0:0:0:0:
304,244,39693,1,8,0:1:0:0:
364,244,39860,2,0,L|492:244,1,120,8|8,3:1|3:1,0:0:0:0:
332,152,40526,6,0,L|332:80,2,60,0|8|8,3:3|0:1|3:1,0:0:0:0:
212,152,41193,2,0,L|80:152,1,120,8|8,3:1|3:1,0:0:0:0:
240,352,41860,6,0,P|252:280|228:220,1,120,4|8,3:1|3:1,0:0:0:0:
180,232,42360,1,8,0:1:0:0:
120,232,42526,2,0,L|120:96,1,120,8|8,3:1|3:1,0:0:0:0:
240,124,43193,6,0,L|324:120,2,60,4|8|8,3:1|0:1|3:1,0:0:0:0:
120,128,43860,2,0,L|272:128,1,120,8|8,3:1|3:1,0:0:0:0:
384,368,44526,6,0,P|400:304|348:244,1,120,4|8,3:1|3:1,0:0:0:0:
316,256,45026,1,8,3:1:0:0:
256,256,45193,1,8,3:1:0:0:
136,256,45526,1,8,3:1:0:0:
280,152,45860,6,0,L|436:152,1,120,2|8,3:1|0:0,0:0:0:0:
460,152,46360,2,0,L|304:152,1,120,2|8,3:1|0:0,0:0:0:0:
280,152,46860,1,2,3:1:0:0:
128,152,47193,5,4,3:2:0:0:
256,192,47526,12,0,52193,0:0:0:0:
300,320,52526,6,0,L|492:320,2,161.999995056153,2|2|2,0:2|0:2|0:2,0:0:0:0:
192,320,53860,6,0,P|160:248|212:172,1,161.999995056153,2|2,0:2|0:2,0:0:0:0:
360,180,54860,1,2,0:2:0:0:
252,184,55193,6,0,L|72:184,2,161.999995056153,2|2|2,0:2|0:2|0:2,0:0:0:0:
360,184,56526,6,0,P|384:120|320:16,1,161.999995056153,2|2,0:2|0:2,0:0:0:0:
188,32,57526,1,2,0:2:0:0:
296,28,57860,6,0,L|296:220,1,161.999995056153,2|2,0:2|0:2,0:0:0:0:
136,184,58860,1,2,0:2:0:0:
28,184,59193,6,0,L|212:184,2,161.999995056153,2|2|2,0:2|0:2|0:2,0:0:0:0:
136,184,60526,5,2,0:2:0:0:
296,192,61026,2,0,P|328:128|260:40,1,161.999995056153,2|2,0:2|0:2,0:0:0:0:
180,52,61860,6,0,L|16:52,2,161.999995056153,2|2|10,0:2|0:2|0:2,0:0:0:0:
320,240,63193,6,0,L|508:244,2,180,4|10|10,0:1|0:2|0:2,0:0:0:0:
200,248,64526,6,0,P|168:188|216:88,1,180,2|2,0:2|0:2,0:0:0:0:
272,92,65193,2,0,L|428:92,1,120,8|10,0:2|0:2,0:0:0:0:
272,332,65860,6,0,L|80:332,2,180,10|10|10,0:2|0:2|0:2,0:0:0:0:
392,340,67193,6,0,P|424:284|348:172,1,180,2|2,0:2|0:2,0:0:0:0:
320,184,67860,2,0,L|176:184,1,120,8|10,0:2|0:2,0:0:0:0:
340,332,68526,6,0,P|356:228|324:152,1,180,10|10,0:2|0:2,0:0:0:0:
148,156,69526,1,10,0:2:0:0:
28,160,69860,6,0,L|232:160,1,180,2|2,0:2|0:2,0:0:0:0:
268,160,70526,2,0,L|268:24,1,120,8|10,0:2|0:2,0:0:0:0:
136,376,71193,6,0,P|88:336|168:256,1,180,10|10,0:2|0:2,0:0:0:0:
320,256,72193,1,10,0:2:0:0:
440,256,72526,6,0,L|240:256,2,180,2|2|2,0:1|0:1|0:1,0:0:0:0:
296,360,73860,6,0,L|296:216,1,120,6|0,3:1|3:1,0:0:0:0:
176,240,74526,2,0,L|176:68,1,120,0|0,3:1|3:1,0:0:0:0:
296,124,75193,6,0,L|504:124,2,180,2|2|2,3:1|0:1|3:1,0:0:0:0:
152,368,76526,6,0,L|312:368,1,120,6|0,3:1|3:1,0:0:0:0:
392,368,77193,2,0,L|392:212,1,120,0|0,3:1|3:1,0:0:0:0:
272,244,77860,6,0,L|76:244,2,180,2|2|2,3:1|0:1|3:1,0:0:0:0:
128,272,79193,6,0,L|128:148,1,120,6|0,3:1|3:1,0:0:0:0:
248,156,79860,2,0,L|248:8,1,120,0|0,3:1|3:1,0:0:0:0:
128,28,80526,6,0,L|344:28,2,180,2|2|2,3:1|0:1|3:1,0:0:0:0:
272,376,81860,6,0,L|272:240,1,120,6|0,3:1|3:1,0:0:0:0:
392,252,82526,2,0,L|392:104,1,120,0|0,3:1|3:1,0:0:0:0:
272,140,83193,5,2,3:1:0:0:
92,140,83693,2,0,L|92:344,1,180,2|2,0:1|3:1,0:0:0:0:
236,344,84526,5,6,3:1:0:0:
356,344,84860,1,8,3:1:0:0:
236,340,85193,1,8,3:1:0:0:
236,220,85526,1,8,3:1:0:0:
356,216,85860,6,0,L|148:216,2,180,10|2|2,3:1|0:1|3:1,0:0:0:0:
212,208,87193,5,6,3:1:0:0:
212,88,87526,1,8,3:1:0:0:
332,88,87860,1,8,3:1:0:0:
212,88,88193,1,8,3:1:0:0:
92,88,88526,6,0,P|60:160|112:272,1,180,10|2,3:1|0:1,0:0:0:0:
272,256,89526,1,2,3:1:0:0:
416,260,89860,5,6,3:1:0:0:
416,260,90193,1,8,3:1:0:0:
296,256,90526,1,8,3:1:0:0:
176,252,90860,1,8,3:1:0:0:
296,256,91193,6,0,L|488:256,2,180,10|2|2,3:1|0:1|3:1,0:0:0:0:
152,256,92526,6,0,L|152:108,1,120,14|8,3:1|3:1,0:0:0:0:
212,140,93026,1,8,0:1:0:0:
272,140,93193,1,8,3:1:0:0:
392,140,93526,1,8,3:1:0:0:
272,64,93860,6,0,L|80:64,2,180,10|2|2,3:1|3:1|3:1,0:0:0:0:
416,344,95193,6,0,L|416:184,1,120,6|8,3:1|3:2,0:0:0:0:
356,224,95693,1,8,0:2:0:0:
296,224,95860,1,0,3:2:0:0:
176,224,96193,1,8,3:2:0:0:
296,224,96526,6,0,L|492:224,2,180,2|2|2,3:1|0:1|3:1,0:0:0:0:
152,216,97860,6,0,P|132:148|176:100,1,120,6|8,3:1|3:2,0:0:0:0:
216,108,98360,1,8,0:2:0:0:
276,108,98526,2,0,L|120:108,1,120,0|8,3:2|3:2,0:0:0:0:
36,108,99193,5,2,3:1:0:0:
216,108,99693,2,0,P|244:200|200:296,1,180,2|2,0:1|3:1,0:0:0:0:
76,336,100526,6,0,L|232:336,1,120,6|8,3:1|3:2,0:0:0:0:
256,336,101026,1,8,0:2:0:0:
316,340,101193,2,0,L|316:188,1,120,0|8,3:2|3:2,0:0:0:0:
196,228,101860,6,0,L|0:228,2,180,2|2|2,3:1|0:1|3:1,0:0:0:0:
336,228,103193,6,0,P|360:164|312:108,1,120,6|8,3:1|3:2,0:0:0:0:
276,124,103693,1,8,0:2:0:0:
217,122,103860,2,0,L|385:122,1,120,0|8,3:2|3:2,0:0:0:0:
456,124,104526,5,2,3:1:0:0:
276,128,105026,2,0,L|488:128,1,180,2|2,0:1|3:1,0:0:0:0:
312,376,105860,6,0,L|312:224,1,120,6|8,3:1|3:1,0:0:0:0:
252,248,106360,1,8,0:1:0:0:
192,240,106526,2,0,L|192:84,1,120,8|8,3:1|3:1,0:0:0:0:
312,112,107193,6,0,L|436:112,1,120,2|8,3:1|3:1,0:0:0:0:
492,112,107693,2,0,L|344:112,1,120,2|0,0:1|0:0,0:0:0:0:
312,112,108193,1,10,3:1:0:0:
168,356,108526,6,0,P|152:284|180:236,1,120,6|8,3:1|3:1,0:0:0:0:
232,248,109026,1,8,0:1:0:0:
292,248,109193,2,0,L|448:248,1,120,8|8,3:1|3:1,0:0:0:0:
292,248,109860,6,0,P|280:180|312:124,1,120,2|8,3:1|3:1,0:0:0:0:
360,136,110360,2,0,L|504:136,1,120,2|0,0:1|0:0,0:0:0:0:
420,136,110860,1,10,3:1:0:0:
276,364,111193,6,0,P|276:264|288:228,1,120,6|8,3:1|3:1,0:0:0:0:
340,248,111693,1,8,0:1:0:0:
400,248,111860,2,0,L|256:248,1,120,8|8,3:1|3:1,0:0:0:0:
160,248,112526,6,0,L|28:248,1,120,6|8,3:1|3:1,0:0:0:0:
100,248,113026,2,0,L|232:248,1,120,2|0,0:1|0:0,0:0:0:0:
220,248,113526,1,10,3:1:0:0:
76,164,113860,6,0,P|56:104|92:56,1,120,6|8,3:1|3:1,0:0:0:0:
144,60,114360,1,8,3:1:0:0:
204,60,114526,1,8,3:1:0:0:
84,60,114860,1,8,3:1:0:0:
204,60,115193,6,0,L|400:60,2,180,2|2|2,3:1|3:1|3:1,0:0:0:0:
336,352,116526,6,0,L|336:204,1,120,2|2,0:1|0:2,0:0:0:0:
216,228,117193,2,0,L|216:88,1,120,0|0,0:0|0:0,0:0:0:0:
96,112,117860,6,0,L|96:256,1,120,0|0,0:0|0:0,0:0:0:0:
216,220,118526,1,0,0:0:0:0:
156,220,118692,1,0,0:0:0:0:
96,220,118859,1,0,0:0:0:0:
240,128,119193,6,0,L|364:128,2,120,2|2|0,0:2|0:2|0:0,0:0:0:0:
120,132,120193,1,0,0:0:0:0:
240,136,120526,6,0,L|240:300,1,120,0|0,0:0|0:0,0:0:0:0:
360,268,121193,1,0,0:0:0:0:
360,208,121359,1,0,0:0:0:0:
360,148,121526,1,0,0:0:0:0:
216,164,121860,6,0,L|64:164,2,120,2|2|0,0:2|0:2|0:0,0:0:0:0:
336,164,122860,1,0,0:0:0:0:
456,168,123193,6,0,L|456:316,1,120,0|0,0:0|0:0,0:0:0:0:
336,284,123860,1,0,0:0:0:0:
396,284,124026,1,0,0:0:0:0:
456,284,124193,1,0,0:0:0:0:
308,348,124526,6,0,L|308:208,1,120,2|2,0:2|0:2,0:0:0:0:
428,228,125193,2,0,L|260:228,1,120,0|0,0:0|0:0,0:0:0:0:
188,228,125860,6,0,L|188:88,1,120,0|0,0:0|0:0,0:0:0:0:
308,108,126526,2,0,L|400:108,2,60,0|0|0,0:0|0:0|0:0,0:0:0:0:
164,360,127193,6,0,L|164:236,1,120,2|2,0:2|0:2,0:0:0:0:
284,236,127860,2,0,L|284:96,1,120,0|0,0:0|0:0,0:0:0:0:
164,120,128526,6,0,L|16:120,2,120,0|0|0,0:0|0:0|0:0,0:0:0:0:
224,120,129360,1,0,0:0:0:0:
284,120,129526,1,0,0:0:0:0:
432,368,129860,6,0,L|432:240,1,120,2|2,0:2|0:2,0:0:0:0:
312,244,130526,2,0,L|312:104,1,120,0|0,0:0|0:0,0:0:0:0:
192,120,131193,6,0,L|48:120,2,120,0|0|0,0:0|0:0|0:0,0:0:0:0:
252,120,132026,1,0,0:0:0:0:
312,120,132193,1,0,0:0:0:0:
168,376,132526,6,0,L|168:232,1,120,2|2,0:2|0:2,0:0:0:0:
288,248,133193,2,0,L|288:100,1,120,0|0,0:0|0:0,0:0:0:0:
408,124,133860,6,0,L|408:-4,1,120,0|0,0:0|0:0,0:0:0:0:
288,4,134526,1,0,0:0:0:0:
228,4,134692,1,0,0:0:0:0:
168,4,134859,1,0,0:0:0:0:
312,368,135193,6,0,L|312:224,1,120,2|2,0:2|0:2,0:0:0:0:
192,228,135860,2,0,L|192:96,1,120,0|0,0:0|0:0,0:0:0:0:
72,116,136526,6,0,L|72:272,1,120,0|0,0:0|0:0,0:0:0:0:
192,244,137193,2,0,L|48:244,1,120,0|0,0:0|0:0,0:0:0:0:
12,244,137693,1,0,0:0:0:0:
