osu file format v14

[General]
AudioFilename: audio.ogg
AudioLeadIn: 0
PreviewTime: 79237
Countdown: 0
SampleSet: Soft
StackLeniency: 0.7
Mode: 0
LetterboxInBreaks: 0
WidescreenStoryboard: 0

[Editor]
Bookmarks: 786,12080,23374,34668,45962,57256,68550,79844,91138,102433,113727
DistanceSpacing: 1.2
BeatDivisor: 4
GridSize: 32
TimelineZoom: 1.7

[Metadata]
Title:Usagi Flap
TitleUnicode:Usagi Flap
Artist:Nor
ArtistUnicode:Nor
Creator:newton-
Version:Rabbit
Source:ブルーアーカイブ -Blue Archive-
Tags:midorijeon amateurre kyuuchie fukari-tan ブルアカ future bass electronic instrumental video game yostar nat games theme 113
BeatmapID:4197935
BeatmapSetID:2016404

[Difficulty]
HPDrainRate:5.5
CircleSize:4
OverallDifficulty:8.8
ApproachRate:9.4
SliderMultiplier:1.8
SliderTickRate:1

[Events]
//Background and Video events
0,0,"rabbittime.jpg",0,0
//Break Periods
//Storyboard Layer 0 (Background)
//Storyboard Layer 1 (Fail)
//Storyboard Layer 2 (Pass)
//Storyboard Layer 3 (Foreground)
//Storyboard Layer 4 (Overlay)
//Storyboard Sound Samples

[TimingPoints]
257,352.941176470588,4,2,1,60,1,0
786,352.941176470588,4,2,1,60,1,0
786,-125,4,2,1,60,0,0
962,-125,4,2,1,5,0,0
1138,-125,4,2,1,60,0,0
1314,-125,4,2,1,5,0,0
1491,-125,4,2,1,60,0,0
6433,-100,4,2,1,60,0,0
6697,-100,4,2,1,5,0,0
6786,-100,4,2,1,60,0,0
9256,-100,4,2,1,55,0,0
12080,-83.3333333333333,4,2,2,75,0,0
12256,-66.6666666666667,4,2,3,75,0,0
12344,-66.6666666666667,4,2,3,5,0,0
12433,-83.3333333333333,4,2,3,75,0,0
12609,-66.6666666666667,4,2,3,75,0,0
12697,-66.6666666666667,4,2,3,5,0,0
12786,-100,4,2,3,75,0,0
13050,-100,4,2,3,5,0,0
13138,-50,4,2,3,75,0,0
13402,-50,4,2,3,5,0,0
13491,-83.3333333333333,4,2,3,75,0,0
13668,-66.6666666666667,4,2,3,75,0,0
13756,-66.6666666666667,4,2,3,5,0,0
13844,-83.3333333333333,4,2,3,75,0,0
14021,-66.6666666666667,4,2,3,75,0,0
14109,-66.6666666666667,4,2,3,5,0,0
14197,-66.6666666666667,4,2,3,75,0,0
14903,-83.3333333333333,4,2,3,75,0,0
15080,-66.6666666666667,4,2,3,75,0,0
15168,-66.6666666666667,4,2,3,5,0,0
15256,-83.3333333333333,4,2,3,75,0,0
15433,-66.6666666666667,4,2,3,75,0,0
15521,-66.6666666666667,4,2,3,5,0,0
15609,-142.857142857143,4,2,3,75,0,0
15962,-66.6666666666667,4,2,3,75,0,0
16226,-66.6666666666667,4,2,3,5,0,0
16315,-66.6666666666667,4,2,3,75,0,0
16579,-66.6666666666667,4,2,3,5,0,0
16668,-66.6666666666667,4,2,3,75,0,0
16756,-66.6666666666667,4,2,3,5,0,0
16844,-66.6666666666667,4,2,3,75,0,0
16932,-66.6666666666667,4,2,3,5,0,0
17021,-66.6666666666667,4,2,3,75,0,0
17374,-66.6666666666667,4,2,4,75,0,0
17727,-83.3333333333333,4,2,1,75,0,0
17903,-66.6666666666667,4,2,1,75,0,0
17991,-66.6666666666667,4,2,1,5,0,0
18080,-83.3333333333333,4,2,3,75,0,0
18256,-66.6666666666667,4,2,3,75,0,0
18344,-66.6666666666667,4,2,3,5,0,0
18433,-100,4,2,3,75,0,0
18697,-100,4,2,3,5,0,0
18786,-66.6666666666667,4,2,3,75,0,0
18874,-66.6666666666667,4,2,3,5,0,0
18962,-66.6666666666667,4,2,3,75,0,0
19138,-83.3333333333333,4,2,3,75,0,0
19315,-66.6666666666667,4,2,3,75,0,0
19403,-66.6666666666667,4,2,3,5,0,0
19491,-83.3333333333333,4,2,3,75,0,0
19668,-66.6666666666667,4,2,3,75,0,0
19756,-66.6666666666667,4,2,3,5,0,0
19844,-66.6666666666667,4,2,3,75,0,0
20550,-83.3333333333333,4,2,3,75,0,0
20727,-66.6666666666667,4,2,3,75,0,0
20815,-66.6666666666667,4,2,3,5,0,0
20903,-83.3333333333333,4,2,3,75,0,0
21080,-66.6666666666667,4,2,3,75,0,0
21168,-66.6666666666667,4,2,3,5,0,0
21256,-66.6666666666667,4,2,3,75,0,0
21520,-66.6666666666667,4,2,3,5,0,0
21609,-83.3333333333333,4,2,3,75,0,0
22668,-83.3333333333333,4,2,1,75,0,0
23021,-50,4,2,5,75,0,0
23285,-50,4,2,5,5,0,0
23374,-66.6666666666667,4,2,2,75,0,0
23462,-66.6666666666667,4,2,2,5,0,0
23550,-66.6666666666667,4,2,3,75,0,0
23638,-66.6666666666667,4,2,3,5,0,0
23727,-66.6666666666667,4,2,3,75,0,0
23815,-66.6666666666667,4,2,3,5,0,0
23903,-66.6666666666667,4,2,3,75,0,0
23991,-66.6666666666667,4,2,3,5,0,0
24080,-66.6666666666667,4,2,3,75,0,0
24344,-66.6666666666667,4,2,3,5,0,0
24433,-76.9230769230769,4,2,3,75,0,0
24697,-76.9230769230769,4,2,3,5,0,0
24786,-66.6666666666667,4,2,3,75,0,0
24874,-66.6666666666667,4,2,3,5,0,0
24962,-66.6666666666667,4,2,3,75,0,0
25050,-66.6666666666667,4,2,3,5,0,0
25138,-66.6666666666667,4,2,3,75,0,0
25226,-66.6666666666667,4,2,3,5,0,0
25315,-66.6666666666667,4,2,3,75,0,0
25403,-66.6666666666667,4,2,3,5,0,0
25491,-66.6666666666667,4,2,3,75,0,0
26285,-66.6666666666667,4,2,3,5,0,0
26374,-66.6666666666667,4,2,3,75,0,0
26462,-66.6666666666667,4,2,3,5,0,0
26550,-66.6666666666667,4,2,3,75,0,0
26638,-66.6666666666667,4,2,3,5,0,0
26727,-66.6666666666667,4,2,3,75,0,0
26815,-66.6666666666667,4,2,3,5,0,0
26903,-66.6666666666667,4,2,3,75,0,0
27168,-66.6666666666667,4,2,3,5,0,0
27256,-66.6666666666667,4,2,3,75,0,0
27520,-66.6666666666667,4,2,3,5,0,0
27609,-66.6666666666667,4,2,3,75,0,0
27697,-66.6666666666667,4,2,3,5,0,0
27786,-66.6666666666667,4,2,3,75,0,0
27874,-66.6666666666667,4,2,3,5,0,0
27962,-66.6666666666667,4,2,3,75,0,0
28050,-66.6666666666667,4,2,3,5,0,0
28138,-66.6666666666667,4,2,3,75,0,0
28226,-66.6666666666667,4,2,3,5,0,0
28315,-66.6666666666667,4,2,3,75,0,0
28668,-66.6666666666667,4,2,4,75,0,0
29021,-66.6666666666667,4,2,1,75,0,0
29109,-66.6666666666667,4,2,1,5,0,0
29197,-66.6666666666667,4,2,1,75,0,0
29285,-66.6666666666667,4,2,1,5,0,0
29374,-66.6666666666667,4,2,3,75,0,0
29462,-66.6666666666667,4,2,3,5,0,0
29550,-66.6666666666667,4,2,3,75,0,0
29638,-66.6666666666667,4,2,3,5,0,0
29727,-66.6666666666667,4,2,3,75,0,0
29991,-66.6666666666667,4,2,3,5,0,0
30080,-66.6666666666667,4,2,3,75,0,0
30521,-66.6666666666667,4,2,3,5,0,0
30609,-66.6666666666667,4,2,3,75,0,0
30697,-66.6666666666667,4,2,3,5,0,0
30786,-66.6666666666667,4,2,3,75,0,0
30874,-66.6666666666667,4,2,3,5,0,0
30962,-66.6666666666667,4,2,3,75,0,0
31050,-66.6666666666667,4,2,3,5,0,0
31138,-66.6666666666667,4,2,3,75,0,0
31402,-66.6666666666667,4,2,3,5,0,0
31491,-66.6666666666667,4,2,3,75,0,0
31756,-66.6666666666667,4,2,3,5,0,0
31844,-66.6666666666667,4,2,3,75,0,0
31932,-66.6666666666667,4,2,3,5,0,0
32021,-66.6666666666667,4,2,3,75,0,0
32109,-66.6666666666667,4,2,3,5,0,0
32197,-66.6666666666667,4,2,3,75,0,0
32285,-66.6666666666667,4,2,3,5,0,0
32374,-66.6666666666667,4,2,3,75,0,0
32462,-66.6666666666667,4,2,3,5,0,0
32550,-66.6666666666667,4,2,3,75,0,0
32814,-66.6666666666667,4,2,3,5,0,0
32903,-66.6666666666667,4,2,3,75,0,0
32991,-66.6666666666667,4,2,3,5,0,0
33080,-66.6666666666667,4,2,3,75,0,0
34668,-133.333333333333,4,2,1,70,0,0
34756,-133.333333333333,4,2,1,5,0,0
35021,-133.333333333333,4,2,3,70,0,0
35109,-133.333333333333,4,2,3,5,0,0
35374,-133.333333333333,4,2,3,70,0,0
35462,-133.333333333333,4,2,3,5,0,0
35727,-133.333333333333,4,2,3,70,0,0
37314,-133.333333333333,4,2,3,5,0,0
37491,-133.333333333333,4,2,3,70,0,0
37579,-133.333333333333,4,2,3,5,0,0
37844,-133.333333333333,4,2,3,70,0,0
37932,-133.333333333333,4,2,3,5,0,0
38197,-133.333333333333,4,2,3,70,0,0
38374,-133.333333333333,4,2,3,70,0,0
40138,-133.333333333333,4,2,3,5,0,0
40315,-133.333333333333,4,2,1,70,0,0
40403,-133.333333333333,4,2,1,5,0,0
40668,-133.333333333333,4,2,3,70,0,0
40756,-133.333333333333,4,2,3,5,0,0
41021,-133.333333333333,4,2,3,70,0,0
41109,-133.333333333333,4,2,3,5,0,0
41374,-133.333333333333,4,2,3,70,0,0
42962,-133.333333333333,4,2,3,5,0,0
43138,-133.333333333333,4,2,3,70,0,0
43226,-133.333333333333,4,2,3,5,0,0
43491,-133.333333333333,4,2,3,70,0,0
43579,-133.333333333333,4,2,3,5,0,0
43844,-133.333333333333,4,2,3,70,0,0
44021,-133.333333333333,4,2,3,70,0,0
44726,-133.333333333333,4,2,3,5,0,0
44903,-133.333333333333,4,2,3,70,0,0
45079,-133.333333333333,4,2,3,5,0,0
45256,-133.333333333333,4,2,3,70,0,0
45962,-133.333333333333,4,2,6,60,0,0
46844,-133.333333333333,4,2,6,5,0,0
47021,-133.333333333333,4,2,6,60,0,0
47549,-133.333333333333,4,2,6,5,0,0
47727,-133.333333333333,4,2,6,60,0,0
50373,-133.333333333333,4,2,6,5,0,0
50550,-133.333333333333,4,2,6,60,0,0
51785,-133.333333333333,4,2,6,5,0,0
51962,-133.333333333333,4,2,6,60,0,0
52138,-133.333333333333,4,2,6,5,0,0
52315,-133.333333333333,4,2,6,60,0,0
55668,-500,4,2,6,60,0,0
56373,-500,4,2,6,5,0,0
56550,-100,4,2,6,60,0,0
57256,-133.333333333333,4,2,6,65,0,0
57344,-133.333333333333,4,2,6,5,0,0
57433,-133.333333333333,4,2,6,65,0,0
58579,-133.333333333333,4,2,6,5,0,0
58668,-133.333333333333,4,2,6,65,0,0
59285,-133.333333333333,4,2,6,5,0,0
59374,-133.333333333333,4,2,6,65,0,0
60168,-133.333333333333,4,2,6,5,0,0
60256,-133.333333333333,4,2,6,65,0,0
60874,-133.333333333333,4,2,6,5,0,0
60962,-133.333333333333,4,2,6,65,0,0
61403,-133.333333333333,4,2,6,5,0,0
61491,-133.333333333333,4,2,6,65,0,0
62462,-133.333333333333,4,2,6,5,0,0
62550,-133.333333333333,4,2,6,65,0,0
62991,-133.333333333333,4,2,6,5,0,0
63080,-133.333333333333,4,2,6,65,0,0
64226,-133.333333333333,4,2,6,5,0,0
64315,-133.333333333333,4,2,6,65,0,0
64932,-133.333333333333,4,2,6,5,0,0
65021,-133.333333333333,4,2,6,65,0,0
65815,-133.333333333333,4,2,6,5,0,0
65903,-133.333333333333,4,2,6,65,0,0
66521,-133.333333333333,4,2,6,5,0,0
66609,-133.333333333333,4,2,6,65,0,0
67315,-133.333333333333,4,2,7,65,0,0
67403,-133.333333333333,4,2,8,65,0,0
67491,-133.333333333333,4,2,9,65,0,0
67580,-133.333333333333,4,2,10,65,0,0
67668,-133.333333333333,4,2,8,65,0,0
67844,-133.333333333333,4,2,2,65,0,0
67933,-133.333333333333,4,2,3,65,0,0
68021,-133.333333333333,4,2,2,65,0,0
68197,-50,4,2,11,65,0,0
68373,-50,4,2,2,65,0,0
68550,-100,4,2,2,70,0,0
68638,-100,4,2,2,5,0,0
68727,-100,4,2,2,70,0,0
68903,-100,4,2,3,70,0,0
68991,-100,4,2,3,5,0,0
69080,-100,4,2,3,70,0,0
70050,-100,4,2,3,5,0,0
70138,-100,4,2,3,70,0,0
70403,-100,4,2,3,5,0,0
70491,-100,4,2,3,70,0,0
71021,-100,4,2,12,70,0,0
71197,-100,4,2,13,70,0,0
71462,-100,4,2,13,5,0,0
71550,-100,4,2,13,70,0,0
71638,-100,4,2,13,5,0,0
71727,-100,4,2,3,70,0,0
71815,-100,4,2,3,5,0,0
71903,-100,4,2,3,70,0,0
71991,-100,4,2,3,5,0,0
72080,-100,4,2,3,70,0,0
72256,-100,4,2,3,5,0,0
72344,-100,4,2,3,70,0,0
72433,-100,4,2,12,70,0,0
72609,-100,4,2,13,70,0,0
73138,-100,4,2,12,70,0,0
73182,-100,4,2,13,70,0,0
73844,-100,4,2,12,70,0,0
74021,-100,4,2,13,70,0,0
74197,-83.3333333333333,4,2,14,70,0,0
76668,-83.3333333333333,4,2,15,70,0,0
76712,-83.3333333333333,4,2,13,70,0,0
77021,-83.3333333333333,4,2,15,70,0,0
77197,-83.3333333333333,4,2,13,70,0,0
77374,-83.3333333333333,4,2,15,70,0,0
77550,-83.3333333333333,4,2,13,70,0,0
77727,-66.6666666666667,4,2,15,70,0,0
77815,-66.6666666666667,4,2,15,5,0,0
77903,-66.6666666666667,4,2,13,70,0,0
78080,-66.6666666666667,4,2,15,70,0,0
78168,-66.6666666666667,4,2,15,5,0,0
78256,-66.6666666666667,4,2,13,70,0,0
78344,-66.6666666666667,4,2,13,5,0,0
78433,-66.6666666666667,4,2,16,70,0,0
78521,-66.6666666666667,4,2,17,70,0,0
78786,-66.6666666666667,4,2,16,70,0,0
78874,-66.6666666666667,4,2,17,70,0,0
79138,-66.6666666666667,4,2,1,70,0,0
79491,-40,4,2,1,70,0,0
79579,-40,4,2,1,5,0,0
79668,-40,4,2,7,70,0,0
79756,-40,4,2,7,5,0,0
79844,-83.3333333333333,4,2,2,80,0,0
79933,-83.3333333333333,4,2,2,5,0,0
80021,-66.6666666666667,4,2,8,80,0,0
80109,-66.6666666666667,4,2,8,5,0,0
80197,-83.3333333333333,4,2,3,80,0,0
80374,-66.6666666666667,4,2,8,80,0,0
80462,-66.6666666666667,4,2,8,5,0,0
80550,-133.333333333333,4,2,1,80,0,0
80638,-133.333333333333,4,2,1,5,0,0
80727,-133.333333333333,4,2,2,80,0,0
80815,-133.333333333333,4,2,2,5,0,0
80903,-45.4545454545455,4,2,3,80,0,0
81080,-45.4545454545455,4,2,8,80,0,0
81167,-45.4545454545455,4,2,8,5,0,0
81256,-66.6666666666667,4,2,1,80,0,0
81344,-66.6666666666667,4,2,1,5,0,0
81433,-66.6666666666667,4,2,8,80,0,0
81521,-66.6666666666667,4,2,8,5,0,0
81609,-66.6666666666667,4,2,3,80,0,0
81697,-66.6666666666667,4,2,3,5,0,0
81786,-66.6666666666667,4,2,8,80,0,0
81874,-66.6666666666667,4,2,8,5,0,0
81962,-66.6666666666667,4,2,1,80,0,0
82138,-66.6666666666667,4,2,2,80,0,0
82315,-100,4,2,3,80,0,0
82403,-100,4,2,3,5,0,0
82491,-100,4,2,8,80,0,0
82579,-100,4,2,8,5,0,0
82668,-83.3333333333333,4,2,1,80,0,0
82766,-83.3333333333333,4,2,1,5,0,0
82844,-66.6666666666667,4,2,8,80,0,0
82932,-66.6666666666667,4,2,8,5,0,0
83021,-83.3333333333333,4,2,3,80,0,0
83197,-66.6666666666667,4,2,8,80,0,0
83285,-66.6666666666667,4,2,8,5,0,0
83374,-50,4,2,1,80,0,0
83550,-50,4,2,2,80,0,0
83727,-66.6666666666667,4,2,3,80,0,0
83903,-66.6666666666667,4,2,8,80,0,0
84080,-66.6666666666667,4,2,1,80,0,0
84168,-66.6666666666667,4,2,1,5,0,0
84256,-66.6666666666667,4,2,8,80,0,0
84344,-66.6666666666667,4,2,8,5,0,0
84433,-66.6666666666667,4,2,3,80,0,0
84521,-66.6666666666667,4,2,3,5,0,0
84609,-66.6666666666667,4,2,8,80,0,0
84697,-66.6666666666667,4,2,8,5,0,0
84786,-66.6666666666667,4,2,1,80,0,0
84962,-66.6666666666667,4,2,2,80,0,0
85138,-66.6666666666667,4,2,4,80,0,0
85315,-66.6666666666667,4,2,2,80,0,0
85491,-83.3333333333333,4,2,1,80,0,0
85590,-83.3333333333333,4,2,1,5,0,0
85668,-66.6666666666667,4,2,8,80,0,0
85756,-66.6666666666667,4,2,8,5,0,0
85844,-83.3333333333333,4,2,3,80,0,0
86021,-66.6666666666667,4,2,8,80,0,0
86109,-66.6666666666667,4,2,8,5,0,0
86197,-133.333333333333,4,2,1,80,0,0
86285,-133.333333333333,4,2,1,5,0,0
86374,-133.333333333333,4,2,2,80,0,0
86462,-133.333333333333,4,2,2,5,0,0
86550,-133.333333333333,4,2,3,80,0,0
86727,-133.333333333333,4,2,8,80,0,0
86903,-66.6666666666667,4,2,1,80,0,0
86991,-66.6666666666667,4,2,1,5,0,0
87080,-66.6666666666667,4,2,8,80,0,0
87168,-66.6666666666667,4,2,8,5,0,0
87256,-66.6666666666667,4,2,3,80,0,0
87344,-66.6666666666667,4,2,3,5,0,0
87433,-66.6666666666667,4,2,8,80,0,0
87521,-66.6666666666667,4,2,8,5,0,0
87609,-66.6666666666667,4,2,1,80,0,0
87786,-66.6666666666667,4,2,2,80,0,0
87962,-100,4,2,3,80,0,0
88050,-100,4,2,3,5,0,0
88138,-100,4,2,8,80,0,0
88226,-100,4,2,8,5,0,0
88315,-66.6666666666667,4,2,1,80,0,0
88403,-66.6666666666667,4,2,1,5,0,0
88491,-66.6666666666667,4,2,8,80,0,0
88579,-66.6666666666667,4,2,8,5,0,0
88668,-66.6666666666667,4,2,3,80,0,0
88756,-66.6666666666667,4,2,3,5,0,0
88844,-66.6666666666667,4,2,8,80,0,0
88932,-66.6666666666667,4,2,8,5,0,0
89021,-66.6666666666667,4,2,1,80,0,0
89109,-66.6666666666667,4,2,1,5,0,0
89197,-66.6666666666667,4,2,2,80,0,0
89285,-66.6666666666667,4,2,2,5,0,0
89374,-66.6666666666667,4,2,3,80,0,0
89550,-66.6666666666667,4,2,8,80,0,0
89727,-66.6666666666667,4,2,1,80,0,0
89903,-66.6666666666667,4,2,8,80,0,0
90080,-66.6666666666667,4,2,2,80,0,0
90433,-66.6666666666667,4,2,1,80,0,0
90609,-66.6666666666667,4,2,3,80,0,0
90786,-45.4545454545455,4,2,5,80,0,0
90962,-45.4545454545455,4,2,8,80,0,0
91050,-45.4545454545455,4,2,8,5,0,0
91138,-50,4,2,2,80,0,0
91226,-50,4,2,2,5,0,0
91315,-50,4,2,8,80,0,0
91403,-50,4,2,8,5,0,0
91491,-50,4,2,3,80,0,0
91579,-50,4,2,3,5,0,0
91668,-50,4,2,8,80,0,0
91756,-50,4,2,8,5,0,0
91844,-100,4,2,1,80,0,0
91932,-100,4,2,1,5,0,0
92021,-100,4,2,2,80,0,0
92109,-100,4,2,2,5,0,0
92197,-100,4,2,3,80,0,0
92285,-100,4,2,3,5,0,0
92374,-100,4,2,8,80,0,0
92462,-100,4,2,8,5,0,0
92550,-100,4,2,1,80,0,0
92638,-100,4,2,1,5,0,0
92727,-80,4,2,8,80,0,0
92815,-80,4,2,8,5,0,0
92903,-66.6666666666667,4,2,3,80,0,0
92991,-66.6666666666667,4,2,3,5,0,0
93080,-50,4,2,8,80,0,0
93168,-50,4,2,8,5,0,0
93256,-50,4,2,1,80,0,0
93432,-50,4,2,2,80,0,0
93609,-100,4,2,3,80,0,0
93697,-100,4,2,3,5,0,0
93786,-100,4,2,8,80,0,0
93874,-100,4,2,8,5,0,0
93962,-50,4,2,1,80,0,0
94050,-50,4,2,1,5,0,0
94138,-50,4,2,8,80,0,0
94226,-50,4,2,8,5,0,0
94315,-50,4,2,3,80,0,0
94403,-50,4,2,3,5,0,0
94491,-50,4,2,8,80,0,0
94579,-50,4,2,8,5,0,0
94668,-100,4,2,1,80,0,0
94756,-100,4,2,1,5,0,0
94844,-100,4,2,2,80,0,0
94932,-100,4,2,2,5,0,0
95021,-100,4,2,3,80,0,0
95109,-100,4,2,3,5,0,0
95197,-100,4,2,8,80,0,0
95285,-100,4,2,8,5,0,0
95374,-100,4,2,1,80,0,0
95462,-100,4,2,1,5,0,0
95550,-80,4,2,8,80,0,0
95638,-80,4,2,8,5,0,0
95727,-66.6666666666667,4,2,3,80,0,0
95815,-66.6666666666667,4,2,3,5,0,0
95903,-50,4,2,8,80,0,0
95991,-50,4,2,8,5,0,0
96080,-50,4,2,1,80,0,0
96256,-50,4,2,2,80,0,0
96433,-50,4,2,4,80,0,0
96609,-50,4,2,2,80,0,0
96786,-50,4,2,1,80,0,0
96874,-50,4,2,1,5,0,0
96962,-50,4,2,8,80,0,0
97050,-50,4,2,8,5,0,0
97138,-50,4,2,3,80,0,0
97226,-50,4,2,3,5,0,0
97315,-50,4,2,8,80,0,0
97403,-50,4,2,8,5,0,0
97491,-100,4,2,1,80,0,0
97579,-100,4,2,1,5,0,0
97668,-100,4,2,2,80,0,0
97756,-100,4,2,2,5,0,0
97844,-100,4,2,3,80,0,0
98021,-100,4,2,8,80,0,0
98197,-50,4,2,1,80,0,0
98285,-50,4,2,1,5,0,0
98374,-50,4,2,8,80,0,0
98462,-50,4,2,8,5,0,0
98550,-50,4,2,3,80,0,0
98638,-50,4,2,3,5,0,0
98727,-50,4,2,8,80,0,0
98815,-50,4,2,8,5,0,0
98903,-100,4,2,1,80,0,0
98991,-100,4,2,1,5,0,0
99080,-100,4,2,2,80,0,0
99168,-100,4,2,2,5,0,0
99256,-100,4,2,3,80,0,0
99433,-100,4,2,8,80,0,0
99609,-50,4,2,1,80,0,0
99697,-50,4,2,1,5,0,0
99786,-50,4,2,8,80,0,0
99874,-50,4,2,8,5,0,0
99962,-50,4,2,3,80,0,0
100050,-50,4,2,3,5,0,0
100138,-50,4,2,8,80,0,0
100226,-50,4,2,8,5,0,0
100315,-100,4,2,1,80,0,0
100403,-100,4,2,1,5,0,0
100491,-100,4,2,2,80,0,0
100579,-100,4,2,2,5,0,0
100668,-100,4,2,3,80,0,0
100756,-100,4,2,3,5,0,0
100844,-100,4,2,8,80,0,0
101021,-100,4,2,1,80,0,0
101197,-100,4,2,18,80,0,0
101550,-100,4,2,2,80,0,0
101903,-66.6666666666667,4,2,18,80,0,0
101991,-66.6666666666667,4,2,18,5,0,0
102080,-50,4,2,5,80,0,0
102256,-50,4,2,8,80,0,0
102433,-50,4,2,1,70,0,0
102609,-100,4,2,1,70,0,0
102697,-100,4,2,1,5,0,0
102786,-100,4,2,3,70,0,0
102874,-100,4,2,3,5,0,0
102962,-100,4,2,3,70,0,0
103050,-100,4,2,3,5,0,0
103138,-100,4,2,3,70,0,0
104109,-100,4,2,3,5,0,0
104197,-100,4,2,3,70,0,0
104285,-100,4,2,3,5,0,0
104374,-100,4,2,3,70,0,0
104462,-100,4,2,3,5,0,0
104550,-100,4,2,3,70,0,0
105521,-100,4,2,3,5,0,0
105609,-100,4,2,3,70,0,0
105697,-100,4,2,3,5,0,0
105786,-100,4,2,3,70,0,0
105874,-100,4,2,3,5,0,0
105962,-100,4,2,3,70,0,0
106932,-100,4,2,3,5,0,0
107021,-100,4,2,3,70,0,0
107109,-100,4,2,3,5,0,0
107197,-100,4,2,3,70,0,0
107285,-100,4,2,3,5,0,0
107374,-80,4,2,3,70,0,0
107638,-80,4,2,3,5,0,0
107727,-80,4,2,3,70,0,0
108079,-80,4,2,1,70,0,0
108256,-83.3333333333333,4,2,1,70,0,0
108433,-83.3333333333333,4,2,3,70,0,0
109050,-83.3333333333333,4,2,3,5,0,0
109138,-66.6666666666667,4,2,3,70,0,0
109226,-66.6666666666667,4,2,3,5,0,0
109315,-66.6666666666667,4,2,3,70,0,0
109403,-66.6666666666667,4,2,3,5,0,0
109491,-66.6666666666667,4,2,3,70,0,0
109668,-83.3333333333333,4,2,3,70,0,0
110461,-83.3333333333333,4,2,3,5,0,0
110550,-66.6666666666667,4,2,3,70,0,0
110638,-66.6666666666667,4,2,3,5,0,0
110727,-66.6666666666667,4,2,3,70,0,0
110815,-66.6666666666667,4,2,3,5,0,0
110903,-66.6666666666667,4,2,3,70,0,0
111080,-83.3333333333333,4,2,3,70,0,0
111873,-83.3333333333333,4,2,3,5,0,0
111962,-66.6666666666667,4,2,3,70,0,0
112050,-66.6666666666667,4,2,3,5,0,0
112138,-66.6666666666667,4,2,3,70,0,0
112226,-66.6666666666667,4,2,3,5,0,0
112315,-66.6666666666667,4,2,3,70,0,0
112491,-83.3333333333333,4,2,3,70,0,0
113021,-83.3333333333333,4,2,1,70,0,0
113374,-55.5555555555556,4,2,5,70,0,0
113638,-55.5555555555556,4,2,5,5,0,0
113727,-83.3333333333333,4,2,1,70,0,0
113903,-83.3333333333333,4,2,1,5,0,0
114080,-83.3333333333333,4,2,3,70,0,0
114256,-83.3333333333333,4,2,3,5,0,0
114433,-83.3333333333333,4,2,3,70,0,0
119374,-83.3333333333333,4,2,1,70,0,0
119638,-83.3333333333333,4,2,1,5,0,0
119727,-83.3333333333333,4,2,3,70,0,0
120873,-83.3333333333333,4,2,3,5,0,0
120962,-83.3333333333333,4,2,3,70,0,0
121491,-83.3333333333333,4,2,1,70,0,0
121844,-83.3333333333333,4,2,5,70,0,0
122197,-83.3333333333333,4,2,5,55,0,0
123433,-83.3333333333333,4,2,9,55,0,0

[Colours]
Combo1 : 253,159,149
Combo2 : 123,198,253
Combo3 : 253,210,123
Combo4 : 200,251,153

[HitObjects]
51,46,257,5,2,2:0:0:0:
99,19,433,1,2,2:0:0:0:
152,35,609,1,2,2:0:0:0:
109,104,786,6,0,P|113:149|150:184,1,72,2|0,2:0|2:0,2:0:0:0:
229,71,1138,2,0,P|247:101|248:137,1,72,2|0,2:0|2:0,2:0:0:0:
11,323,1491,5,2,2:0:0:0:
84,292,1668,1,2,2:0:0:0:
162,304,1844,1,2,2:0:0:0:
217,362,2021,2,0,P|251:355|277:330,1,72,2|0,2:0|2:0,2:0:0:0:
399,262,2374,5,2,2:0:0:0:
459,316,2550,1,2,2:0:0:0:
320,255,2727,2,0,P|326:220|351:194,1,72,2|0,2:0|2:0,2:0:0:0:
474,123,3080,5,2,2:0:0:0:
428,188,3256,1,2,2:0:0:0:
351,195,3433,1,2,2:0:0:0:
196,32,3609,5,0,2:0:0:0:
97,10,3786,1,2,2:0:0:0:
15,68,3962,1,2,2:0:0:0:
0,166,4138,1,2,2:0:0:0:
56,239,4315,1,2,2:0:0:0:
144,221,4491,1,2,2:0:0:0:
211,280,4668,1,2,2:0:0:0:
115,362,4844,6,0,L|148:201,1,144,2|2,2:0|2:0,2:0:0:0:
160,148,5374,1,2,2:0:0:0:
227,205,5550,1,2,2:0:0:0:
227,205,5638,1,0,2:0:0:0:
227,205,5727,2,0,L|322:191,1,72,0|2,2:0|2:0,2:0:0:0:
201,81,6080,2,0,L|272:70,1,72,2|2,2:0|2:0,2:0:0:0:
512,200,6433,6,0,P|476:246|393:244,1,135,2|0,2:0|2:0,2:0:0:0:
388,256,6786,1,10,2:0:0:0:
496,291,6962,1,0,2:0:0:0:
388,256,7138,2,0,P|344:264|312:295,1,90,2|2,2:0|2:0,2:0:0:0:
279,365,7491,1,10,2:0:0:0:
42,290,7668,6,0,P|33:201|79:126,1,180,2|2,2:0|2:0,2:0:0:0:
149,84,8197,1,10,2:0:0:0:
223,125,8374,2,0,P|266:116|293:81,1,90,2|0,2:0|2:0,2:0:0:0:
68,48,8727,5,2,2:0:0:0:
79,126,8903,1,10,2:0:0:0:
90,206,9080,1,2,2:0:0:0:
293,80,9256,5,2,1:2:0:0:
277,222,9962,5,2,2:0:0:0:
262,384,10491,5,2,2:0:0:0:
262,384,11550,5,2,2:0:0:0:
249,302,11727,1,2,2:0:0:0:
262,384,11903,1,2,2:0:0:0:
380,340,12080,6,0,P|354:335|326:331,1,54,6|0,1:2|2:0,2:0:0:0:
169,250,12256,2,0,P|162:283|157:316,1,67.5,2|0,2:0|2:0,2:0:0:0:
420,297,12433,6,0,P|393:302|366:306,1,54,10|0,2:0|2:0,2:0:0:0:
78,365,12609,2,0,P|72:331|66:298,1,67.5,2|0,2:0|2:0,2:0:0:0:
143,128,12786,6,0,P|206:134|229:194,1,135,2|0,2:0|2:0,2:0:0:0:
30,201,13138,6,0,P|163:221|296:245,1,270,10|0,2:0|2:0,2:0:0:0:
361,191,13491,6,0,P|357:164|352:137,1,54,2|0,1:2|2:0,2:0:0:0:
411,73,13668,2,0,P|444:78|477:85,1,67.5,2|0,2:0|2:0,2:0:0:0:
290,30,13844,6,0,P|286:56|281:83,1,54,10|0,2:0|2:0,2:0:0:0:
446,114,14021,2,0,P|479:108|512:102,1,67.5,2|0,2:0|2:0,2:0:0:0:
220,148,14197,5,2,2:0:0:0:
220,148,14374,1,0,1:0:0:0:
281,83,14550,1,10,2:0:0:0:
352,137,14727,1,2,2:0:0:0:
135,48,14903,6,0,P|140:74|144:102,1,54,2|0,1:2|2:0,2:0:0:0:
232,243,15080,2,0,P|198:236|165:231,1,67.5,2|0,2:0|2:0,2:0:0:0:
114,114,15256,6,0,P|109:140|105:168,1,54,10|0,2:0|2:0,2:0:0:0:
31,298,15433,2,0,P|64:291|97:286,1,67.5,2|0,2:0|2:0,2:0:0:0:
316,234,15609,6,0,P|313:249|310:264,1,31.5,2|0,2:0|2:0,2:0:0:0:
346,238,15786,2,0,P|343:253|340:268,1,31.5,0|0,1:0|2:0,2:0:0:0:
376,357,15962,6,0,P|276:338|176:323,1,202.5,10|0,2:0|2:0,2:0:0:0:
176,323,16315,1,2,1:2:0:0:
450,177,16491,6,0,P|450:210|436:240,1,67.5,2|0,2:0|2:0,2:0:0:0:
340,268,16668,2,0,P|310:252|291:224,1,67.5,10|0,2:0|2:0,2:0:0:0:
312,121,16844,2,0,P|340:103|373:101,1,67.5,2|0,2:0|2:0,2:0:0:0:
370,190,17021,5,2,2:0:0:0:
363,186,17197,1,0,1:0:0:0:
364,180,17374,1,10,2:0:0:0:
371,183,17550,1,0,2:0:0:0:
224,35,17727,6,0,P|229:61|233:89,1,54,6|0,1:2|2:0,2:0:0:0:
292,224,17903,2,0,P|258:216|225:211,1,67.5,2|0,2:0|2:0,2:0:0:0:
154,102,18080,6,0,P|159:128|162:155,1,54,10|0,2:0|2:0,2:0:0:0:
243,297,18256,2,0,P|209:289|176:284,1,67.5,2|0,2:0|2:0,2:0:0:0:
92,189,18433,6,0,P|158:199|225:211,1,135,2|0,2:0|2:0,2:0:0:0:
417,257,18786,2,0,P|383:259|355:276,1,67.5,10|0,2:0|2:0,2:0:0:0:
352,285,18962,1,2,2:0:0:0:
225,211,19138,6,0,P|219:184|216:157,1,54,2|0,1:2|2:0,2:0:0:0:
289,112,19315,2,0,P|322:117|355:124,1,67.5,2|0,2:0|2:0,2:0:0:0:
150,62,19491,6,0,P|145:88|141:116,1,54,10|0,2:0|2:0,2:0:0:0:
364,145,19668,2,0,P|397:137|430:132,1,67.5,2|0,2:0|2:0,2:0:0:0:
92,189,19844,5,2,2:0:0:0:
92,189,20021,1,0,1:0:0:0:
147,258,20197,1,10,2:0:0:0:
225,211,20374,1,2,2:0:0:0:
353,321,20550,6,0,P|326:317|299:312,1,54,2|0,1:2|2:0,2:0:0:0:
134,324,20727,2,0,P|139:290|146:257,1,67.5,2|0,2:0|2:0,2:0:0:0:
290,281,20903,6,0,P|263:284|236:289,1,54,10|0,2:0|2:0,2:0:0:0:
47,308,21080,2,0,P|52:341|59:374,1,67.5,2|0,2:0|2:0,2:0:0:0:
218,205,21256,2,0,P|169:124|78:147,1,202.5,2|0,2:0|2:0,2:0:0:0:
81,162,21609,6,0,P|107:165|134:170,1,54,10|0,2:0|2:0,2:0:0:0:
266,92,21786,2,0,P|292:95|319:100,1,54,2|0,2:0|2:0,2:0:0:0:
331,185,21962,5,0,1:0:0:0:
336,182,22138,1,2,2:0:0:0:
407,201,22315,5,8,2:0:0:0:
417,195,22491,1,0,2:0:0:0:
492,221,22668,5,8,2:3:0:0:
498,216,22756,1,8,2:3:0:0:
503,212,22844,1,6,1:3:0:0:
434,335,23021,6,0,P|454:201|480:69,1,270,10|0,2:0|2:0,2:0:0:0:
414,26,23374,6,0,L|347:16,1,67.5,6|0,1:2|2:0,2:0:0:0:
204,164,23550,2,0,L|213:97,1,67.5,2|0,2:0|2:0,2:0:0:0:
408,17,23727,6,0,L|341:7,1,67.5,10|0,2:0|2:0,2:0:0:0:
198,155,23903,2,0,L|207:88,1,67.5,2|0,2:0|2:0,2:0:0:0:
223,12,24080,5,2,2:0:0:0:
358,109,24256,2,0,P|325:115|292:124,1,67.5,0|0,1:0|2:0,2:0:0:0:
16,199,24433,2,0,B|66:162|118:183|118:183|136:234|202:239,1,175.5,10|0,2:0|2:0,2:0:0:0:
235,264,24786,6,0,P|216:291|185:305,1,67.5,2|0,1:2|2:0,2:0:0:0:
137,134,24962,2,0,P|170:135|197:154,1,67.5,2|0,2:0|2:0,2:0:0:0:
154,375,25138,6,0,P|123:361|105:334,1,67.5,10|0,2:0|2:0,2:0:0:0:
265,117,25315,2,0,P|279:146|276:180,1,67.5,2|0,2:0|2:0,2:0:0:0:
167,234,25491,5,2,2:0:0:0:
167,234,25668,1,0,1:0:0:0:
87,196,25844,1,10,2:0:0:0:
19,252,26021,1,2,2:0:0:0:
248,346,26197,6,0,L|314:332,1,67.5,2|0,1:2|2:0,2:0:0:0:
503,242,26374,2,0,L|489:308,1,67.5,2|0,2:0|2:0,2:0:0:0:
257,355,26550,6,0,L|323:341,1,67.5,10|0,2:0|2:0,2:0:0:0:
512,251,26727,2,0,L|498:317,1,67.5,2|0,2:0|2:0,2:0:0:0:
275,242,26903,5,2,2:0:0:0:
342,137,27080,2,0,B|360:160|360:160|352:205,1,67.5,0|0,1:0|2:0,2:0:0:0:
447,388,27256,2,0,B|408:351|408:351|434:181,1,202.5,10|0,2:0|2:0,2:0:0:0:
440,128,27609,6,0,P|482:143|495:181,1,67.5,2|0,1:2|2:0,2:0:0:0:
275,242,27786,2,0,P|266:198|293:167,1,67.5,2|0,2:0|2:0,2:0:0:0:
494,253,27962,6,0,P|460:281|420:274,1,67.5,10|0,2:0|2:0,2:0:0:0:
211,128,28138,2,0,P|244:99|284:106,1,67.5,2|0,2:0|2:0,2:0:0:0:
372,196,28315,5,2,2:0:0:0:
365,192,28491,1,0,1:0:0:0:
366,186,28668,1,10,2:0:0:0:
373,189,28844,1,0,2:0:0:0:
197,365,29021,6,0,P|164:357|144:331,1,67.5,6|0,1:2|2:0,2:0:0:0:
0,238,29197,2,0,P|22:213|55:209,1,67.5,2|0,2:0|2:0,2:0:0:0:
59,360,29374,6,0,P|49:328|62:297,1,67.5,10|0,2:0|2:0,2:0:0:0:
80,130,29550,2,0,P|112:137|132:163,1,67.5,2|0,2:0|2:0,2:0:0:0:
206,369,29727,6,0,L|235:159,1,202.5,2|0,2:0|2:0,2:0:0:0:
246,95,30080,1,10,2:0:0:0:
246,95,30256,1,2,2:0:0:0:
511,298,30433,6,0,P|494:268|464:255,1,67.5,2|0,1:2|2:0,2:0:0:0:
337,138,30609,2,0,P|318:165|323:198,1,67.5,2|0,2:0|2:0,2:0:0:0:
469,164,30786,6,0,P|435:162|408:183,1,67.5,10|0,2:0|2:0,2:0:0:0:
253,245,30962,2,0,P|268:274|298:286,1,67.5,2|0,2:0|2:0,2:0:0:0:
385,382,31138,6,0,L|410:175,1,202.5,2|0,2:0|2:0,2:0:0:0:
299,286,31491,5,10,2:0:0:0:
299,286,31668,2,0,P|269:291|232:297,1,67.5,2|0,2:0|2:0,2:0:0:0:
114,36,31844,6,0,P|105:68|96:101,1,67.5,2|0,1:2|2:0,2:0:0:0:
2,208,32021,2,0,P|34:199|67:190,1,67.5,2|0,2:0|2:0,2:0:0:0:
17,53,32197,6,0,P|8:85|0:118,1,67.5,10|0,2:0|2:0,2:0:0:0:
133,249,32374,2,0,P|165:240|198:231,1,67.5,2|0,2:0|2:0,2:0:0:0:
508,80,32550,6,0,B|453:103|416:80|427:59|415:37|371:12|322:49,1,202.5,2|0,2:0|2:0,2:0:0:0:
258,8,32903,2,0,P|244:38|251:71,1,67.5,10|0,2:0|2:0,2:0:0:0:
512,266,33080,6,0,P|485:205|414:190,1,135,2|0,2:0|1:0,2:0:0:0:
198,231,33433,5,2,2:0:0:0:
278,287,33609,1,8,2:0:0:0:
368,256,33786,1,0,2:0:0:0:
294,200,33962,5,0,2:0:0:0:
294,200,34138,1,0,1:0:0:0:
266,379,34315,1,8,2:0:0:0:
266,379,34491,1,0,2:0:0:0:
186,345,34668,6,0,P|182:328|180:311,1,33.7500000000001,6|0,1:2|2:0,2:0:0:0:
87,300,35021,2,0,P|96:286|106:272,1,33.7500000000001,10|0,2:0|2:0,2:0:0:0:
77,193,35374,2,0,P|93:189|110:187,1,33.7500000000001,2|0,2:0|2:0,2:0:0:0:
269,290,35727,1,10,2:0:0:0:
269,290,35903,1,2,2:0:0:0:
345,258,36080,6,0,P|355:191|368:125,1,135,0|8,1:0|2:0,2:0:0:0:
409,18,36609,2,0,P|396:84|385:150,1,135,0|0,2:0|1:0,2:0:0:0:
244,72,37138,2,0,P|277:65|310:60,1,67.5000000000002,8|0,2:0|2:0,2:0:0:0:
484,105,37491,6,0,P|480:121|478:138,1,33.7500000000001,2|0,1:2|2:0,2:0:0:0:
385,150,37844,2,0,P|394:163|404:177,1,33.7500000000001,10|0,2:0|2:0,2:0:0:0:
375,257,38197,2,0,P|391:260|408:262,2,33.7500000000001,2|0|0,2:0|2:0|2:0,2:0:0:0:
477,316,38550,1,10,2:0:0:0:
477,316,38727,1,2,2:0:0:0:
298,289,38903,6,0,P|231:299|165:312,1,135,0|8,1:0|2:0,2:0:0:0:
50,308,39433,2,0,P|116:297|182:284,1,135,0|0,2:0|1:0,2:0:0:0:
249,149,39962,2,0,P|242:182|237:215,1,67.5000000000002,8|0,2:0|2:0,2:0:0:0:
0,98,40315,6,0,P|16:101|33:103,1,33.7500000000001,6|0,1:2|2:0,2:0:0:0:
45,197,40668,2,0,P|58:187|72:177,1,33.7500000000001,10|0,2:0|2:0,2:0:0:0:
152,207,41021,2,0,P|155:190|157:173,1,33.7500000000001,2|0,2:0|2:0,2:0:0:0:
119,96,41374,1,10,2:0:0:0:
119,96,41550,1,2,2:0:0:0:
237,215,41727,6,0,P|303:225|369:238,1,135,0|8,1:0|2:0,2:0:0:0:
483,237,42256,2,0,P|417:226|351:214,1,135,0|0,2:0|1:0,2:0:0:0:
415,314,42786,2,0,P|448:319|481:325,1,67.5000000000002,8|0,2:0|2:0,2:0:0:0:
270,220,43138,6,0,P|253:217|237:215,1,33.7500000000001,2|0,1:2|2:0,2:0:0:0:
260,327,43491,2,0,P|250:313|240:299,1,33.7500000000001,10|0,2:0|2:0,2:0:0:0:
161,372,43844,2,0,P|164:355|166:338,2,33.7500000000001,2|0|0,2:0|2:0|2:0,2:0:0:0:
95,291,44197,1,10,2:0:0:0:
95,291,44374,1,2,2:0:0:0:
225,148,44550,6,0,P|231:181|236:214,1,67.5000000000002,0|0,1:0|2:0,2:0:0:0:
322,231,44903,2,0,P|316:197|310:164,1,67.5000000000002,8|0,2:0|2:0,2:0:0:0:
410,88,45256,5,0,2:0:0:0:
410,88,45344,1,0,2:0:0:0:
410,88,45433,2,0,P|403:121|398:154,2,67.5000000000002,0|8|0,1:0|2:0|2:0,2:0:0:0:
512,251,45962,6,0,P|456:290|386:265,1,135,10|8,2:0|2:0,2:0:0:0:
260,285,46491,1,0,2:0:0:0:
395,273,46668,2,0,P|354:252|316:258,1,67.5000000000002,10|0,2:0|2:0,2:0:0:0:
183,319,47021,5,8,2:0:0:0:
119,272,47197,2,0,P|106:206|134:146,1,135,2|0,2:0|2:0,2:0:0:0:
185,78,47727,1,8,2:0:0:0:
134,10,47903,1,2,2:0:0:0:
53,36,48080,1,8,2:0:0:0:
53,120,48256,1,0,2:0:0:0:
134,146,48433,1,8,2:0:0:0:
192,85,48609,5,0,2:0:0:0:
192,85,48697,1,0,2:0:0:0:
192,85,48786,2,0,P|238:118|329:114,1,135,10|8,2:0|2:0,2:0:0:0:
314,119,49491,5,10,2:0:0:0:
403,94,49668,1,0,2:0:0:0:
472,151,49844,1,8,2:0:0:0:
386,194,50021,6,0,P|373:259|366:327,1,135,2|0,2:0|2:0,2:0:0:0:
314,119,50550,1,8,2:0:0:0:
203,295,50727,2,0,P|216:228|222:161,1,135,2|2,2:0|2:0,2:0:0:0:
222,161,51256,1,10,2:0:0:0:
222,161,51433,1,2,2:0:0:0:
366,327,51609,6,0,P|398:318|432:314,1,67.5000000000002,10|0,2:0|2:0,2:0:0:0:
417,237,51962,2,0,P|384:245|350:249,1,67.5000000000002,10|0,2:0|2:0,2:0:0:0:
293,298,52315,2,0,P|306:231|312:164,1,135,10|10,2:0|2:0,2:0:0:0:
407,84,52844,6,0,P|401:117|399:150,1,67.5000000000002,2|8,2:0|2:0,2:0:0:0:
471,276,53197,2,0,P|444:254|416:236,1,67.5000000000002,2|8,2:0|2:0,2:0:0:0:
274,234,53550,2,0,P|305:222|335:206,1,67.5000000000002,2|8,2:0|2:0,2:0:0:0:
481,174,53903,5,2,2:0:0:0:
362,290,54080,1,10,2:0:0:0:
322,124,54256,1,2,2:0:0:0:
389,195,54433,5,6,2:0:0:0:
393,205,54609,1,2,2:0:0:0:
382,204,54786,1,2,2:0:0:0:
279,227,54962,5,2,2:0:0:0:
276,237,55138,1,0,2:0:0:0:
163,263,55315,5,2,2:0:0:0:
163,262,55668,6,0,P|167:227|172:191,1,72,2|0,2:0|2:0,2:0:0:0:
145,116,56550,6,0,P|139:95|131:81,2,22.5,0|0|0,3:0|3:0|3:0,2:0:0:0:
172,191,56727,1,0,3:0:0:0:
222,128,56903,6,0,P|233:108|246:99,2,22.5,0|0|0,3:0|3:0|3:0,2:0:0:0:
172,199,57080,1,0,3:0:0:0:
70,156,57256,6,0,P|53:157|36:160,1,33.7500000000001,14|0,2:0|2:0,2:0:0:0:
22,162,57433,1,0,2:0:0:0:
169,218,57609,2,0,P|171:252|177:286,1,67.5000000000002,8|0,2:0|3:0,2:0:0:0:
364,343,57962,6,0,P|366:359|367:376,2,33.7500000000001,10|0|0,2:0|2:0|2:0,2:0:0:0:
252,316,58315,1,8,3:2:0:0:
252,316,58491,2,0,P|268:313|285:312,1,33.7500000000001,2|0,3:2|2:0,2:0:0:0:
436,298,58668,1,8,2:0:0:0:
436,298,58844,1,0,3:0:0:0:
436,298,59021,1,8,2:0:0:0:
381,148,59197,6,0,P|378:164|377:181,1,33.7500000000001,2|0,3:2|2:0,2:0:0:0:
349,254,59374,2,0,P|354:220|356:187,1,67.5000000000002,8|0,2:0|3:0,2:0:0:0:
370,64,59727,6,0,P|370:55|371:47,2,16.875,8|0|0,3:2|3:0|3:0,2:0:0:0:
356,187,59903,1,0,3:0:0:0:
494,90,60080,6,0,P|477:91|460:94,1,33.7500000000001,10|0,2:0|2:0,2:0:0:0:
446,96,60256,1,0,3:0:0:0:
299,117,60433,2,0,P|265:111|232:109,1,67.5000000000002,8|0,2:0|3:0,2:0:0:0:
141,52,60786,6,0,P|141:68|144:85,1,33.7500000000001,10|0,2:0|2:0,2:0:0:0:
147,101,60962,1,0,3:0:0:0:
54,37,61138,6,0,P|53:28|52:20,2,16.875,8|0|0,3:2|3:0|3:0,2:0:0:0:
67,120,61315,2,0,P|67:136|70:153,1,33.7500000000001,2|0,3:2|2:0,2:0:0:0:
0,228,61491,6,0,P|33:229|66:235,1,67.5000000000002,8|0,3:2|3:0,2:0:0:0:
175,227,61844,5,8,3:2:0:0:
163,228,61933,1,0,3:0:0:0:
151,229,62021,2,0,P|150:245|147:262,1,33.7500000000001,2|0,3:2|3:0,2:0:0:0:
284,291,62197,5,8,3:2:0:0:
253,292,62286,1,0,3:0:0:0:
224,295,62374,2,0,P|223:311|220:328,1,33.7500000000001,0|0,3:0|2:0,2:0:0:0:
363,365,62550,6,0,P|329:365|295:370,1,67.5000000000002,8|0,3:2|3:0,2:0:0:0:
442,329,62903,6,0,P|443:312|446:295,1,33.7500000000001,14|0,2:0|2:0,2:0:0:0:
448,281,63080,1,0,2:0:0:0:
371,209,63256,2,0,P|370:242|365:276,1,67.5000000000002,8|0,2:0|3:0,2:0:0:0:
302,156,63609,6,0,P|301:139|298:122,2,33.7500000000001,10|0|0,2:0|2:0|2:0,2:0:0:0:
187,151,63962,1,8,3:2:0:0:
187,151,64138,2,0,P|203:148|220:147,1,33.7500000000001,2|0,3:2|2:0,2:0:0:0:
390,132,64315,1,8,2:0:0:0:
390,132,64491,1,0,3:0:0:0:
390,132,64668,1,8,2:0:0:0:
200,67,64844,6,0,P|217:64|234:64,1,33.7500000000001,2|0,3:2|2:0,2:0:0:0:
325,38,65021,2,0,P|291:42|257:43,1,67.5000000000002,8|0,2:0|3:0,2:0:0:0:
122,43,65374,6,0,P|122:34|123:26,2,16.875,8|0|0,3:2|3:0|3:0,2:0:0:0:
107,154,65550,1,0,3:0:0:0:
36,64,65727,6,0,P|35:81|32:98,1,33.7500000000001,10|0,2:0|2:0,2:0:0:0:
30,112,65903,1,0,3:0:0:0:
61,239,66080,2,0,P|94:239|128:244,1,67.5000000000002,8|0,2:0|3:0,2:0:0:0:
211,218,66433,6,0,P|212:235|215:252,1,33.7500000000001,10|0,2:0|2:0,2:0:0:0:
217,266,66609,1,0,3:0:0:0:
289,185,66786,6,0,P|288:176|287:168,2,16.875,8|0|0,3:2|3:0|3:0,2:0:0:0:
304,296,66962,1,2,3:2:0:0:
512,222,67138,5,8,2:0:0:0:
494,224,67227,1,8,2:0:0:0:
464,227,67315,5,8,2:0:0:0:
446,229,67403,1,8,2:0:0:0:
428,248,67491,5,8,3:2:0:0:
380,237,67580,1,8,3:2:0:0:
333,255,67668,1,8,3:2:0:0:
304,296,67756,1,8,3:2:0:0:
279,366,67844,5,8,3:0:0:0:
307,338,67933,1,8,3:0:0:0:
356,355,68021,5,4,3:0:0:0:
385,326,68109,1,4,2:3:0:0:
453,362,68197,6,0,P|364:346|275:333,1,180,8|2,3:2|3:0,2:0:0:0:
28,267,68550,6,0,P|31:288|33:311,1,45,6|0,1:2|2:0,2:0:0:0:
37,328,68727,1,0,2:0:0:0:
193,243,68903,2,0,P|196:265|198:287,1,45,10|0,1:2|2:0,2:0:0:0:
202,304,69080,1,0,2:0:0:0:
99,185,69256,5,2,1:2:0:0:
119,282,69433,1,0,2:0:0:0:
119,282,69521,1,2,1:2:0:0:
119,282,69609,1,8,2:0:0:0:
133,373,69786,1,2,1:2:0:0:
363,242,69962,6,0,P|340:239|318:236,1,45,2|0,1:2|2:0,2:0:0:0:
303,240,70138,1,0,2:0:0:0:
295,160,70315,2,0,P|272:157|250:154,1,45,10|0,1:2|2:0,2:0:0:0:
235,158,70491,1,0,2:0:0:0:
379,81,70668,5,2,1:2:0:0:
280,76,70844,1,0,2:0:0:0:
280,76,70933,1,2,1:2:0:0:
280,76,71021,1,8,2:0:0:0:
182,66,71197,1,10,1:2:0:0:
29,171,71374,6,0,L|16:127,1,45,2|0,1:2|2:0,2:0:0:0:
79,33,71550,2,0,L|91:76,1,45,2|0,2:0|2:0,2:0:0:0:
25,180,71727,6,0,L|12:136,1,45,10|0,1:2|2:0,2:0:0:0:
75,42,71903,2,0,L|87:85,1,45,2|0,2:0|2:0,2:0:0:0:
204,153,72080,6,0,L|177:49,1,90,2|0,1:2|2:0,2:0:0:0:
181,57,72344,1,0,1:0:0:0:
179,48,72433,1,10,2:0:0:0:
122,185,72609,6,0,L|144:272,1,90,10|0,1:2|1:0,2:0:0:0:
204,153,72962,1,2,2:0:0:0:
240,282,73138,2,0,L|245:303,2,22.5,8|8|8,1:2|2:0|2:0,2:0:0:0:
319,235,73315,5,10,2:0:0:0:
338,238,73403,1,8,2:0:0:0:
355,240,73491,2,0,L|392:249,2,22.5,8|8|8,1:2|2:0|2:0,2:0:0:0:
463,201,73668,1,8,2:0:0:0:
453,166,73756,1,0,1:0:0:0:
441,132,73844,1,8,2:0:0:0:
488,284,74021,1,8,1:2:0:0:
261,138,74197,6,0,P|267:112|271:85,1,54,14|0,1:2|2:0,2:0:0:0:
376,30,74374,2,0,P|370:56|365:82,1,54,2|0,2:0|2:0,2:0:0:0:
326,240,74550,6,0,P|332:214|336:187,1,54,10|0,1:2|2:0,2:0:0:0:
441,132,74727,2,0,P|435:158|430:184,1,54,2|0,2:0|2:0,2:0:0:0:
413,301,74903,5,10,1:2:0:0:
333,247,75080,1,0,2:0:0:0:
333,247,75168,1,0,1:0:0:0:
333,247,75256,1,10,2:0:0:0:
239,277,75433,2,0,L|186:265,1,54,2|0,1:2|2:0,2:0:0:0:
6,259,75609,6,0,P|12:285|16:311,1,54,14|0,1:2|2:0,2:0:0:0:
121,367,75786,2,0,P|115:341|110:314,1,54,2|0,2:0|2:0,2:0:0:0:
71,157,75962,6,0,P|77:183|81:209,1,54,10|0,1:2|2:0,2:0:0:0:
186,265,76138,2,0,P|180:239|175:212,1,54,2|0,2:0|2:0,2:0:0:0:
149,77,76315,1,10,1:2:0:0:
301,152,76491,5,0,2:0:0:0:
330,155,76580,1,0,1:0:0:0:
355,157,76668,2,0,L|390:162,2,27,10|8|8,2:0|2:0|2:0,2:0:0:0:
220,140,76844,1,10,1:2:0:0:
371,365,77021,6,0,P|387:322|375:298,1,54,14|0,1:2|2:0,2:0:0:0:
310,292,77197,2,0,P|295:314|295:340,1,54,10|0,2:0|2:0,2:0:0:0:
443,265,77374,6,0,P|414:243|385:241,1,54,10|0,1:2|2:0,2:0:0:0:
249,365,77550,2,0,P|274:358|294:340,1,54,10|0,2:0|2:0,2:0:0:0:
397,239,77727,6,0,P|393:205|372:180,1,67.5,14|0,1:2|2:0,2:0:0:0:
149,279,77903,2,0,P|152:312|173:337,1,67.5,8|0,2:0|1:0,2:0:0:0:
405,107,78080,6,0,P|373:96|341:104,1,67.5,10|0,2:0|2:0,2:0:0:0:
85,276,78256,2,0,P|116:286|148:278,1,67.5,10|0,1:2|2:0,2:0:0:0:
253,148,78433,5,12,1:2:0:0:
221,161,78521,1,8,2:0:0:0:
208,191,78609,1,10,2:0:0:0:
221,223,78697,1,8,2:0:0:0:
253,237,78786,1,8,1:2:0:0:
285,223,78874,1,8,2:0:0:0:
297,191,78962,1,8,2:0:0:0:
285,161,79050,1,8,2:0:0:0:
253,148,79138,1,0,1:0:0:0:
153,109,79315,5,2,2:0:0:0:
153,109,79403,1,0,1:0:0:0:
153,109,79491,2,0,B|121:97|115:70|115:70|146:79|152:108,1,112.5,2|0,2:0|2:0,2:0:0:0:
275,70,79668,2,0,B|269:37|289:17|289:17|296:49|275:69,1,112.5,2|0,1:2|2:0,2:0:0:0:
253,190,79844,6,0,P|248:216|244:244,1,54,6|0,1:2|2:0,2:0:0:0:
165,335,80021,2,0,P|198:328|231:323,1,67.5,2|0,2:0|2:0,2:0:0:0:
330,249,80197,6,0,P|325:275|321:303,1,54,10|0,1:2|2:0,2:0:0:0:
96,265,80374,2,0,P|129:258|162:253,1,67.5,2|0,2:0|2:0,2:0:0:0:
471,276,80550,6,0,P|454:279|438:282,1,33.7500000000001,2|0,1:2|2:0,2:0:0:0:
370,176,80727,2,0,P|386:172|403:170,1,33.7500000000001,2|0,2:3|2:0,2:0:0:0:
396,376,80903,6,0,P|418:229|443:82,1,297,10|0,1:2|2:0,2:0:0:0:
361,30,81256,6,0,P|361:63|347:93,1,67.5,2|0,1:2|2:0,2:0:0:0:
142,176,81433,2,0,P|108:181|75:188,1,67.5,2|0,2:0|2:0,2:0:0:0:
151,30,81609,6,0,P|151:63|165:93,1,67.5,10|0,1:2|2:0,2:0:0:0:
370,176,81786,2,0,P|403:181|436:188,1,67.5,2|0,2:0|2:0,2:0:0:0:
258,55,81962,5,2,1:2:0:0:
258,55,82138,1,2,2:3:0:0:
257,139,82315,6,0,P|252:161|249:183,1,45,10|0,1:2|2:0,2:0:0:0:
248,201,82491,2,0,P|252:223|255:245,1,45,2|0,2:0|2:0,2:0:0:0:
250,380,82668,6,0,P|255:354|259:326,1,54,2|0,1:2|2:0,2:0:0:0:
407,272,82844,2,0,P|377:258|344:258,1,67.5,2|0,2:0|2:0,2:0:0:0:
264,298,83021,6,0,P|259:272|255:244,1,54,10|0,1:2|2:0,2:0:0:0:
104,236,83197,2,0,P|134:221|167:221,1,67.5,2|0,2:0|2:0,2:0:0:0:
404,358,83374,2,0,P|485:309|472:218,1,180,2|2,1:2|2:3,2:0:0:0:
384,139,83638,1,0,2:0:0:0:
384,139,83727,2,0,P|396:205|407:271,1,135,10|2,1:2|2:0,2:0:0:0:
471,25,84080,6,0,P|463:58|458:91,1,67.5,2|0,1:2|2:0,2:0:0:0:
384,139,84256,2,0,P|350:131|317:126,1,67.5,2|0,2:0|2:0,2:0:0:0:
41,25,84433,6,0,P|48:58|53:91,1,67.5,10|0,1:2|2:0,2:0:0:0:
128,139,84609,2,0,P|161:131|194:126,1,67.5,2|0,2:0|2:0,2:0:0:0:
256,38,84786,5,2,1:2:0:0:
270,53,84962,1,2,2:3:0:0:
256,67,85138,1,10,1:2:0:0:
241,53,85315,1,2,2:3:0:0:
253,190,85491,6,0,P|248:216|244:244,1,54,6|0,1:2|2:0,2:0:0:0:
97,229,85668,2,0,P|130:221|163:216,1,67.5,2|0,2:0|2:0,2:0:0:0:
248,271,85844,6,0,P|253:297|257:325,1,54,10|0,1:2|2:0,2:0:0:0:
396,265,86021,2,0,P|362:257|329:252,1,67.5,2|0,2:0|2:0,2:0:0:0:
174,329,86197,6,0,P|171:312|168:296,1,33.7500000000001,2|0,1:2|2:0,2:0:0:0:
330,252,86374,2,0,P|332:235|336:218,1,33.7500000000001,2|0,2:3|2:0,2:0:0:0:
258,110,86550,1,10,1:2:0:0:
258,110,86727,1,2,2:0:0:0:
400,147,86903,6,0,P|367:147|337:133,1,67.5,2|0,1:2|2:0,2:0:0:0:
129,66,87080,2,0,P|124:33|116:0,1,67.5,2|0,2:0|2:0,2:0:0:0:
112,147,87256,6,0,P|145:147|175:133,1,67.5,10|0,1:2|2:0,2:0:0:0:
382,66,87433,2,0,P|387:33|395:0,1,67.5,2|0,2:0|2:0,2:0:0:0:
258,196,87609,5,2,1:2:0:0:
258,196,87786,1,2,2:3:0:0:
255,275,87962,6,0,P|258:297|263:320,1,45,10|0,1:2|2:0,2:0:0:0:
261,337,88138,2,0,P|258:359|253:382,1,45,2|0,2:0|2:0,2:0:0:0:
110,317,88315,6,0,P|143:322|176:329,1,67.5,2|0,1:2|2:0,2:0:0:0:
348,172,88491,2,0,P|341:205|336:239,1,67.5,2|0,2:0|2:0,2:0:0:0:
110,234,88668,6,0,P|143:239|176:246,1,67.5,10|0,1:2|2:0,2:0:0:0:
270,129,88844,2,0,P|263:162|258:196,1,67.5,2|0,2:0|2:0,2:0:0:0:
110,148,89021,6,0,P|143:153|176:160,1,67.5,2|0,1:2|2:0,2:0:0:0:
188,93,89197,2,0,P|181:126|176:160,1,67.5,2|0,2:3|2:0,2:0:0:0:
106,57,89374,1,10,1:2:0:0:
106,57,89550,1,2,2:0:0:0:
294,14,89727,5,0,1:0:0:0:
300,24,89903,1,2,2:0:0:0:
277,101,90080,5,8,1:2:0:0:
289,121,90256,1,2,2:3:0:0:
258,196,90433,5,8,1:3:0:0:
268,208,90521,1,8,2:3:0:0:
276,218,90609,1,6,2:3:0:0:
188,93,90786,6,0,P|334:115|481:140,1,297,10|0,1:2|2:0,2:0:0:0:
492,228,91138,6,0,P|443:216|395:207,1,90,6|0,1:2|2:0,2:0:0:0:
178,97,91315,2,0,P|166:48|157:0,1,90,2|0,2:0|2:0,2:0:0:0:
352,9,91491,6,0,P|344:53|334:96,1,90,10|0,1:2|2:0,2:0:0:0:
107,209,91668,2,0,P|63:217|20:228,1,90,2|0,2:0|2:0,2:0:0:0:
73,74,91844,6,0,P|80:95|83:117,1,45,2|0,1:2|2:0,2:0:0:0:
209,237,92021,2,0,P|202:216|198:193,1,45,2|0,2:3|2:0,2:0:0:0:
106,209,92197,6,0,P|84:216|62:218,1,45,10|0,1:2|2:0,2:0:0:0:
222,88,92374,2,0,P|200:95|178:97,1,45,2|0,2:0|2:0,2:0:0:0:
217,358,92550,6,0,P|243:331|235:291,1,45,2|0,1:2|2:0,2:0:0:0:
397,370,92727,2,0,P|396:332|363:310,1,56.25,2|0,2:0|2:0,2:0:0:0:
512,210,92903,2,0,P|485:183|444:186,1,67.5,10|0,1:2|2:0,2:0:0:0:
437,20,93080,2,0,P|399:30|375:79,1,90,2|0,2:0|2:0,2:0:0:0:
316,362,93256,6,0,P|362:288|350:201,1,180,2|2,1:2|2:3,2:0:0:0:
319,127,93521,1,0,2:0:0:0:
311,135,93609,2,0,L|235:151,1,45,10|0,1:2|2:0,2:0:0:0:
217,205,93786,2,0,L|172:214,1,45,2|0,2:0|2:0,2:0:0:0:
23,63,93962,6,0,P|71:76|110:83,1,90,2|0,1:2|2:0,2:0:0:0:
193,384,94138,2,0,P|202:340|214:297,1,90,2|0,2:0|2:0,2:0:0:0:
193,0,94315,6,0,P|202:43|214:87,1,90,10|0,1:2|2:0,2:0:0:0:
110,300,94491,2,0,P|66:309|23:321,1,90,2|0,2:0|2:0,2:0:0:0:
118,191,94668,6,0,L|162:197,1,45,2|0,1:2|2:0,2:0:0:0:
362,254,94844,2,0,L|318:248,1,45,2|0,2:3|2:0,2:0:0:0:
223,292,95021,6,0,L|229:247,1,45,10|0,1:2|2:0,2:0:0:0:
244,182,95197,2,0,L|237:226,1,45,2|0,2:0|2:0,2:0:0:0:
122,340,95374,6,0,P|112:291|125:277,1,45,2|0,1:2|2:0,2:0:0:0:
57,80,95550,2,0,P|103:96|109:114,1,56.25,2|0,2:0|2:0,2:0:0:0:
0,240,95727,6,0,P|42:212|85:220,1,67.5,10|0,1:2|2:0,2:0:0:0:
183,0,95903,2,0,P|217:40|199:100,1,90,2|0,2:0|2:0,2:0:0:0:
172,202,96080,5,2,1:2:0:0:
162,192,96256,1,2,2:3:0:0:
176,185,96433,1,10,1:2:0:0:
184,198,96609,1,2,2:3:0:0:
329,123,96786,6,0,P|369:133|416:142,1,90,6|0,1:2|2:0,2:0:0:0:
483,248,96962,2,0,P|472:291|463:335,1,90,2|0,2:0|2:0,2:0:0:0:
329,123,97138,6,0,P|337:78|348:35,1,90,10|0,1:2|2:0,2:0:0:0:
483,248,97315,2,0,P|438:239|395:228,1,90,2|0,2:0|2:0,2:0:0:0:
326,264,97491,6,0,L|336:333,1,45,2|0,1:2|2:0,2:0:0:0:
498,159,97668,2,0,L|488:90,1,45,2|0,2:3|2:0,2:0:0:0:
411,205,97844,5,10,1:2:0:0:
411,205,98021,1,2,2:0:0:0:
246,127,98197,6,0,P|204:135|157:143,1,90,2|0,1:2|2:0,2:0:0:0:
108,309,98374,2,0,P|63:316|19:325,1,90,2|0,2:0|2:0,2:0:0:0:
19,58,98550,6,0,P|63:67|108:75,1,90,10|0,1:2|2:0,2:0:0:0:
157,240,98727,2,0,P|201:248|246:257,1,90,2|0,2:0|2:0,2:0:0:0:
341,112,98903,6,0,L|333:156,1,45,2|0,1:2|2:0,2:0:0:0:
75,217,99080,2,0,L|82:172,1,45,2|0,2:3|2:0,2:0:0:0:
115,83,99256,1,10,1:2:0:0:
115,83,99344,1,0,2:0:0:0:
115,83,99433,1,2,2:0:0:0:
398,233,99609,6,0,P|443:227|487:221,1,90,2|0,1:2|2:0,2:0:0:0:
198,57,99786,2,0,P|192:101|186:146,1,90,2|0,2:0|2:0,2:0:0:0:
114,233,99962,6,0,P|69:227|24:221,1,90,10|0,1:2|2:0,2:0:0:0:
320,59,100138,2,0,P|325:103|331:148,1,90,2|0,2:0|2:0,2:0:0:0:
178,349,100315,6,0,L|159:307,1,45,2|0,1:2|2:0,2:0:0:0:
334,349,100491,2,0,L|352:307,1,45,2|0,2:3|2:0,2:0:0:0:
257,222,100668,6,0,L|257:268,1,45,10|0,1:2|2:0,2:0:0:0:
261,384,100844,1,2,2:0:0:0:
261,384,100933,1,0,2:0:0:0:
261,384,101021,5,0,1:0:0:0:
329,334,101197,1,2,2:0:0:0:
413,325,101374,1,8,2:0:0:0:
483,363,101550,1,2,1:3:0:0:
251,297,101727,5,0,2:0:0:0:
401,120,101903,2,0,B|385:153|385:153|392:186,1,67.5,10|0,2:0|2:0,2:0:0:0:
471,234,102080,2,0,P|377:219|267:206,1,180,10|2,2:0|2:0,2:0:0:0:
218,201,102344,1,0,2:0:0:0:
218,201,102433,1,6,1:2:0:0:
251,297,102609,6,0,P|228:300|206:304,1,45,2|0,2:0|2:0,2:0:0:0:
197,306,102786,2,0,P|174:309|152:313,1,45,10|0,2:0|2:0,2:0:0:0:
143,315,102962,2,0,P|120:318|98:322,1,45,2|0,2:0|2:0,2:0:0:0:
7,144,103138,6,0,P|70:96|106:166,1,180,2|10,2:0|2:0,2:0:0:0:
140,234,103668,2,0,P|110:208|89:241,1,90,2|0,2:0|1:0,2:0:0:0:
185,110,104021,6,0,P|207:113|229:117,1,45,2|0,2:0|2:0,2:0:0:0:
239,119,104197,2,0,P|261:122|283:126,1,45,10|0,2:0|2:0,2:0:0:0:
293,128,104374,2,0,P|315:131|337:135,1,45,2|0,2:0|2:0,2:0:0:0:
478,43,104550,6,0,P|414:-4|378:65,1,180,2|10,2:0|2:0,2:0:0:0:
337,135,105080,2,0,P|368:111|386:146,1,90,2|0,2:0|1:0,2:0:0:0:
480,225,105433,6,0,P|457:221|435:217,1,45,2|0,2:0|2:0,2:0:0:0:
431,222,105609,2,0,P|427:244|423:266,1,45,10|0,2:0|2:0,2:0:0:0:
427,269,105786,2,0,P|449:272|471:276,1,45,2|0,2:0|2:0,2:0:0:0:
355,330,105962,6,0,P|291:282|255:352,1,180,2|10,2:0|2:0,2:0:0:0:
294,265,106491,2,0,P|276:229|244:253,1,90,2|0,2:0|1:0,2:0:0:0:
111,259,106844,6,0,P|133:255|155:251,1,45,2|0,2:0|2:0,2:0:0:0:
160,256,107021,2,0,P|163:278|167:300,1,45,10|0,2:0|2:0,2:0:0:0:
164,303,107197,2,0,P|141:306|119:310,1,45,2|0,2:0|2:0,2:0:0:0:
34,154,107374,6,0,P|93:109|127:175,1,168.75,2|0,2:0|2:0,2:0:0:0:
205,86,107727,2,0,P|162:54|139:101,2,112.5,10|2|4,2:0|2:0|1:2,2:0:0:0:
217,175,108256,6,0,P|243:178|270:183,1,54,2|0,2:0|2:0,2:0:0:0:
354,92,108433,2,0,P|350:118|345:145,1,54,10|0,2:0|2:0,2:0:0:0:
454,218,108609,2,0,P|427:214|400:209,1,54,2|0,2:0|2:0,2:0:0:0:
356,364,108786,6,0,P|377:295|441:327,1,162,2|0,2:0|2:0,2:0:0:0:
396,242,109138,2,0,B|389:221|400:207|400:207|406:227|394:241,1,67.5,10|0,2:0|2:0,2:0:0:0:
324,273,109315,2,0,B|302:267|297:251|297:251|317:254|322:272,1,67.5,2|0,2:0|2:0,2:0:0:0:
410,372,109491,1,0,1:0:0:0:
262,338,109668,6,0,P|236:341|209:346,1,54,2|0,2:0|2:0,2:0:0:0:
125,255,109844,2,0,P|129:281|134:308,1,54,10|0,2:0|2:0,2:0:0:0:
25,381,110021,2,0,P|52:377|79:372,1,54,2|0,2:0|2:0,2:0:0:0:
125,255,110197,6,0,P|104:186|40:218,1,162,2|0,2:0|2:0,2:0:0:0:
85,133,110550,2,0,B|92:112|81:98|81:98|75:118|87:132,1,67.5,10|0,2:0|2:0,2:0:0:0:
157,164,110727,2,0,B|179:158|184:142|184:142|164:145|159:163,1,67.5,2|0,2:0|2:0,2:0:0:0:
71,263,110903,1,0,1:0:0:0:
215,230,111080,6,0,P|241:233|268:238,1,54,2|0,2:0|2:0,2:0:0:0:
338,191,111256,2,0,P|341:165|346:138,1,54,10|0,2:0|2:0,2:0:0:0:
415,89,111433,2,0,P|442:94|469:98,1,54,2|0,2:0|2:0,2:0:0:0:
345,136,111609,6,0,P|291:90|254:152,1,162,2|0,2:0|2:0,2:0:0:0:
247,55,111962,2,0,B|227:43|226:26|226:26|245:34|245:53,1,67.5,10|0,2:0|2:0,2:0:0:0:
323,43,112138,2,0,B|321:20|335:10|335:10|336:31|321:41,1,67.5,2|0,2:0|2:0,2:0:0:0:
119,94,112315,1,0,1:0:0:0:
119,94,112491,6,0,P|145:96|172:100,1,54,2|0,2:0|2:0,2:0:0:0:
130,232,112668,2,0,P|134:206|136:178,1,54,10|0,2:0|2:0,2:0:0:0:
38,50,112844,2,0,P|35:76|31:103,1,54,2|0,2:0|2:0,2:0:0:0:
54,180,113021,1,10,2:3:0:0:
52,193,113109,1,8,2:3:0:0:
50,206,113197,1,6,1:3:0:0:
0,298,113374,6,0,P|119:276|239:258,1,243,10|0,2:0|2:0,2:0:0:0:
260,174,113727,6,0,P|303:134|362:140,1,108,6|0,1:2|2:0,2:0:0:0:
318,287,114080,2,0,P|370:289|407:326,1,108,10|0,2:0|2:0,2:0:0:0:
215,351,114433,5,2,2:0:0:0:
239,257,114609,1,2,1:2:0:0:
260,174,114786,1,10,2:0:0:0:
407,326,114962,6,0,P|418:268|427:219,1,108,2|0,2:0|1:0,2:0:0:0:
448,149,115315,1,2,2:0:0:0:
448,149,115491,1,10,2:0:0:0:
260,174,115668,6,0,P|270:120|280:67,1,108,2|0,2:0|2:0,2:0:0:0:
147,19,116021,6,0,L|131:86,1,54,2|0,1:2|2:0,2:0:0:0:
140,80,116197,2,0,L|184:113,1,54,10|0,2:0|2:0,2:0:0:0:
189,121,116374,2,0,L|173:188,1,54,2|0,2:0|2:0,2:0:0:0:
172,187,116550,5,0,1:0:0:0:
81,160,116727,1,2,2:0:0:0:
81,160,116815,1,0,2:0:0:0:
81,160,116903,1,10,2:0:0:0:
6,223,117080,1,2,2:0:0:0:
100,250,117256,6,0,L|116:311,1,54,2|0,2:0|2:0,2:0:0:0:
119,309,117433,2,0,L|202:327,1,54,2|0,1:2|2:0,2:0:0:0:
182,320,117609,2,0,L|195:372,1,54,10|0,2:0|2:0,2:0:0:0:
203,374,117786,2,0,L|310:384,1,108,2|0,2:0|1:0,2:0:0:0:
436,354,118138,6,0,L|442:289,1,54,2|0,2:0|2:0,2:0:0:0:
436,292,118315,2,0,L|375:285,1,54,10|0,2:0|2:0,2:0:0:0:
310,281,118491,1,2,2:0:0:0:
310,281,118580,1,0,2:0:0:0:
310,281,118668,1,0,2:0:0:0:
413,67,118844,6,0,L|435:128,1,54,2|0,1:2|2:0,2:0:0:0:
396,170,119021,2,0,L|437:119,1,54,10|0,2:0|2:0,2:0:0:0:
492,133,119197,2,0,L|427:121,1,54,2|0,2:0|2:0,2:0:0:0:
339,106,119374,6,0,L|152:77,1,162,6|0,1:2|2:0,2:0:0:0:
166,82,119727,1,10,2:0:0:0:
233,173,119903,2,0,P|207:169|179:165,1,54,0|0,2:0|2:0,2:0:0:0:
55,40,120080,6,0,L|39:107,1,54,2|0,2:0|2:0,2:0:0:0:
48,101,120256,2,0,L|92:134,1,54,2|0,1:2|2:0,2:0:0:0:
97,142,120433,2,0,L|81:209,1,54,10|0,2:0|2:0,2:0:0:0:
10,267,120609,6,0,P|86:228|161:271,1,162,2|0,2:0|2:0,2:0:0:0:
153,266,120962,1,2,2:0:0:0:
85,317,121138,1,10,2:0:0:0:
234,230,121315,2,0,P|237:300|208:338,1,108,2|8,2:0|2:3,2:0:0:0:
217,329,121580,1,8,2:3:0:0:
217,329,121668,1,6,1:3:0:0:
165,185,121844,6,0,P|145:146|158:115,1,54,10|0,2:0|2:0,2:0:0:0:
236,102,122021,2,0,P|256:141|243:172,1,54,2|0,2:0|2:0,2:0:0:0:
234,230,122197,5,2,1:2:0:0:
346,214,122903,5,2,2:0:0:0:
463,193,123433,5,2,2:0:0:0:
