osu file format v14

[General]
AudioFilename: audio.ogg
AudioLeadIn: 0
PreviewTime: 79237
Countdown: 0
SampleSet: Soft
StackLeniency: 0.7
Mode: 0
LetterboxInBreaks: 0
WidescreenStoryboard: 0

[Editor]
DistanceSpacing: 1.2
BeatDivisor: 4
GridSize: 32
TimelineZoom: 1.6

[Metadata]
Title:Usagi Flap
TitleUnicode:Usagi Flap
Artist:Nor
ArtistUnicode:Nor
Creator:newton-
Version:Fukari's Insane
Source:ブルーアーカイブ -Blue Archive-
Tags:midorijeon amateurre kyuuchie fukari-tan ブルアカ future bass electronic instrumental video game yostar nat games theme 113
BeatmapID:4244902
BeatmapSetID:2016404

[Difficulty]
HPDrainRate:5
CircleSize:4
OverallDifficulty:8
ApproachRate:8.8
SliderMultiplier:1.8
SliderTickRate:1

[Events]
//Background and Video events
0,0,"rabbittime.jpg",0,0
//Break Periods
2,57456,67921
//Storyboard Layer 0 (Background)
//Storyboard Layer 1 (Fail)
//Storyboard Layer 2 (Pass)
//Storyboard Layer 3 (Foreground)
//Storyboard Layer 4 (Overlay)
//Storyboard Sound Samples

[TimingPoints]
257,352.941176470588,4,2,1,60,1,0
257,-100,4,2,1,60,0,0
786,352.941176470588,4,2,1,60,1,0
786,-125,4,2,1,60,0,0
962,-125,4,2,1,5,0,0
1138,-125,4,2,1,60,0,0
1314,-125,4,2,1,5,0,0
1491,-125,4,2,1,60,0,0
6433,-100,4,2,1,60,0,0
6697,-100,4,2,1,5,0,0
6786,-100,4,2,1,60,0,0
9256,-100,4,2,1,55,0,0
12080,-100,4,2,2,75,0,0
12256,-100,4,2,3,75,0,0
13050,-100,4,2,3,5,0,0
13138,-100,4,2,3,75,0,0
17374,-100,4,2,4,75,0,0
17727,-100,4,2,1,75,0,0
18080,-100,4,2,3,75,0,0
18697,-100,4,2,3,5,0,0
18786,-100,4,2,3,75,0,0
18873,-100,4,2,3,5,0,0
18962,-100,4,2,3,75,0,0
21520,-100,4,2,3,5,0,0
21608,-100,4,2,3,75,0,0
22668,-100,4,2,1,75,0,0
23021,-100,4,2,5,75,0,0
23285,-100,4,2,5,5,0,0
23374,-100,4,2,2,75,0,0
23550,-100,4,2,3,75,0,0
24344,-100,4,2,3,5,0,0
24433,-100,4,2,3,75,0,0
27167,-100,4,2,3,5,0,0
27256,-100,4,2,3,75,0,0
28668,-100,4,2,4,75,0,0
29021,-100,4,2,1,75,0,0
29374,-100,4,2,3,75,0,0
29991,-100,4,2,3,5,0,0
30080,-100,4,2,3,75,0,0
31402,-100,4,2,3,5,0,0
31491,-100,4,2,3,75,0,0
32814,-100,4,2,3,5,0,0
32902,-100,4,2,3,75,0,0
34668,-125,4,2,1,70,0,0
34756,-125,4,2,1,5,0,0
35020,-125,4,2,3,70,0,0
35109,-125,4,2,3,5,0,0
35373,-125,4,2,3,70,0,0
36256,-125,4,2,3,5,0,0
36433,-125,4,2,3,70,0,0
37314,-125,4,2,3,5,0,0
37491,-125,4,2,3,70,0,0
37579,-125,4,2,3,5,0,0
37843,-125,4,2,3,70,0,0
37932,-125,4,2,3,5,0,0
38196,-125,4,2,3,70,0,0
40138,-125,4,2,3,5,0,0
40315,-125,4,2,1,70,0,0
40403,-125,4,2,1,5,0,0
40667,-125,4,2,3,70,0,0
40756,-125,4,2,3,5,0,0
41020,-125,4,2,3,70,0,0
42962,-125,4,2,3,5,0,0
43138,-125,4,2,3,70,0,0
43226,-125,4,2,3,5,0,0
43490,-125,4,2,3,70,0,0
43579,-125,4,2,3,5,0,0
43843,-125,4,2,3,70,0,0
44726,-125,4,2,3,5,0,0
44903,-125,4,2,3,70,0,0
45256,-125,4,2,3,70,0,0
45962,-125,4,2,6,60,0,0
46844,-125,4,2,6,5,0,0
47021,-125,4,2,6,60,0,0
47549,-125,4,2,6,5,0,0
47727,-125,4,2,6,60,0,0
50373,-125,4,2,6,5,0,0
50550,-125,4,2,6,60,0,0
51785,-125,4,2,6,5,0,0
51962,-125,4,2,6,60,0,0
52138,-125,4,2,6,5,0,0
52315,-125,4,2,6,60,0,0
55668,-333.333333333333,4,2,6,60,0,0
56373,-333.333333333333,4,2,6,5,0,0
56550,-166.666666666667,4,2,6,60,0,0
57256,-166.666666666667,4,2,6,65,0,0
68550,-125,4,2,2,70,0,0
68638,-125,4,2,2,5,0,0
68726,-125,4,2,2,70,0,0
68903,-125,4,2,3,70,0,0
68991,-125,4,2,3,5,0,0
69079,-125,4,2,3,70,0,0
70050,-125,4,2,3,5,0,0
70138,-125,4,2,3,70,0,0
70403,-125,4,2,3,5,0,0
70491,-125,4,2,3,70,0,0
71021,-125,4,2,12,70,0,0
71197,-125,4,2,13,70,0,0
71462,-125,4,2,13,5,0,0
71550,-125,4,2,13,70,0,0
71727,-125,4,2,3,70,0,0
71815,-125,4,2,3,5,0,0
71903,-125,4,2,3,70,0,0
72256,-125,4,2,3,5,0,0
72344,-125,4,2,3,70,0,0
72433,-125,4,2,12,70,0,0
72609,-125,4,2,13,70,0,0
73138,-125,4,2,12,70,0,0
73183,-125,4,2,13,70,0,0
73844,-125,4,2,12,70,0,0
74020,-125,4,2,13,70,0,0
74197,-125,4,2,14,70,0,0
76668,-125,4,2,15,70,0,0
76712,-125,4,2,13,70,0,0
77021,-125,4,2,15,70,0,0
77197,-125,4,2,13,70,0,0
77374,-125,4,2,15,70,0,0
77550,-125,4,2,13,70,0,0
77727,-125,4,2,15,70,0,0
77903,-125,4,2,13,70,0,0
78080,-125,4,2,15,70,0,0
78256,-125,4,2,13,70,0,0
78433,-125,4,2,16,70,0,0
78521,-125,4,2,17,70,0,0
78786,-125,4,2,16,70,0,0
78874,-125,4,2,17,70,0,0
79138,-125,4,2,1,70,0,0
79579,-125,4,2,1,5,0,0
79667,-125,4,2,7,70,0,0
79844,-125,4,2,2,80,0,0
80021,-125,4,2,8,80,0,0
80197,-125,4,2,3,80,0,0
80374,-125,4,2,8,80,0,0
80550,-100,4,2,1,80,0,0
80638,-100,4,2,1,5,0,0
80727,-100,4,2,2,80,0,0
80814,-100,4,2,2,5,0,0
80903,-100,4,2,3,80,0,0
81433,-100,4,2,8,80,0,0
81609,-100,4,2,3,80,0,0
81786,-100,4,2,8,80,0,0
81962,-100,4,2,1,80,0,0
82138,-100,4,2,2,80,0,0
82315,-100,4,2,3,80,0,0
82403,-100,4,2,3,5,0,0
82491,-100,4,2,8,80,0,0
82668,-100,4,2,1,80,0,0
82844,-100,4,2,8,80,0,0
83021,-100,4,2,3,80,0,0
83197,-100,4,2,8,80,0,0
83374,-100,4,2,1,80,0,0
83550,-100,4,2,2,80,0,0
83727,-100,4,2,3,80,0,0
83903,-100,4,2,8,80,0,0
84080,-100,4,2,1,80,0,0
84256,-100,4,2,8,80,0,0
84433,-100,4,2,3,80,0,0
84609,-100,4,2,8,80,0,0
84786,-100,4,2,1,80,0,0
84962,-100,4,2,2,80,0,0
85138,-100,4,2,4,80,0,0
85315,-100,4,2,2,80,0,0
85491,-100,4,2,1,80,0,0
85668,-100,4,2,8,80,0,0
85844,-100,4,2,3,80,0,0
86021,-100,4,2,8,80,0,0
86197,-100,4,2,1,80,0,0
86285,-100,4,2,1,5,0,0
86374,-100,4,2,2,80,0,0
86461,-100,4,2,2,5,0,0
86550,-100,4,2,3,80,0,0
86726,-100,4,2,8,80,0,0
86903,-100,4,2,1,80,0,0
87080,-100,4,2,8,80,0,0
87256,-100,4,2,3,80,0,0
87433,-100,4,2,8,80,0,0
87609,-100,4,2,1,80,0,0
87785,-100,4,2,2,80,0,0
87962,-100,4,2,3,80,0,0
88050,-100,4,2,3,5,0,0
88138,-100,4,2,8,80,0,0
88315,-100,4,2,1,80,0,0
88491,-100,4,2,8,80,0,0
88668,-100,4,2,3,80,0,0
88844,-100,4,2,8,80,0,0
89021,-100,4,2,1,80,0,0
89109,-100,4,2,1,5,0,0
89197,-100,4,2,2,80,0,0
89285,-100,4,2,2,5,0,0
89373,-100,4,2,3,80,0,0
89550,-100,4,2,8,80,0,0
89726,-100,4,2,1,80,0,0
89903,-100,4,2,8,80,0,0
90080,-100,4,2,2,80,0,0
90433,-100,4,2,1,80,0,0
90609,-100,4,2,3,80,0,0
90786,-100,4,2,5,80,0,0
90962,-100,4,2,8,80,0,0
91050,-100,4,2,8,5,0,0
91138,-100,4,2,2,80,0,0
91315,-100,4,2,8,80,0,0
91491,-100,4,2,3,80,0,0
91668,-100,4,2,8,80,0,0
91844,-100,4,2,1,80,0,0
91932,-100,4,2,1,5,0,0
92021,-100,4,2,2,80,0,0
92108,-100,4,2,2,5,0,0
92197,-100,4,2,3,80,0,0
92285,-100,4,2,3,5,0,0
92373,-100,4,2,8,80,0,0
92550,-100,4,2,1,80,0,0
92727,-100,4,2,8,80,0,0
92903,-100,4,2,3,80,0,0
93080,-100,4,2,8,80,0,0
93256,-100,4,2,1,80,0,0
93432,-100,4,2,2,80,0,0
93609,-100,4,2,3,80,0,0
93697,-100,4,2,3,5,0,0
93785,-100,4,2,8,80,0,0
93962,-100,4,2,1,80,0,0
94138,-100,4,2,8,80,0,0
94315,-100,4,2,3,80,0,0
94491,-100,4,2,8,80,0,0
94668,-100,4,2,1,80,0,0
94756,-100,4,2,1,5,0,0
94844,-100,4,2,2,80,0,0
94932,-100,4,2,2,5,0,0
95021,-100,4,2,3,80,0,0
95109,-100,4,2,3,5,0,0
95197,-100,4,2,8,80,0,0
95374,-100,4,2,1,80,0,0
95550,-100,4,2,8,80,0,0
95727,-100,4,2,3,80,0,0
95903,-100,4,2,8,80,0,0
96080,-100,4,2,1,80,0,0
96256,-100,4,2,2,80,0,0
96433,-100,4,2,4,80,0,0
96609,-100,4,2,2,80,0,0
96786,-100,4,2,1,80,0,0
96962,-100,4,2,8,80,0,0
97138,-100,4,2,3,80,0,0
97315,-100,4,2,8,80,0,0
97491,-100,4,2,1,80,0,0
97579,-100,4,2,1,5,0,0
97668,-100,4,2,2,80,0,0
97755,-100,4,2,2,5,0,0
97844,-100,4,2,3,80,0,0
98020,-100,4,2,8,80,0,0
98197,-100,4,2,1,80,0,0
98374,-100,4,2,8,80,0,0
98550,-100,4,2,3,80,0,0
98727,-100,4,2,8,80,0,0
98903,-100,4,2,1,80,0,0
98991,-100,4,2,1,5,0,0
99080,-100,4,2,2,80,0,0
99167,-100,4,2,2,5,0,0
99256,-100,4,2,3,80,0,0
99433,-100,4,2,8,80,0,0
99609,-100,4,2,1,80,0,0
99786,-100,4,2,8,80,0,0
99962,-100,4,2,3,80,0,0
100138,-100,4,2,8,80,0,0
100315,-100,4,2,1,80,0,0
100403,-100,4,2,1,5,0,0
100491,-100,4,2,2,80,0,0
100579,-100,4,2,2,5,0,0
100667,-100,4,2,3,80,0,0
100844,-100,4,2,8,80,0,0
101020,-100,4,2,1,80,0,0
101197,-100,4,2,18,80,0,0
101550,-100,4,2,2,80,0,0
101903,-100,4,2,18,80,0,0
102080,-100,4,2,5,80,0,0
102256,-100,4,2,8,80,0,0
102433,-133.333333333333,4,2,1,70,0,0
102786,-133.333333333333,4,2,3,70,0,0
102873,-133.333333333333,4,2,3,5,0,0
102962,-133.333333333333,4,2,3,70,0,0
103050,-133.333333333333,4,2,3,5,0,0
103138,-133.333333333333,4,2,3,70,0,0
103755,-133.333333333333,4,2,3,5,0,0
103844,-133.333333333333,4,2,3,70,0,0
104285,-133.333333333333,4,2,3,5,0,0
104373,-133.333333333333,4,2,3,70,0,0
104462,-133.333333333333,4,2,3,5,0,0
104549,-133.333333333333,4,2,3,70,0,0
105167,-133.333333333333,4,2,3,5,0,0
105256,-133.333333333333,4,2,3,70,0,0
105697,-133.333333333333,4,2,3,5,0,0
105785,-133.333333333333,4,2,3,70,0,0
105874,-133.333333333333,4,2,3,5,0,0
105961,-133.333333333333,4,2,3,70,0,0
106579,-133.333333333333,4,2,3,5,0,0
106668,-133.333333333333,4,2,3,70,0,0
107108,-133.333333333333,4,2,3,5,0,0
107197,-133.333333333333,4,2,3,70,0,0
107285,-133.333333333333,4,2,3,5,0,0
107373,-133.333333333333,4,2,3,70,0,0
107991,-133.333333333333,4,2,3,5,0,0
108080,-133.333333333333,4,2,1,70,0,0
108433,-133.333333333333,4,2,3,70,0,0
109226,-133.333333333333,4,2,3,5,0,0
109315,-133.333333333333,4,2,3,70,0,0
109402,-133.333333333333,4,2,3,5,0,0
109491,-133.333333333333,4,2,3,70,0,0
110638,-133.333333333333,4,2,3,5,0,0
110727,-133.333333333333,4,2,3,70,0,0
110814,-133.333333333333,4,2,3,5,0,0
110903,-133.333333333333,4,2,3,70,0,0
112050,-133.333333333333,4,2,3,5,0,0
112138,-133.333333333333,4,2,3,70,0,0
112226,-133.333333333333,4,2,3,5,0,0
112315,-133.333333333333,4,2,3,70,0,0
113020,-133.333333333333,4,2,1,70,0,0
113374,-133.333333333333,4,2,5,70,0,0
113638,-133.333333333333,4,2,5,5,0,0
113727,-100,4,2,1,70,0,0
113903,-100,4,2,1,5,0,0
114080,-100,4,2,3,70,0,0
114256,-100,4,2,3,5,0,0
114433,-100,4,2,3,70,0,0
119374,-100,4,2,1,70,0,0
119638,-100,4,2,1,5,0,0
119727,-100,4,2,3,70,0,0
121491,-100,4,2,1,70,0,0
121844,-100,4,2,5,70,0,0
122197,-100,4,2,5,55,0,0
123433,-100,4,2,9,55,0,0

[Colours]
Combo1 : 253,159,149
Combo2 : 123,198,253
Combo3 : 253,210,123
Combo4 : 200,251,153

[HitObjects]
87,177,257,5,2,2:0:0:0:
156,142,433,1,2,2:0:0:0:
90,100,609,1,2,2:0:0:0:
149,226,786,6,0,P|143:261|138:297,1,72,2|0,2:0|2:0,2:0:0:0:
0,209,1138,2,0,P|6:173|11:138,1,72,2|0,2:0|2:0,2:0:0:0:
148,20,1491,5,2,2:0:0:0:
206,83,1668,1,2,2:0:0:0:
291,90,1844,1,2,2:0:0:0:
375,69,2021,2,0,P|379:104|386:139,1,72,2|0,2:0|2:0,2:0:0:0:
354,333,2374,5,2,2:0:0:0:
354,333,2550,1,2,2:0:0:0:
496,266,2727,2,0,P|460:261|425:254,1,72,2|0,2:0|2:0,2:0:0:0:
224,210,3080,5,2,2:0:0:0:
259,279,3256,1,2,2:0:0:0:
301,213,3433,1,2,2:0:0:0:
181,278,3609,6,0,P|145:282|110:289,1,72,0|2,2:0|2:0,2:0:0:0:
11,277,3962,2,0,P|46:273|82:265,1,72,2|2,2:0|2:0,2:0:0:0:
168,121,4315,5,2,2:0:0:0:
113,53,4491,1,2,2:0:0:0:
28,72,4668,1,2,2:0:0:0:
83,148,4844,6,0,P|153:161|224:175,1,144,2|2,2:0|2:0,2:0:0:0:
224,175,5374,1,2,2:0:0:0:
308,133,5550,2,0,P|315:97|319:61,1,72,2|0,2:0|2:0,2:0:0:0:
368,255,5903,2,0,P|332:259|296:265,1,72,2|2,2:0|2:0,2:0:0:0:
221,89,6256,5,2,2:0:0:0:
342,15,6433,2,0,P|329:81|316:147,1,135,2|0,2:0|2:0,2:0:0:0:
312,170,6786,1,10,2:0:0:0:
413,96,6962,1,0,2:0:0:0:
208,0,7138,2,0,P|216:44|221:89,1,90,2|2,2:0|2:0,2:0:0:0:
228,176,7491,5,10,2:0:0:0:
11,90,7668,2,0,P|50:152|150:139,1,180,2|2,2:0|2:0,2:0:0:0:
146,142,8197,1,10,2:0:0:0:
227,282,8374,2,0,P|219:326|214:371,1,90,2|0,2:0|2:0,2:0:0:0:
0,246,8727,5,2,2:0:0:0:
72,193,8903,1,10,2:0:0:0:
158,220,9080,1,2,2:0:0:0:
93,345,9256,5,2,1:2:0:0:
313,300,9962,5,2,2:0:0:0:
477,262,10491,5,2,2:0:0:0:
477,262,12080,5,6,1:2:0:0:
510,140,12256,1,2,2:0:0:0:
320,71,12433,5,10,2:0:0:0:
354,192,12609,1,2,2:0:0:0:
510,55,12786,2,0,P|471:105|404:112,1,135,2|0,2:0|2:0,2:0:0:0:
403,111,13138,2,0,P|394:66|390:22,1,90,10|0,2:0|2:0,2:0:0:0:
239,0,13491,5,2,1:2:0:0:
239,0,13668,1,2,2:0:0:0:
91,97,13844,5,10,2:0:0:0:
91,97,14021,1,2,2:0:0:0:
164,194,14197,6,0,P|168:149|176:105,1,90,2|0,2:0|1:0,2:0:0:0:
14,49,14550,2,0,P|6:93|2:137,1,90,10|2,2:0|2:0,2:0:0:0:
109,264,14903,5,2,1:2:0:0:
0,322,15080,1,2,2:0:0:0:
35,252,15256,1,10,2:0:0:0:
75,336,15433,1,2,2:0:0:0:
212,190,15609,6,0,P|273:210|284:274,1,135,2|0,2:0|2:0,2:0:0:0:
265,299,15962,2,0,P|217:311|173:315,1,90,10|0,2:0|2:0,2:0:0:0:
337,384,16315,5,2,1:2:0:0:
337,384,16491,1,2,2:0:0:0:
449,285,16668,5,10,2:0:0:0:
449,285,16844,1,2,2:0:0:0:
330,147,17021,5,2,2:0:0:0:
387,98,17197,1,0,1:0:0:0:
454,130,17374,1,10,2:0:0:0:
398,177,17550,1,0,2:0:0:0:
261,0,17727,5,6,1:2:0:0:
261,0,17903,1,2,2:0:0:0:
127,129,18080,5,10,2:0:0:0:
127,129,18256,1,2,2:0:0:0:
223,311,18433,6,0,P|257:249|322:245,1,135,2|0,2:0|2:0,2:0:0:0:
315,242,18786,2,0,P|323:197|327:152,1,90,10|2,2:0|2:0,2:0:0:0:
238,98,19138,5,2,1:2:0:0:
120,138,19315,1,2,2:0:0:0:
13,0,19491,5,10,2:0:0:0:
131,40,19668,1,2,2:0:0:0:
1,126,19844,2,0,P|5:170|13:215,1,90,2|0,2:0|1:0,2:0:0:0:
200,182,20197,2,0,P|196:226|187:270,1,90,10|2,2:0|2:0,2:0:0:0:
87,384,20550,5,2,1:2:0:0:
87,384,20727,1,2,2:0:0:0:
11,302,20903,5,10,2:0:0:0:
11,302,21080,1,2,2:0:0:0:
188,361,21256,6,0,P|291:339|398:330,1,180,2|10,2:0|2:0,2:0:0:0:
445,202,21786,2,0,P|400:198|356:189,1,90,2|0,2:0|1:0,2:0:0:0:
233,161,22138,1,2,2:0:0:0:
279,228,22315,1,8,2:0:0:0:
254,306,22491,1,0,2:0:0:0:
356,189,22668,5,8,2:3:0:0:
362,163,22756,1,8,2:3:0:0:
367,139,22844,1,6,1:3:0:0:
251,20,23021,2,0,P|188:34|170:96,1,135,10|0,2:0|2:0,2:0:0:0:
189,122,23374,5,6,1:2:0:0:
145,248,23550,1,2,2:0:0:0:
37,159,23727,5,10,2:0:0:0:
14,27,23903,1,2,2:0:0:0:
189,122,24080,6,0,P|266:128|341:144,1,135,2|0,2:0|2:0,2:0:0:0:
349,161,24433,2,0,P|352:205|361:249,1,90,10|0,2:0|2:0,2:0:0:0:
294,371,24786,5,2,1:2:0:0:
294,371,24962,1,2,2:0:0:0:
487,297,25138,5,10,2:0:0:0:
487,297,25315,1,2,2:0:0:0:
437,161,25491,6,0,P|446:117|450:72,1,90,2|0,2:0|1:0,2:0:0:0:
298,25,25844,2,0,P|289:69|285:114,1,90,10|2,2:0|2:0,2:0:0:0:
327,290,26197,5,2,1:2:0:0:
188,223,26374,1,2,2:0:0:0:
239,305,26550,1,10,2:0:0:0:
270,223,26727,1,2,2:0:0:0:
68,384,26903,6,0,P|61:316|48:250,1,135,2|0,2:0|2:0,2:0:0:0:
31,227,27256,2,0,P|40:183|44:138,1,90,10|0,2:0|2:0,2:0:0:0:
106,20,27609,5,2,1:2:0:0:
106,20,27786,1,2,2:0:0:0:
223,150,27962,5,10,2:0:0:0:
223,150,28138,1,2,2:0:0:0:
378,30,28315,5,2,2:0:0:0:
364,113,28491,1,0,1:0:0:0:
426,174,28668,1,10,2:0:0:0:
444,89,28844,1,0,2:0:0:0:
322,244,29021,5,6,1:2:0:0:
322,244,29197,1,2,2:0:0:0:
468,354,29374,5,10,2:0:0:0:
468,354,29550,1,2,2:0:0:0:
310,384,29727,2,0,P|244:370|177:364,1,135,2|0,2:0|2:0,2:0:0:0:
156,339,30080,2,0,P|152:294|143:250,1,90,10|2,2:0|2:0,2:0:0:0:
206,102,30433,5,2,1:2:0:0:
68,163,30609,1,2,2:0:0:0:
30,83,30786,5,10,2:0:0:0:
236,211,30962,1,2,2:0:0:0:
328,164,31138,2,0,P|333:88|348:14,1,135,2|0,2:0|2:0,2:0:0:0:
330,0,31491,1,10,2:0:0:0:
330,0,31668,1,2,2:0:0:0:
490,117,31844,5,2,1:2:0:0:
490,117,32021,1,2,2:0:0:0:
376,298,32197,5,10,2:0:0:0:
376,298,32374,1,2,2:0:0:0:
250,194,32550,6,0,P|160:204|72:223,1,180,2|10,2:0|2:0,2:0:0:0:
0,48,33080,2,0,P|44:51|88:60,1,90,2|0,2:0|1:0,2:0:0:0:
167,171,33433,5,2,2:0:0:0:
167,171,33609,1,8,2:0:0:0:
276,92,33786,5,0,2:0:0:0:
328,164,33962,1,0,2:0:0:0:
411,149,34138,1,0,1:0:0:0:
482,296,34315,5,8,2:0:0:0:
482,296,34491,1,0,2:0:0:0:
285,375,34668,6,0,P|207:358|126:351,2,144,6|10|2,1:2|2:0|2:0,2:0:0:0:
285,375,35727,1,10,2:0:0:0:
342,313,35903,1,2,2:0:0:0:
291,243,36080,2,0,P|285:207|279:171,1,72,0|0,1:0|2:0,2:0:0:0:
308,64,36433,5,8,2:0:0:0:
308,64,36609,2,0,P|229:50|154:40,1,144,0|0,2:0|1:0,2:0:0:0:
72,54,37138,2,0,P|107:59|143:65,1,72,8|0,2:0|2:0,2:0:0:0:
45,141,37491,6,0,P|37:69|21:0,2,144,2|10|2,1:2|2:0|2:0,2:0:0:0:
45,141,38550,1,10,2:0:0:0:
5,213,38727,1,2,2:0:0:0:
54,282,38903,6,0,P|125:291|196:304,1,144,0|8,1:0|2:0,2:0:0:0:
172,155,39433,2,0,P|243:145|314:132,1,144,0|0,2:0|1:0,2:0:0:0:
408,135,39962,2,0,P|372:140|336:146,1,72,8|0,2:0|2:0,2:0:0:0:
438,216,40315,6,0,P|446:144|463:74,2,144,6|10|2,1:2|2:0|2:0,2:0:0:0:
438,216,41374,1,10,2:0:0:0:
356,247,41550,1,2,2:0:0:0:
295,178,41727,6,0,P|307:107|317:35,1,144,0|8,1:0|2:0,2:0:0:0:
130,99,42256,2,0,P|142:169|153:241,1,144,0|0,2:0|1:0,2:0:0:0:
147,332,42786,2,0,P|142:296|137:260,1,72,8|0,2:0|2:0,2:0:0:0:
69,359,43138,6,0,P|140:367|210:384,2,144,2|10|2,1:2|2:0|2:0,2:0:0:0:
69,359,44197,1,10,2:0:0:0:
19,287,44374,1,2,2:0:0:0:
72,207,44550,2,0,P|108:202|144:197,1,72,0|0,1:0|2:0,2:0:0:0:
249,309,44903,5,8,2:0:0:0:
249,309,45080,1,0,2:0:0:0:
338,258,45256,5,0,2:0:0:0:
338,258,45344,1,0,2:0:0:0:
338,258,45433,2,0,P|343:222|348:186,2,72,0|8|0,1:0|2:0|2:0,2:0:0:0:
433,363,45962,6,0,P|508:334|507:257,1,144,10|8,2:0|2:0,2:0:0:0:
448,207,46491,1,0,2:0:0:0:
497,132,46668,2,0,P|504:96|514:56,1,72,10|0,2:0|2:0,2:0:0:0:
323,2,47021,1,8,2:0:0:0:
323,2,47197,2,0,P|336:82|346:162,1,144,2|0,2:0|2:0,2:0:0:0:
292,305,47727,6,0,P|328:312|368:322,1,72,8|2,2:0|2:0,2:0:0:0:
384,236,48080,2,0,P|349:227|313:220,1,72,8|0,2:0|2:0,2:0:0:0:
419,96,48433,1,8,2:0:0:0:
246,36,48609,5,0,2:0:0:0:
235,42,48697,1,0,2:0:0:0:
225,50,48786,2,0,P|203:132|186:219,1,144,10|8,2:0|2:0,2:0:0:0:
190,189,49491,5,10,2:0:0:0:
121,154,49668,1,0,2:0:0:0:
136,72,49844,1,8,2:0:0:0:
21,150,50021,6,0,P|37:219|51:290,1,144,2|0,2:0|2:0,2:0:0:0:
149,325,50550,1,8,2:0:0:0:
257,237,50727,2,0,P|240:306|226:377,1,144,2|2,2:0|2:0,2:0:0:0:
225,377,51256,1,10,2:0:0:0:
319,358,51433,1,2,2:0:0:0:
368,289,51609,6,0,P|361:253|351:213,1,72,10|0,2:0|2:0,2:0:0:0:
437,197,51962,2,0,P|446:232|453:268,1,72,10|0,2:0|2:0,2:0:0:0:
512,125,52315,6,0,P|468:85|374:102,1,144,10|10,2:0|2:0,2:0:0:0:
301,110,52844,2,0,P|265:103|230:94,1,72,2|8,2:0|2:0,2:0:0:0:
254,7,53197,2,0,P|289:13|324:22,1,72,2|8,2:0|2:0,2:0:0:0:
387,91,53550,2,0,P|378:125|371:161,1,72,2|8,2:0|2:0,2:0:0:0:
309,265,53903,5,2,2:0:0:0:
383,255,54080,1,10,2:0:0:0:
431,314,54256,1,2,2:0:0:0:
348,360,54433,5,6,2:0:0:0:
264,380,54609,1,2,2:0:0:0:
214,309,54786,1,2,2:0:0:0:
223,227,54962,5,2,2:0:0:0:
179,220,55138,1,0,2:0:0:0:
152,253,55315,1,2,2:0:0:0:
290,131,55668,6,0,P|276:78|266:25,1,108,2|0,2:0|2:0,2:0:0:0:
200,98,56550,6,0,P|195:116|190:134,2,26.9999999999999,0|0|0,3:0|3:0|3:0,2:0:0:0:
150,34,56903,2,0,P|154:15|159:-2,2,26.9999999999999,0|0|0,3:0|3:0|3:0,2:0:0:0:
10,94,57256,5,14,2:0:0:0:
473,294,68550,6,0,P|478:334|463:367,1,72,6|0,1:2|2:0,2:0:0:0:
380,346,68903,2,0,P|374:310|386:277,1,72,10|0,1:2|2:0,2:0:0:0:
451,206,69256,6,0,P|458:169|467:122,1,72,2|0,1:2|2:0,2:0:0:0:
464,135,69521,1,2,1:2:0:0:
471,139,69609,1,8,2:0:0:0:
404,74,69786,1,2,1:2:0:0:
318,107,69962,2,0,P|311:142|304:177,1,72,2|0,1:2|2:0,2:0:0:0:
227,231,70315,6,0,P|192:238|157:245,1,72,10|0,1:2|2:0,2:0:0:0:
141,149,70668,2,0,P|176:142|211:135,1,72,2|0,1:2|2:0,2:0:0:0:
212,135,70933,1,2,1:2:0:0:
212,135,71021,1,8,2:0:0:0:
253,64,71197,1,10,1:2:0:0:
188,14,71374,2,0,P|153:7|118:0,1,72,2|2,1:2|2:0,2:0:0:0:
14,57,71727,6,0,P|7:92|0:127,1,72,10|2,1:2|2:0,2:0:0:0:
61,208,72080,2,0,P|54:243|47:278,1,72,2|0,1:2|2:0,2:0:0:0:
46,278,72344,1,0,1:0:0:0:
46,278,72433,1,10,2:0:0:0:
152,379,72609,6,0,P|216:357|226:289,1,144,10|2,1:2|2:0,2:0:0:0:
176,221,73138,2,0,P|183:186|190:151,1,72,8|10,1:2|2:0,2:0:0:0:
217,130,73403,5,8,2:0:0:0:
217,130,73491,2,0,P|234:128|252:124,2,36,8|8|8,1:2|2:0|2:0,2:0:0:0:
276,211,73844,2,0,P|311:218|346:225,1,72,8|8,2:0|1:2,2:0:0:0:
421,297,74197,5,14,1:2:0:0:
421,297,74374,1,2,2:0:0:0:
490,241,74550,5,10,1:2:0:0:
490,241,74727,1,2,2:0:0:0:
442,163,74903,6,0,P|449:128|456:93,1,72,10|0,1:2|2:0,2:0:0:0:
443,60,75168,1,0,1:0:0:0:
443,60,75256,2,0,P|408:53|373:46,1,72,10|2,2:0|1:2,2:0:0:0:
261,1,75609,5,14,1:2:0:0:
261,1,75786,1,2,2:0:0:0:
205,76,75962,5,10,1:2:0:0:
205,76,76138,1,2,2:0:0:0:
279,139,76315,6,0,P|286:174|293:209,1,72,10|0,1:2|2:0,2:0:0:0:
279,245,76580,1,0,1:0:0:0:
279,245,76668,2,0,P|244:252|209:259,1,72,10|10,2:0|1:2,2:0:0:0:
75,214,77021,5,14,1:2:0:0:
66,262,77197,1,10,2:0:0:0:
103,298,77374,1,10,1:2:0:0:
177,343,77550,5,10,2:0:0:0:
248,329,77727,1,14,1:2:0:0:
302,384,77903,1,8,2:0:0:0:
394,350,78080,5,10,2:0:0:0:
460,284,78256,1,10,1:2:0:0:
446,200,78433,1,12,1:2:0:0:
452,164,78521,1,8,2:0:0:0:
459,129,78609,1,10,2:0:0:0:
467,94,78697,1,8,2:0:0:0:
477,60,78786,2,0,L|470:10,3,36,8|8|8|8,1:2|2:0|2:0|2:0,2:0:0:0:
347,131,79138,5,0,1:0:0:0:
347,131,79315,1,2,2:0:0:0:
286,70,79491,2,0,P|293:35|300:0,1,72,2|2,2:0|1:2,2:0:0:0:
202,167,79844,5,6,1:2:0:0:
137,0,80021,1,2,2:0:0:0:
209,64,80197,5,10,1:2:0:0:
138,246,80374,1,2,2:0:0:0:
22,188,80550,2,0,P|11:120|0:54,1,135,2|0,1:2|2:0,2:0:0:0:
0,54,80903,2,0,P|44:58|88:66,1,90,10|0,1:2|2:0,2:0:0:0:
243,189,81256,5,2,1:2:0:0:
243,189,81433,1,2,2:0:0:0:
379,51,81609,5,10,1:2:0:0:
379,51,81786,1,2,2:0:0:0:
510,158,81962,6,0,P|506:203|498:247,1,90,2|2,1:2|2:3,2:0:0:0:
349,132,82315,2,0,P|340:176|336:221,1,90,10|2,1:2|2:0,2:0:0:0:
460,377,82668,5,2,1:2:0:0:
319,315,82844,1,2,2:0:0:0:
408,306,83021,1,10,1:2:0:0:
374,384,83197,1,2,2:0:0:0:
218,260,83374,6,0,P|155:274|144:338,1,135,2|0,1:2|2:0,2:0:0:0:
143,335,83727,2,0,P|187:339|231:350,1,90,10|2,1:2|2:0,2:0:0:0:
254,176,84080,5,2,1:2:0:0:
254,176,84256,1,2,2:0:0:0:
423,227,84433,5,10,1:2:0:0:
423,227,84609,1,2,2:0:0:0:
423,10,84786,5,2,1:2:0:0:
365,84,84962,1,2,2:3:0:0:
275,67,85138,1,10,1:2:0:0:
331,6,85315,1,2,2:3:0:0:
298,177,85491,5,6,1:2:0:0:
298,177,85668,1,2,2:0:0:0:
157,85,85844,5,10,1:2:0:0:
157,85,86021,1,2,2:0:0:0:
0,164,86197,6,0,P|11:230|21:297,1,135,2|0,1:2|2:0,2:0:0:0:
21,297,86550,2,0,P|66:305|111:309,1,90,10|2,1:2|2:0,2:0:0:0:
299,272,86903,5,2,1:2:0:0:
174,217,87080,1,2,2:0:0:0:
61,383,87256,5,10,1:2:0:0:
197,334,87433,1,2,2:0:0:0:
83,205,87609,2,0,P|90:160|95:115,1,90,2|2,1:2|2:3,2:0:0:0:
248,31,87962,2,0,P|252:75|261:119,1,90,10|2,1:2|2:0,2:0:0:0:
376,218,88315,5,2,1:2:0:0:
376,218,88491,1,2,2:0:0:0:
495,96,88668,5,10,1:2:0:0:
495,96,88844,1,2,2:0:0:0:
458,274,89021,6,0,P|355:252|248:243,1,180,2|10,1:2|1:2,2:0:0:0:
82,382,89550,2,0,P|126:373|170:369,1,90,2|0,2:0|1:0,2:0:0:0:
280,244,89903,1,2,2:0:0:0:
215,189,90080,1,8,1:2:0:0:
250,320,90256,1,2,2:3:0:0:
96,225,90433,5,8,1:3:0:0:
101,201,90521,1,8,2:3:0:0:
107,175,90609,1,6,2:3:0:0:
198,61,90786,2,0,P|264:52|330:37,1,135,10|0,1:2|2:0,2:0:0:0:
355,23,91138,5,6,1:2:0:0:
320,162,91315,1,2,2:0:0:0:
508,243,91491,5,10,1:2:0:0:
480,97,91668,1,2,2:0:0:0:
359,257,91844,6,0,P|292:269|225:274,1,135,2|0,1:2|2:0,2:0:0:0:
225,274,92197,2,0,P|180:264|136:261,1,90,10|2,1:2|2:0,2:0:0:0:
10,165,92550,5,2,1:2:0:0:
10,165,92727,1,2,2:0:0:0:
101,354,92903,5,10,1:2:0:0:
101,354,93080,1,2,2:0:0:0:
230,175,93256,6,0,P|239:131|243:86,1,90,2|2,1:2|2:3,2:0:0:0:
128,60,93609,2,0,P|119:104|115:149,1,90,10|2,1:2|2:0,2:0:0:0:
255,340,93962,5,2,1:2:0:0:
174,300,94138,1,2,2:0:0:0:
101,354,94315,1,10,1:2:0:0:
184,384,94491,1,2,2:0:0:0:
45,268,94668,6,0,P|38:200|25:134,1,135,2|0,1:2|2:0,2:0:0:0:
26,135,95021,2,0,P|70:138|114:147,1,90,10|2,1:2|2:0,2:0:0:0:
219,8,95374,5,2,1:2:0:0:
219,8,95550,1,2,2:0:0:0:
334,179,95727,5,10,1:2:0:0:
334,179,95903,1,2,2:0:0:0:
504,13,96080,5,2,1:2:0:0:
449,76,96256,1,2,2:3:0:0:
368,55,96433,1,10,1:2:0:0:
427,1,96609,1,2,2:3:0:0:
247,111,96786,5,6,1:2:0:0:
247,111,96962,1,2,2:0:0:0:
437,252,97138,5,10,1:2:0:0:
437,252,97315,1,2,2:0:0:0:
278,384,97491,2,0,P|228:362|230:272,1,135,2|0,1:2|2:0,2:0:0:0:
218,288,97844,2,0,P|262:279|306:275,1,90,10|2,1:2|2:0,2:0:0:0:
366,180,98197,5,2,1:2:0:0:
319,62,98374,1,2,2:0:0:0:
454,157,98550,5,10,1:2:0:0:
390,331,98727,1,2,2:0:0:0:
249,206,98903,2,0,P|182:194|115:190,1,135,2|0,1:2|2:0,2:0:0:0:
115,190,99256,2,0,P|106:234|102:278,1,90,10|2,1:2|2:0,2:0:0:0:
8,131,99609,5,2,1:2:0:0:
8,131,99786,1,2,2:0:0:0:
112,24,99962,5,10,1:2:0:0:
112,24,100138,1,2,2:0:0:0:
232,108,100315,6,0,P|320:89|410:80,1,180,2|10,1:2|1:2,2:0:0:0:
512,232,100844,2,0,P|467:222|423:219,1,90,2|0,2:0|1:0,2:0:0:0:
305,51,101197,5,2,2:0:0:0:
305,51,101374,1,8,2:0:0:0:
494,136,101550,5,2,1:3:0:0:
494,136,101727,1,0,2:0:0:0:
337,297,101903,5,10,2:0:0:0:
403,343,102080,1,10,2:0:0:0:
335,384,102256,1,2,2:0:0:0:
206,305,102433,6,0,P|212:269|218:233,1,67.5000000000002,6|2,1:2|2:0,2:0:0:0:
93,152,102786,2,0,P|87:116|82:86,2,67.5000000000002,10|2|2,2:0|2:0|2:0,2:0:0:0:
154,194,103315,1,0,2:0:0:0:
215,152,103491,2,0,P|222:102|232:52,1,101.25,10|0,2:0|2:0,2:0:0:0:
257,32,103844,6,0,P|290:37|323:42,1,67.5000000000002,0|2,1:0|2:0,2:0:0:0:
502,157,104197,2,0,P|506:123|512:90,2,67.5000000000002,10|2|2,2:0|2:0|2:0,2:0:0:0:
465,230,104727,1,0,2:0:0:0:
389,200,104903,2,0,P|339:208|289:216,1,101.25,10|0,2:0|2:0,2:0:0:0:
267,234,105256,6,0,P|271:267|277:300,1,67.5000000000002,0|2,1:0|2:0,2:0:0:0:
97,384,105609,2,0,P|63:378|30:373,2,67.5000000000002,10|2|2,2:0|2:0|2:0,2:0:0:0:
153,316,106138,1,0,2:0:0:0:
105,246,106315,2,0,P|93:186|82:125,1,101.25,10|0,2:0|2:0,2:0:0:0:
81,119,106668,6,0,P|114:114|147:109,1,67.5000000000002,0|2,1:0|2:0,2:0:0:0:
335,13,107021,2,0,P|368:18|401:23,2,67.5000000000002,10|2|2,2:0|2:0|2:0,2:0:0:0:
280,90,107550,1,0,2:0:0:0:
332,169,107727,2,0,P|381:178|431:184,1,101.25,10|0,2:0|2:0,2:0:0:0:
459,215,108080,6,0,P|454:249|449:282,1,67.5000000000002,4|2,1:2|2:0,2:0:0:0:
291,374,108433,2,0,P|258:379|225:384,2,67.5000000000002,10|2|2,2:0|2:0|2:0,2:0:0:0:
346,288,108962,1,0,2:0:0:0:
305,194,109138,2,0,P|255:184|205:178,1,101.25,10|0,2:0|2:0,2:0:0:0:
193,151,109491,6,0,P|198:117|202:84,1,67.5000000000002,0|2,1:0|2:0,2:0:0:0:
11,71,109844,2,0,P|6:38|1:5,2,67.5000000000002,10|2|2,2:0|2:0|2:0,2:0:0:0:
105,124,110374,1,0,2:0:0:0:
202,84,110550,2,0,P|252:90|301:99,1,101.25,10|0,2:0|2:0,2:0:0:0:
328,79,110903,6,0,P|361:74|394:69,1,67.5000000000002,0|2,1:0|2:0,2:0:0:0:
306,249,111256,2,0,P|273:244|240:239,2,67.5000000000002,10|2|2,2:0|2:0|2:0,2:0:0:0:
414,195,111786,1,0,2:0:0:0:
501,269,111962,2,0,P|491:318|485:368,1,101.25,10|0,2:0|2:0,2:0:0:0:
463,377,112315,6,0,P|429:372|396:367,1,67.5000000000002,0|2,1:0|2:0,2:0:0:0:
203,312,112668,2,0,P|170:317|137:322,2,67.5000000000002,10|2|10,2:0|2:0|2:3,2:0:0:0:
203,312,113109,1,8,2:3:0:0:
203,312,113197,1,6,1:3:0:0:
302,248,113374,2,0,P|313:177|322:121,1,101.25,10|0,2:0|2:0,2:0:0:0:
305,116,113727,6,0,P|260:122|216:129,1,90,6|0,1:2|2:0,2:0:0:0:
194,17,114080,2,0,P|238:10|283:4,1,90,10|0,2:0|2:0,2:0:0:0:
512,52,114433,5,2,2:0:0:0:
476,131,114609,1,2,1:2:0:0:
397,162,114786,1,10,2:0:0:0:
318,148,114962,2,0,P|311:203|300:259,1,90,2|0,2:0|1:0,2:0:0:0:
357,373,115315,5,2,2:0:0:0:
357,373,115491,1,10,2:0:0:0:
512,290,115668,2,0,P|457:282|404:271,1,90,2|0,2:0|2:0,2:0:0:0:
245,302,116021,5,2,1:2:0:0:
209,258,116197,1,10,2:0:0:0:
224,207,116374,1,2,2:0:0:0:
199,384,116550,6,0,P|153:374|106:369,1,90,0|2,1:0|2:0,2:0:0:0:
0,325,116903,2,0,P|44:333|88:339,1,90,10|2,2:0|2:0,2:0:0:0:
141,178,117256,5,2,2:0:0:0:
118,100,117433,1,2,1:2:0:0:
57,157,117609,1,10,2:0:0:0:
82,234,117786,6,0,P|152:220|267:200,1,180,2|2,2:0|2:0,2:0:0:0:
258,201,118315,1,10,2:0:0:0:
310,83,118491,2,0,P|265:77|221:68,1,90,2|0,2:0|2:0,2:0:0:0:
342,171,118844,5,2,1:2:0:0:
342,171,119021,1,10,2:0:0:0:
405,113,119197,1,2,2:0:0:0:
434,199,119374,2,0,P|425:243|413:336,1,135,6|0,1:2|2:0,2:0:0:0:
411,363,119727,2,0,P|366:354|322:348,1,90,10|0,2:0|2:0,2:0:0:0:
200,256,120080,5,2,2:0:0:0:
170,331,120256,1,2,1:2:0:0:
235,384,120433,1,10,2:0:0:0:
76,375,120609,6,0,P|84:330|90:286,1,90,2|0,2:0|2:0,2:0:0:0:
30,188,120962,5,2,2:0:0:0:
30,188,121138,1,10,2:0:0:0:
81,91,121315,2,0,P|125:82|169:76,1,90,2|8,2:0|2:3,2:0:0:0:
169,76,121580,1,8,2:3:0:0:
169,76,121668,1,6,1:3:0:0:
243,0,121844,5,10,2:0:0:0:
433,113,122197,5,2,1:2:0:0:
393,262,122903,5,2,2:0:0:0:
364,354,123433,5,2,2:0:0:0:
