osu file format v14

[General]
AudioFilename: audio.ogg
AudioLeadIn: 0
PreviewTime: 79213
Countdown: 0
SampleSet: Soft
StackLeniency: 0.7
Mode: 3
LetterboxInBreaks: 0
SpecialStyle: 0
WidescreenStoryboard: 1

[Editor]
DistanceSpacing: 1.2
BeatDivisor: 8
GridSize: 32
TimelineZoom: 1.7

[Metadata]
Title:Usagi Flap
TitleUnicode:Usagi Flap
Artist:Nor
ArtistUnicode:Nor
Creator:DC2_727
Version:Insane
Source:ブルーアーカイブ -Blue Archive-
Tags:ブルアカ nexon yostar nat games video game ost soundtrack 113. track_113 electronic instrumental future bass RABBIT小隊 RABBIT Squad arl
BeatmapID:4268442
BeatmapSetID:2044583

[Difficulty]
HPDrainRate:8
CircleSize:4
OverallDifficulty:8
ApproachRate:5
SliderMultiplier:1.4
SliderTickRate:1

[Events]
//Background and Video events
0,0,"BG_CS_Rabbit.jpg",0,0
//Break Periods
//Storyboard Layer 0 (Background)
//Storyboard Layer 1 (Fail)
//Storyboard Layer 2 (Pass)
//Storyboard Layer 3 (Foreground)
//Storyboard Layer 4 (Overlay)
//Storyboard Sound Samples

[TimingPoints]
786,352.941176470588,4,2,1,60,1,0
12080,-100,4,2,1,60,0,1
34668,-100,4,2,1,60,0,0
79844,-100,4,2,1,60,0,1
102433,-100,4,2,1,60,0,0

[HitObjects]
64,192,256,5,0,0:0:0:0:
192,192,433,1,0,0:0:0:0:
320,192,609,1,0,0:0:0:0:
64,192,786,1,0,0:0:0:0:
448,192,786,128,0,874:0:0:0:0:
320,192,962,1,0,0:0:0:0:
64,192,1138,128,0,1227:0:0:0:0:
192,192,1315,1,0,0:0:0:0:
448,192,1491,1,0,0:0:0:0:
320,192,1491,128,0,1756:0:0:0:0:
192,192,1668,128,0,1756:0:0:0:0:
64,192,1844,128,0,2197:0:0:0:0:
192,192,2021,128,0,2197:0:0:0:0:
320,192,2021,1,0,0:0:0:0:
448,192,2197,1,0,0:0:0:0:
320,192,2374,128,0,2462:0:0:0:0:
192,192,2550,128,0,2638:0:0:0:0:
64,192,2727,128,0,2903:0:0:0:0:
448,192,2727,1,0,0:0:0:0:
192,192,2903,1,0,0:0:0:0:
320,192,3080,128,0,3433:0:0:0:0:
448,192,3256,128,0,3433:0:0:0:0:
64,192,3433,128,0,3609:0:0:0:0:
320,192,3609,128,0,3697:0:0:0:0:
448,192,3609,1,0,0:0:0:0:
320,192,3785,128,0,3874:0:0:0:0:
64,192,3962,1,0,0:0:0:0:
192,192,3962,128,0,4050:0:0:0:0:
64,192,4138,128,0,4227:0:0:0:0:
448,192,4315,1,0,0:0:0:0:
192,192,4315,1,0,0:0:0:0:
320,192,4491,128,0,4580:0:0:0:0:
448,192,4668,128,0,4756:0:0:0:0:
64,192,4844,128,0,5021:0:0:0:0:
192,192,4844,1,0,0:0:0:0:
448,192,5021,1,0,0:0:0:0:
192,192,5197,128,0,5550:0:0:0:0:
320,192,5374,128,0,5550:0:0:0:0:
448,192,5550,1,0,0:0:0:0:
64,192,5550,128,0,5903:0:0:0:0:
320,192,5727,1,0,0:0:0:0:
192,192,5903,1,0,0:0:0:0:
448,192,6080,128,0,6256:0:0:0:0:
64,192,6256,128,0,6433:0:0:0:0:
192,192,6433,128,0,6609:0:0:0:0:
448,192,6433,1,0,0:0:0:0:
320,192,6609,1,0,0:0:0:0:
64,192,6785,128,0,6962:0:0:0:0:
448,192,6785,1,0,0:0:0:0:
192,192,6962,128,0,7138:0:0:0:0:
448,192,7138,128,0,7315:0:0:0:0:
64,192,7138,1,0,0:0:0:0:
320,192,7315,128,0,7491:0:0:0:0:
64,192,7491,128,0,7844:0:0:0:0:
192,192,7491,1,0,0:0:0:0:
448,192,7668,128,0,7844:0:0:0:0:
192,192,7844,1,0,0:0:0:0:
192,192,8021,128,0,8197:0:0:0:0:
64,192,8197,1,0,0:0:0:0:
320,192,8197,1,0,0:0:0:0:
448,192,8374,128,0,8727:0:0:0:0:
64,192,8374,1,0,0:0:0:0:
320,192,8550,128,0,8903:0:0:0:0:
192,192,8727,128,0,8903:0:0:0:0:
64,192,8903,1,0,0:0:0:0:
448,192,8903,1,0,0:0:0:0:
448,192,9080,1,0,0:0:0:0:
64,192,9256,1,0,0:0:0:0:
320,192,9256,128,0,10138:0:0:0:0:
448,192,9962,1,0,0:0:0:0:
192,192,10138,1,0,0:0:0:0:
64,192,10315,128,0,11021:0:0:0:0:
320,192,10491,1,0,0:0:0:0:
448,192,10844,128,0,11021:0:0:0:0:
64,192,11550,128,0,11903:0:0:0:0:
448,192,11550,128,0,11903:0:0:0:0:
192,192,11903,1,0,0:0:0:0:
448,192,12080,1,0,0:0:0:0:
192,192,12080,128,0,12256:0:0:0:0:
64,192,12080,1,0,0:0:0:0:
320,192,12080,1,0,0:0:0:0:
448,192,12256,1,0,0:0:0:0:
64,192,12433,1,0,0:0:0:0:
320,192,12433,128,0,12609:0:0:0:0:
192,192,12433,1,0,0:0:0:0:
64,192,12609,1,0,0:0:0:0:
448,192,12785,128,0,12962:0:0:0:0:
320,192,12785,1,0,0:0:0:0:
192,192,12962,1,0,0:0:0:0:
64,192,12962,1,0,0:0:0:0:
448,192,13138,1,0,0:0:0:0:
64,192,13138,1,0,0:0:0:0:
320,192,13138,1,0,0:0:0:0:
320,192,13315,1,0,0:0:0:0:
448,192,13315,1,0,0:0:0:0:
64,192,13491,128,0,13668:0:0:0:0:
192,192,13491,1,0,0:0:0:0:
192,192,13668,1,0,0:0:0:0:
448,192,13844,128,0,14021:0:0:0:0:
320,192,13844,1,0,0:0:0:0:
64,192,13844,1,0,0:0:0:0:
320,192,14021,1,0,0:0:0:0:
192,192,14197,128,0,14374:0:0:0:0:
64,192,14374,1,0,0:0:0:0:
320,192,14374,1,0,0:0:0:0:
192,192,14550,1,0,0:0:0:0:
64,192,14550,1,0,0:0:0:0:
448,192,14550,128,0,14727:0:0:0:0:
320,192,14727,128,0,14903:0:0:0:0:
64,192,14903,128,0,15080:0:0:0:0:
192,192,14903,1,0,0:0:0:0:
192,192,15080,1,0,0:0:0:0:
320,192,15256,1,0,0:0:0:0:
448,192,15256,128,0,15433:0:0:0:0:
64,192,15256,1,0,0:0:0:0:
320,192,15433,1,0,0:0:0:0:
64,192,15609,128,0,15785:0:0:0:0:
448,192,15785,1,0,0:0:0:0:
320,192,15785,1,0,0:0:0:0:
64,192,15962,1,0,0:0:0:0:
448,192,15962,1,0,0:0:0:0:
192,192,15962,1,0,0:0:0:0:
192,192,16138,1,0,0:0:0:0:
64,192,16138,1,0,0:0:0:0:
448,192,16315,128,0,16491:0:0:0:0:
320,192,16315,1,0,0:0:0:0:
320,192,16491,1,0,0:0:0:0:
192,192,16668,128,0,16844:0:0:0:0:
64,192,16668,1,0,0:0:0:0:
448,192,16668,1,0,0:0:0:0:
64,192,16844,1,0,0:0:0:0:
320,192,17021,128,0,17197:0:0:0:0:
192,192,17197,1,0,0:0:0:0:
64,192,17197,1,0,0:0:0:0:
320,192,17374,1,0,0:0:0:0:
64,192,17374,1,0,0:0:0:0:
192,192,17374,1,0,0:0:0:0:
448,192,17550,1,0,0:0:0:0:
448,192,17727,1,0,0:0:0:0:
64,192,17727,128,0,17815:0:0:0:0:
320,192,17727,1,0,0:0:0:0:
64,192,17903,128,0,17991:0:0:0:0:
320,192,18080,1,0,0:0:0:0:
448,192,18080,128,0,18168:0:0:0:0:
192,192,18080,1,0,0:0:0:0:
448,192,18256,128,0,18344:0:0:0:0:
192,192,18433,128,0,18521:0:0:0:0:
448,192,18609,1,0,0:0:0:0:
320,192,18609,1,0,0:0:0:0:
64,192,18785,1,0,0:0:0:0:
448,192,18785,1,0,0:0:0:0:
192,192,18785,1,0,0:0:0:0:
192,192,18962,1,0,0:0:0:0:
320,192,18962,1,0,0:0:0:0:
64,192,19138,128,0,19227:0:0:0:0:
448,192,19138,1,0,0:0:0:0:
64,192,19315,128,0,19403:0:0:0:0:
448,192,19491,128,0,19580:0:0:0:0:
320,192,19491,1,0,0:0:0:0:
192,192,19491,1,0,0:0:0:0:
448,192,19668,128,0,19756:0:0:0:0:
64,192,19844,128,0,19933:0:0:0:0:
192,192,20021,1,0,0:0:0:0:
320,192,20021,1,0,0:0:0:0:
64,192,20197,1,0,0:0:0:0:
448,192,20197,1,0,0:0:0:0:
320,192,20197,1,0,0:0:0:0:
64,192,20374,1,0,0:0:0:0:
192,192,20374,1,0,0:0:0:0:
320,192,20550,1,0,0:0:0:0:
448,192,20550,128,0,20727:0:0:0:0:
320,192,20727,1,0,0:0:0:0:
64,192,20903,128,0,21080:0:0:0:0:
192,192,20903,1,0,0:0:0:0:
448,192,20903,1,0,0:0:0:0:
192,192,21080,1,0,0:0:0:0:
448,192,21256,128,0,21433:0:0:0:0:
192,192,21433,1,0,0:0:0:0:
64,192,21433,1,0,0:0:0:0:
64,192,21609,1,0,0:0:0:0:
448,192,21609,1,0,0:0:0:0:
320,192,21609,1,0,0:0:0:0:
320,192,21785,128,0,21962:0:0:0:0:
448,192,21785,1,0,0:0:0:0:
192,192,21962,1,0,0:0:0:0:
64,192,21962,1,0,0:0:0:0:
64,192,22138,128,0,22668:0:0:0:0:
192,192,22315,1,0,0:0:0:0:
320,192,22315,1,0,0:0:0:0:
448,192,22315,1,0,0:0:0:0:
448,192,22491,1,0,0:0:0:0:
192,192,22668,1,0,0:0:0:0:
320,192,22756,1,0,0:0:0:0:
448,192,22844,128,0,23021:0:0:0:0:
64,192,22844,1,0,0:0:0:0:
320,192,23021,1,0,0:0:0:0:
192,192,23021,1,0,0:0:0:0:
64,192,23021,1,0,0:0:0:0:
192,192,23197,128,0,23374:0:0:0:0:
320,192,23374,1,0,0:0:0:0:
64,192,23374,1,0,0:0:0:0:
448,192,23374,128,0,23550:0:0:0:0:
320,192,23550,1,0,0:0:0:0:
64,192,23727,128,0,23903:0:0:0:0:
192,192,23727,1,0,0:0:0:0:
448,192,23727,1,0,0:0:0:0:
192,192,23903,1,0,0:0:0:0:
448,192,24080,128,0,24256:0:0:0:0:
320,192,24080,1,0,0:0:0:0:
64,192,24256,1,0,0:0:0:0:
192,192,24256,1,0,0:0:0:0:
64,192,24433,1,0,0:0:0:0:
448,192,24433,1,0,0:0:0:0:
320,192,24433,1,0,0:0:0:0:
448,192,24609,1,0,0:0:0:0:
320,192,24609,1,0,0:0:0:0:
64,192,24785,128,0,24962:0:0:0:0:
192,192,24785,1,0,0:0:0:0:
192,192,24962,1,0,0:0:0:0:
448,192,25138,128,0,25315:0:0:0:0:
320,192,25138,1,0,0:0:0:0:
64,192,25138,1,0,0:0:0:0:
320,192,25315,1,0,0:0:0:0:
192,192,25491,128,0,25668:0:0:0:0:
448,192,25668,1,0,0:0:0:0:
320,192,25668,1,0,0:0:0:0:
448,192,25844,128,0,26021:0:0:0:0:
64,192,25844,1,0,0:0:0:0:
192,192,25844,1,0,0:0:0:0:
320,192,26021,128,0,26197:0:0:0:0:
64,192,26197,128,0,26374:0:0:0:0:
192,192,26197,1,0,0:0:0:0:
192,192,26374,1,0,0:0:0:0:
448,192,26550,128,0,26727:0:0:0:0:
320,192,26550,1,0,0:0:0:0:
64,192,26550,1,0,0:0:0:0:
320,192,26727,1,0,0:0:0:0:
192,192,26903,1,0,0:0:0:0:
64,192,26903,128,0,27080:0:0:0:0:
448,192,27080,1,0,0:0:0:0:
320,192,27080,1,0,0:0:0:0:
64,192,27256,1,0,0:0:0:0:
448,192,27256,1,0,0:0:0:0:
192,192,27256,1,0,0:0:0:0:
192,192,27433,1,0,0:0:0:0:
64,192,27433,1,0,0:0:0:0:
448,192,27609,128,0,27785:0:0:0:0:
320,192,27609,1,0,0:0:0:0:
320,192,27785,1,0,0:0:0:0:
192,192,27962,128,0,28138:0:0:0:0:
64,192,27962,1,0,0:0:0:0:
448,192,27962,1,0,0:0:0:0:
64,192,28138,1,0,0:0:0:0:
320,192,28315,128,0,28491:0:0:0:0:
448,192,28491,1,0,0:0:0:0:
64,192,28491,1,0,0:0:0:0:
192,192,28668,1,0,0:0:0:0:
448,192,28668,1,0,0:0:0:0:
320,192,28668,1,0,0:0:0:0:
64,192,28844,1,0,0:0:0:0:
64,192,29021,1,0,0:0:0:0:
448,192,29021,128,0,29109:0:0:0:0:
192,192,29021,1,0,0:0:0:0:
448,192,29197,128,0,29285:0:0:0:0:
192,192,29374,1,0,0:0:0:0:
64,192,29374,128,0,29462:0:0:0:0:
320,192,29374,1,0,0:0:0:0:
64,192,29550,128,0,29638:0:0:0:0:
320,192,29727,128,0,29815:0:0:0:0:
64,192,29903,1,0,0:0:0:0:
192,192,29903,1,0,0:0:0:0:
448,192,30080,1,0,0:0:0:0:
64,192,30080,1,0,0:0:0:0:
320,192,30080,1,0,0:0:0:0:
320,192,30256,1,0,0:0:0:0:
192,192,30256,1,0,0:0:0:0:
448,192,30433,128,0,30521:0:0:0:0:
64,192,30433,1,0,0:0:0:0:
448,192,30609,128,0,30697:0:0:0:0:
64,192,30785,128,0,30874:0:0:0:0:
192,192,30785,1,0,0:0:0:0:
320,192,30785,1,0,0:0:0:0:
64,192,30962,128,0,31050:0:0:0:0:
448,192,31138,128,0,31227:0:0:0:0:
320,192,31315,1,0,0:0:0:0:
192,192,31315,1,0,0:0:0:0:
448,192,31491,1,0,0:0:0:0:
64,192,31491,1,0,0:0:0:0:
192,192,31491,1,0,0:0:0:0:
448,192,31668,1,0,0:0:0:0:
320,192,31668,1,0,0:0:0:0:
192,192,31844,1,0,0:0:0:0:
64,192,31844,128,0,32021:0:0:0:0:
192,192,32021,1,0,0:0:0:0:
448,192,32197,128,0,32374:0:0:0:0:
320,192,32197,1,0,0:0:0:0:
64,192,32197,1,0,0:0:0:0:
320,192,32374,1,0,0:0:0:0:
64,192,32550,128,0,32727:0:0:0:0:
320,192,32727,1,0,0:0:0:0:
448,192,32727,1,0,0:0:0:0:
448,192,32903,1,0,0:0:0:0:
192,192,32903,1,0,0:0:0:0:
64,192,32903,1,0,0:0:0:0:
192,192,33080,128,0,33256:0:0:0:0:
320,192,33256,1,0,0:0:0:0:
448,192,33256,1,0,0:0:0:0:
448,192,33433,128,0,33962:0:0:0:0:
320,192,33609,1,0,0:0:0:0:
192,192,33609,1,0,0:0:0:0:
64,192,33609,1,0,0:0:0:0:
64,192,33785,128,0,33874:0:0:0:0:
192,192,33962,128,0,34050:0:0:0:0:
320,192,34138,128,0,34227:0:0:0:0:
448,192,34138,1,0,0:0:0:0:
448,192,34315,128,0,34403:0:0:0:0:
192,192,34315,1,0,0:0:0:0:
64,192,34315,1,0,0:0:0:0:
64,192,34491,128,0,34580:0:0:0:0:
192,192,34668,1,0,0:0:0:0:
448,192,34668,128,0,34756:0:0:0:0:
320,192,34668,1,0,0:0:0:0:
192,192,35021,1,0,0:0:0:0:
64,192,35021,128,0,35109:0:0:0:0:
448,192,35021,1,0,0:0:0:0:
320,192,35197,1,0,0:0:0:0:
192,192,35374,128,0,35462:0:0:0:0:
448,192,35550,1,0,0:0:0:0:
320,192,35550,1,0,0:0:0:0:
448,192,35727,128,0,35815:0:0:0:0:
192,192,35727,1,0,0:0:0:0:
64,192,35727,1,0,0:0:0:0:
64,192,35903,128,0,35991:0:0:0:0:
448,192,36080,1,0,0:0:0:0:
320,192,36080,1,0,0:0:0:0:
320,192,36256,128,0,36433:0:0:0:0:
64,192,36433,1,0,0:0:0:0:
448,192,36433,1,0,0:0:0:0:
192,192,36433,1,0,0:0:0:0:
448,192,36609,128,0,36785:0:0:0:0:
64,192,36785,1,0,0:0:0:0:
192,192,36874,1,0,0:0:0:0:
320,192,36962,1,0,0:0:0:0:
448,192,36962,1,0,0:0:0:0:
192,192,37050,1,0,0:0:0:0:
320,192,37138,1,0,0:0:0:0:
448,192,37138,1,0,0:0:0:0:
64,192,37138,128,0,37315:0:0:0:0:
192,192,37315,1,0,0:0:0:0:
448,192,37491,128,0,37580:0:0:0:0:
320,192,37491,1,0,0:0:0:0:
64,192,37668,1,0,0:0:0:0:
448,192,37844,1,0,0:0:0:0:
320,192,37844,128,0,37933:0:0:0:0:
192,192,37844,1,0,0:0:0:0:
64,192,38021,1,0,0:0:0:0:
448,192,38197,128,0,38285:0:0:0:0:
320,192,38285,1,0,0:0:0:0:
64,192,38374,1,0,0:0:0:0:
192,192,38374,1,0,0:0:0:0:
448,192,38550,1,0,0:0:0:0:
64,192,38550,128,0,38638:0:0:0:0:
320,192,38550,1,0,0:0:0:0:
448,192,38727,128,0,38815:0:0:0:0:
64,192,38903,1,0,0:0:0:0:
192,192,38903,1,0,0:0:0:0:
192,192,39080,128,0,39256:0:0:0:0:
64,192,39256,1,0,0:0:0:0:
448,192,39256,1,0,0:0:0:0:
320,192,39256,1,0,0:0:0:0:
448,192,39433,128,0,39785:0:0:0:0:
64,192,39609,1,0,0:0:0:0:
320,192,39785,1,0,0:0:0:0:
192,192,39785,1,0,0:0:0:0:
64,192,39962,1,0,0:0:0:0:
320,192,39962,1,0,0:0:0:0:
448,192,39962,1,0,0:0:0:0:
192,192,40138,1,0,0:0:0:0:
448,192,40315,128,0,40403:0:0:0:0:
64,192,40315,1,0,0:0:0:0:
320,192,40491,1,0,0:0:0:0:
64,192,40668,128,0,40756:0:0:0:0:
448,192,40668,1,0,0:0:0:0:
192,192,40668,1,0,0:0:0:0:
320,192,40844,1,0,0:0:0:0:
192,192,41021,128,0,41109:0:0:0:0:
64,192,41197,1,0,0:0:0:0:
448,192,41197,1,0,0:0:0:0:
448,192,41374,1,0,0:0:0:0:
320,192,41374,128,0,41462:0:0:0:0:
192,192,41374,1,0,0:0:0:0:
64,192,41550,128,0,41638:0:0:0:0:
320,192,41727,1,0,0:0:0:0:
448,192,41727,1,0,0:0:0:0:
320,192,41903,128,0,42080:0:0:0:0:
448,192,42080,1,0,0:0:0:0:
64,192,42080,1,0,0:0:0:0:
192,192,42080,1,0,0:0:0:0:
64,192,42256,128,0,42433:0:0:0:0:
448,192,42433,1,0,0:0:0:0:
320,192,42521,1,0,0:0:0:0:
192,192,42609,1,0,0:0:0:0:
64,192,42609,1,0,0:0:0:0:
320,192,42697,1,0,0:0:0:0:
192,192,42785,1,0,0:0:0:0:
64,192,42785,1,0,0:0:0:0:
448,192,42785,128,0,42962:0:0:0:0:
320,192,42962,1,0,0:0:0:0:
192,192,43138,1,0,0:0:0:0:
64,192,43138,128,0,43227:0:0:0:0:
192,192,43315,1,0,0:0:0:0:
320,192,43491,1,0,0:0:0:0:
64,192,43491,1,0,0:0:0:0:
448,192,43491,128,0,43580:0:0:0:0:
320,192,43844,128,0,43933:0:0:0:0:
192,192,44021,1,0,0:0:0:0:
64,192,44021,1,0,0:0:0:0:
448,192,44197,1,0,0:0:0:0:
320,192,44197,1,0,0:0:0:0:
64,192,44197,128,0,44285:0:0:0:0:
192,192,44374,128,0,44462:0:0:0:0:
64,192,44550,1,0,0:0:0:0:
448,192,44550,1,0,0:0:0:0:
320,192,44727,1,0,0:0:0:0:
448,192,44903,1,0,0:0:0:0:
64,192,44903,1,0,0:0:0:0:
192,192,44903,1,0,0:0:0:0:
320,192,45080,1,0,0:0:0:0:
192,192,45168,1,0,0:0:0:0:
448,192,45256,128,0,45433:0:0:0:0:
320,192,45433,1,0,0:0:0:0:
192,192,45433,1,0,0:0:0:0:
64,192,45609,1,0,0:0:0:0:
448,192,45609,1,0,0:0:0:0:
64,192,45962,1,0,0:0:0:0:
192,192,45962,1,0,0:0:0:0:
320,192,46138,1,0,0:0:0:0:
448,192,46315,128,0,46491:0:0:0:0:
64,192,46315,1,0,0:0:0:0:
320,192,46491,128,0,46668:0:0:0:0:
448,192,46668,1,0,0:0:0:0:
64,192,46668,128,0,46844:0:0:0:0:
192,192,46844,128,0,47021:0:0:0:0:
320,192,47021,128,0,47197:0:0:0:0:
448,192,47021,1,0,0:0:0:0:
448,192,47197,128,0,47374:0:0:0:0:
192,192,47374,1,0,0:0:0:0:
64,192,47374,1,0,0:0:0:0:
320,192,47550,1,0,0:0:0:0:
448,192,47727,1,0,0:0:0:0:
192,192,47727,1,0,0:0:0:0:
64,192,47903,1,0,0:0:0:0:
320,192,48080,1,0,0:0:0:0:
448,192,48080,1,0,0:0:0:0:
64,192,48256,1,0,0:0:0:0:
192,192,48433,1,0,0:0:0:0:
320,192,48433,1,0,0:0:0:0:
448,192,48609,1,0,0:0:0:0:
320,192,48697,1,0,0:0:0:0:
192,192,48785,128,0,48962:0:0:0:0:
64,192,48785,1,0,0:0:0:0:
320,192,48962,1,0,0:0:0:0:
64,192,49138,1,0,0:0:0:0:
448,192,49138,1,0,0:0:0:0:
192,192,49315,1,0,0:0:0:0:
320,192,49491,1,0,0:0:0:0:
64,192,49491,1,0,0:0:0:0:
448,192,49668,128,0,49844:0:0:0:0:
320,192,49844,128,0,50021:0:0:0:0:
192,192,49844,1,0,0:0:0:0:
64,192,50021,128,0,50197:0:0:0:0:
320,192,50197,1,0,0:0:0:0:
448,192,50197,1,0,0:0:0:0:
64,192,50374,1,0,0:0:0:0:
192,192,50550,1,0,0:0:0:0:
320,192,50550,1,0,0:0:0:0:
448,192,50727,1,0,0:0:0:0:
64,192,50903,1,0,0:0:0:0:
320,192,50903,1,0,0:0:0:0:
192,192,51080,128,0,51256:0:0:0:0:
320,192,51256,128,0,51433:0:0:0:0:
64,192,51256,1,0,0:0:0:0:
448,192,51433,128,0,51609:0:0:0:0:
192,192,51609,1,0,0:0:0:0:
64,192,51609,128,0,51785:0:0:0:0:
448,192,51785,1,0,0:0:0:0:
192,192,51962,1,0,0:0:0:0:
64,192,51962,128,0,52138:0:0:0:0:
320,192,52138,1,0,0:0:0:0:
64,192,52315,1,0,0:0:0:0:
448,192,52315,128,0,52491:0:0:0:0:
320,192,52491,1,0,0:0:0:0:
448,192,52668,1,0,0:0:0:0:
192,192,52668,128,0,52844:0:0:0:0:
64,192,52844,128,0,53021:0:0:0:0:
320,192,53021,1,0,0:0:0:0:
192,192,53021,1,0,0:0:0:0:
448,192,53197,128,0,53374:0:0:0:0:
64,192,53374,1,0,0:0:0:0:
192,192,53374,1,0,0:0:0:0:
320,192,53550,128,0,53727:0:0:0:0:
448,192,53727,1,0,0:0:0:0:
192,192,53727,1,0,0:0:0:0:
64,192,53903,128,0,54080:0:0:0:0:
448,192,54080,1,0,0:0:0:0:
192,192,54080,128,0,54256:0:0:0:0:
320,192,54256,128,0,54433:0:0:0:0:
64,192,54433,1,0,0:0:0:0:
448,192,54433,128,0,54609:0:0:0:0:
320,192,54609,128,0,54785:0:0:0:0:
192,192,54785,128,0,54962:0:0:0:0:
320,192,54962,128,0,55138:0:0:0:0:
64,192,55138,1,0,0:0:0:0:
192,192,55315,128,0,55668:0:0:0:0:
448,192,55668,128,0,56550:0:0:0:0:
64,192,55668,1,0,0:0:0:0:
64,192,56550,1,0,0:0:0:0:
192,192,56594,1,0,0:0:0:0:
320,192,56638,1,0,0:0:0:0:
64,192,56727,1,0,0:0:0:0:
448,192,56903,1,0,0:0:0:0:
320,192,56947,1,0,0:0:0:0:
192,192,56991,1,0,0:0:0:0:
448,192,57080,1,0,0:0:0:0:
64,192,57256,1,0,0:0:0:0:
192,192,57256,1,0,0:0:0:0:
64,192,57433,1,0,0:0:0:0:
320,192,57609,1,0,0:0:0:0:
448,192,57609,1,0,0:0:0:0:
448,192,57785,1,0,0:0:0:0:
192,192,57962,1,0,0:0:0:0:
64,192,57962,1,0,0:0:0:0:
448,192,58315,1,0,0:0:0:0:
192,192,58315,1,0,0:0:0:0:
320,192,58491,1,0,0:0:0:0:
64,192,58668,1,0,0:0:0:0:
192,192,58668,1,0,0:0:0:0:
64,192,58844,1,0,0:0:0:0:
320,192,59021,1,0,0:0:0:0:
448,192,59021,1,0,0:0:0:0:
448,192,59197,1,0,0:0:0:0:
192,192,59374,1,0,0:0:0:0:
64,192,59374,1,0,0:0:0:0:
320,192,59550,1,0,0:0:0:0:
64,192,59727,1,0,0:0:0:0:
192,192,59727,1,0,0:0:0:0:
448,192,59771,1,0,0:0:0:0:
320,192,59815,1,0,0:0:0:0:
64,192,59903,1,0,0:0:0:0:
448,192,60080,1,0,0:0:0:0:
320,192,60080,1,0,0:0:0:0:
192,192,60256,1,0,0:0:0:0:
64,192,60433,1,0,0:0:0:0:
448,192,60433,1,0,0:0:0:0:
320,192,60609,1,0,0:0:0:0:
64,192,60785,1,0,0:0:0:0:
192,192,60785,1,0,0:0:0:0:
320,192,60962,1,0,0:0:0:0:
192,192,61138,1,0,0:0:0:0:
64,192,61138,1,0,0:0:0:0:
320,192,61183,1,0,0:0:0:0:
448,192,61227,1,0,0:0:0:0:
64,192,61315,1,0,0:0:0:0:
320,192,61491,1,0,0:0:0:0:
448,192,61491,1,0,0:0:0:0:
192,192,61668,1,0,0:0:0:0:
448,192,61844,1,0,0:0:0:0:
320,192,61844,1,0,0:0:0:0:
192,192,61888,1,0,0:0:0:0:
64,192,61933,1,0,0:0:0:0:
448,192,62021,1,0,0:0:0:0:
320,192,62109,1,0,0:0:0:0:
64,192,62197,1,0,0:0:0:0:
192,192,62197,1,0,0:0:0:0:
320,192,62241,1,0,0:0:0:0:
448,192,62285,1,0,0:0:0:0:
64,192,62374,1,0,0:0:0:0:
448,192,62550,1,0,0:0:0:0:
320,192,62550,1,0,0:0:0:0:
192,192,62727,1,0,0:0:0:0:
448,192,62903,1,0,0:0:0:0:
64,192,62903,1,0,0:0:0:0:
448,192,63080,1,0,0:0:0:0:
192,192,63256,1,0,0:0:0:0:
64,192,63256,1,0,0:0:0:0:
64,192,63433,1,0,0:0:0:0:
320,192,63609,1,0,0:0:0:0:
448,192,63609,1,0,0:0:0:0:
64,192,63962,1,0,0:0:0:0:
448,192,63962,1,0,0:0:0:0:
192,192,64138,1,0,0:0:0:0:
448,192,64315,1,0,0:0:0:0:
320,192,64315,1,0,0:0:0:0:
448,192,64491,1,0,0:0:0:0:
192,192,64668,1,0,0:0:0:0:
64,192,64668,1,0,0:0:0:0:
64,192,64844,1,0,0:0:0:0:
320,192,65021,1,0,0:0:0:0:
448,192,65021,1,0,0:0:0:0:
192,192,65197,1,0,0:0:0:0:
448,192,65374,1,0,0:0:0:0:
320,192,65374,1,0,0:0:0:0:
64,192,65418,1,0,0:0:0:0:
192,192,65462,1,0,0:0:0:0:
448,192,65550,1,0,0:0:0:0:
320,192,65727,128,0,66609:0:0:0:0:
64,192,65727,1,0,0:0:0:0:
448,192,65903,1,0,0:0:0:0:
64,192,66080,1,0,0:0:0:0:
192,192,66080,1,0,0:0:0:0:
448,192,66256,1,0,0:0:0:0:
64,192,66433,1,0,0:0:0:0:
192,192,66433,1,0,0:0:0:0:
448,192,66609,1,0,0:0:0:0:
64,192,66785,128,0,67138:0:0:0:0:
192,192,66785,1,0,0:0:0:0:
320,192,66830,1,0,0:0:0:0:
448,192,66874,1,0,0:0:0:0:
192,192,66962,1,0,0:0:0:0:
448,192,67138,1,0,0:0:0:0:
320,192,67138,1,0,0:0:0:0:
192,192,67227,1,0,0:0:0:0:
320,192,67315,1,0,0:0:0:0:
448,192,67403,1,0,0:0:0:0:
64,192,67491,1,0,0:0:0:0:
192,192,67491,1,0,0:0:0:0:
448,192,67580,1,0,0:0:0:0:
320,192,67668,1,0,0:0:0:0:
192,192,67668,1,0,0:0:0:0:
64,192,67756,1,0,0:0:0:0:
448,192,67844,1,0,0:0:0:0:
320,192,67844,1,0,0:0:0:0:
192,192,67933,1,0,0:0:0:0:
320,192,68021,1,0,0:0:0:0:
64,192,68021,1,0,0:0:0:0:
448,192,68109,1,0,0:0:0:0:
64,192,68197,1,0,0:0:0:0:
192,192,68197,1,0,0:0:0:0:
448,192,68374,1,0,0:0:0:0:
192,192,68550,1,0,0:0:0:0:
64,192,68550,128,0,68638:0:0:0:0:
448,192,68550,1,0,0:0:0:0:
64,192,68727,128,0,68815:0:0:0:0:
448,192,68903,128,0,68991:0:0:0:0:
320,192,68903,1,0,0:0:0:0:
192,192,68903,1,0,0:0:0:0:
448,192,69080,128,0,69168:0:0:0:0:
192,192,69256,128,0,69344:0:0:0:0:
64,192,69256,1,0,0:0:0:0:
320,192,69256,1,0,0:0:0:0:
192,192,69521,1,0,0:0:0:0:
320,192,69521,1,0,0:0:0:0:
448,192,69609,1,0,0:0:0:0:
64,192,69609,1,0,0:0:0:0:
320,192,69785,1,0,0:0:0:0:
448,192,69785,1,0,0:0:0:0:
192,192,69962,1,0,0:0:0:0:
448,192,69962,1,0,0:0:0:0:
64,192,69962,128,0,70050:0:0:0:0:
64,192,70138,128,0,70227:0:0:0:0:
448,192,70315,128,0,70403:0:0:0:0:
320,192,70315,1,0,0:0:0:0:
192,192,70315,1,0,0:0:0:0:
448,192,70491,128,0,70580:0:0:0:0:
64,192,70668,128,0,70756:0:0:0:0:
192,192,70668,1,0,0:0:0:0:
320,192,70668,1,0,0:0:0:0:
192,192,70933,1,0,0:0:0:0:
320,192,70933,1,0,0:0:0:0:
448,192,71021,1,0,0:0:0:0:
64,192,71021,1,0,0:0:0:0:
320,192,71197,1,0,0:0:0:0:
448,192,71197,1,0,0:0:0:0:
320,192,71374,1,0,0:0:0:0:
64,192,71374,128,0,71550:0:0:0:0:
192,192,71374,1,0,0:0:0:0:
192,192,71550,1,0,0:0:0:0:
64,192,71727,1,0,0:0:0:0:
320,192,71727,1,0,0:0:0:0:
448,192,71727,128,0,71903:0:0:0:0:
320,192,71903,1,0,0:0:0:0:
192,192,72080,128,0,72256:0:0:0:0:
64,192,72080,1,0,0:0:0:0:
448,192,72080,1,0,0:0:0:0:
448,192,72344,1,0,0:0:0:0:
320,192,72344,1,0,0:0:0:0:
192,192,72433,1,0,0:0:0:0:
64,192,72433,1,0,0:0:0:0:
448,192,72609,1,0,0:0:0:0:
64,192,72609,1,0,0:0:0:0:
192,192,72785,1,0,0:0:0:0:
320,192,72785,1,0,0:0:0:0:
448,192,72785,1,0,0:0:0:0:
320,192,72962,1,0,0:0:0:0:
64,192,73138,1,0,0:0:0:0:
192,192,73138,1,0,0:0:0:0:
448,192,73138,1,0,0:0:0:0:
64,192,73315,1,0,0:0:0:0:
192,192,73403,1,0,0:0:0:0:
320,192,73491,1,0,0:0:0:0:
448,192,73491,1,0,0:0:0:0:
192,192,73535,1,0,0:0:0:0:
64,192,73580,1,0,0:0:0:0:
448,192,73668,1,0,0:0:0:0:
320,192,73756,1,0,0:0:0:0:
192,192,73756,1,0,0:0:0:0:
64,192,73844,1,0,0:0:0:0:
448,192,73844,1,0,0:0:0:0:
192,192,74021,1,0,0:0:0:0:
320,192,74021,1,0,0:0:0:0:
192,192,74197,1,0,0:0:0:0:
448,192,74197,1,0,0:0:0:0:
64,192,74197,128,0,74285:0:0:0:0:
64,192,74374,128,0,74462:0:0:0:0:
448,192,74550,128,0,74638:0:0:0:0:
320,192,74550,1,0,0:0:0:0:
192,192,74550,1,0,0:0:0:0:
448,192,74727,128,0,74815:0:0:0:0:
192,192,74903,1,0,0:0:0:0:
320,192,74903,1,0,0:0:0:0:
64,192,74903,128,0,74991:0:0:0:0:
192,192,75168,1,0,0:0:0:0:
320,192,75168,1,0,0:0:0:0:
64,192,75256,1,0,0:0:0:0:
448,192,75256,1,0,0:0:0:0:
64,192,75433,1,0,0:0:0:0:
192,192,75433,1,0,0:0:0:0:
192,192,75609,1,0,0:0:0:0:
320,192,75609,1,0,0:0:0:0:
448,192,75609,128,0,75697:0:0:0:0:
448,192,75785,128,0,75874:0:0:0:0:
64,192,75962,128,0,76050:0:0:0:0:
192,192,75962,1,0,0:0:0:0:
320,192,75962,1,0,0:0:0:0:
64,192,76138,128,0,76227:0:0:0:0:
192,192,76315,1,0,0:0:0:0:
320,192,76315,1,0,0:0:0:0:
448,192,76315,128,0,76403:0:0:0:0:
192,192,76580,1,0,0:0:0:0:
320,192,76580,1,0,0:0:0:0:
448,192,76668,1,0,0:0:0:0:
64,192,76668,1,0,0:0:0:0:
320,192,76844,1,0,0:0:0:0:
192,192,76844,1,0,0:0:0:0:
448,192,77021,1,0,0:0:0:0:
64,192,77021,1,0,0:0:0:0:
192,192,77021,1,0,0:0:0:0:
448,192,77197,1,0,0:0:0:0:
320,192,77197,1,0,0:0:0:0:
64,192,77374,1,0,0:0:0:0:
192,192,77374,1,0,0:0:0:0:
320,192,77374,1,0,0:0:0:0:
64,192,77550,1,0,0:0:0:0:
192,192,77550,1,0,0:0:0:0:
448,192,77727,1,0,0:0:0:0:
320,192,77727,1,0,0:0:0:0:
64,192,77727,1,0,0:0:0:0:
448,192,77903,1,0,0:0:0:0:
320,192,77903,1,0,0:0:0:0:
192,192,77991,1,0,0:0:0:0:
448,192,78080,1,0,0:0:0:0:
320,192,78080,1,0,0:0:0:0:
64,192,78080,1,0,0:0:0:0:
64,192,78256,1,0,0:0:0:0:
192,192,78256,1,0,0:0:0:0:
64,192,78433,1,0,0:0:0:0:
192,192,78433,1,0,0:0:0:0:
448,192,78433,1,0,0:0:0:0:
320,192,78521,1,0,0:0:0:0:
448,192,78609,1,0,0:0:0:0:
64,192,78697,1,0,0:0:0:0:
320,192,78785,1,0,0:0:0:0:
448,192,78785,1,0,0:0:0:0:
192,192,78785,1,0,0:0:0:0:
64,192,78874,1,0,0:0:0:0:
448,192,78962,1,0,0:0:0:0:
320,192,79050,1,0,0:0:0:0:
192,192,79138,1,0,0:0:0:0:
64,192,79138,1,0,0:0:0:0:
320,192,79315,128,0,79668:0:0:0:0:
448,192,79491,128,0,79668:0:0:0:0:
64,192,79668,1,0,0:0:0:0:
192,192,79844,128,0,80021:0:0:0:0:
320,192,79844,1,0,0:0:0:0:
64,192,79844,128,0,79933:0:0:0:0:
448,192,79844,1,0,0:0:0:0:
320,192,80021,1,0,0:0:0:0:
64,192,80197,128,0,80374:0:0:0:0:
192,192,80197,1,0,0:0:0:0:
448,192,80197,128,0,80285:0:0:0:0:
192,192,80374,1,0,0:0:0:0:
448,192,80550,128,0,80727:0:0:0:0:
64,192,80550,1,0,0:0:0:0:
320,192,80550,128,0,80638:0:0:0:0:
64,192,80727,128,0,80903:0:0:0:0:
320,192,80903,128,0,81080:0:0:0:0:
448,192,80903,1,0,0:0:0:0:
192,192,80903,1,0,0:0:0:0:
192,192,81080,128,0,81256:0:0:0:0:
64,192,81256,1,0,0:0:0:0:
320,192,81256,128,0,81433:0:0:0:0:
448,192,81256,128,0,81344:0:0:0:0:
64,192,81433,128,0,81609:0:0:0:0:
320,192,81609,128,0,81785:0:0:0:0:
448,192,81609,1,0,0:0:0:0:
192,192,81609,128,0,81697:0:0:0:0:
448,192,81785,128,0,81962:0:0:0:0:
192,192,81962,128,0,82138:0:0:0:0:
320,192,81962,1,0,0:0:0:0:
64,192,81962,128,0,82050:0:0:0:0:
320,192,82138,1,0,0:0:0:0:
64,192,82315,1,0,0:0:0:0:
448,192,82315,128,0,82491:0:0:0:0:
192,192,82315,1,0,0:0:0:0:
192,192,82491,128,0,82668:0:0:0:0:
64,192,82668,128,0,82844:0:0:0:0:
448,192,82668,1,0,0:0:0:0:
320,192,82668,128,0,82756:0:0:0:0:
448,192,82844,1,0,0:0:0:0:
192,192,83021,128,0,83197:0:0:0:0:
64,192,83021,128,0,83109:0:0:0:0:
320,192,83021,1,0,0:0:0:0:
320,192,83197,1,0,0:0:0:0:
192,192,83374,1,0,0:0:0:0:
64,192,83374,128,0,83462:0:0:0:0:
448,192,83374,128,0,83550:0:0:0:0:
192,192,83550,128,0,83727:0:0:0:0:
320,192,83727,128,0,83903:0:0:0:0:
64,192,83727,1,0,0:0:0:0:
448,192,83727,1,0,0:0:0:0:
64,192,83903,128,0,84080:0:0:0:0:
320,192,84080,128,0,84168:0:0:0:0:
192,192,84080,128,0,84256:0:0:0:0:
448,192,84080,1,0,0:0:0:0:
448,192,84256,128,0,84433:0:0:0:0:
64,192,84433,1,0,0:0:0:0:
192,192,84433,128,0,84521:0:0:0:0:
320,192,84433,128,0,84609:0:0:0:0:
64,192,84609,128,0,84785:0:0:0:0:
192,192,84785,128,0,84962:0:0:0:0:
320,192,84785,128,0,84874:0:0:0:0:
448,192,84785,1,0,0:0:0:0:
448,192,84962,1,0,0:0:0:0:
320,192,85138,1,0,0:0:0:0:
192,192,85138,1,0,0:0:0:0:
64,192,85138,1,0,0:0:0:0:
320,192,85315,1,0,0:0:0:0:
64,192,85491,128,0,85668:0:0:0:0:
192,192,85491,1,0,0:0:0:0:
448,192,85491,1,0,0:0:0:0:
192,192,85668,1,0,0:0:0:0:
64,192,85844,1,0,0:0:0:0:
320,192,85844,1,0,0:0:0:0:
448,192,85844,1,0,0:0:0:0:
320,192,86021,1,0,0:0:0:0:
320,192,86197,1,0,0:0:0:0:
64,192,86197,1,0,0:0:0:0:
192,192,86197,1,0,0:0:0:0:
192,192,86374,1,0,0:0:0:0:
448,192,86550,1,0,0:0:0:0:
320,192,86550,128,0,86638:0:0:0:0:
64,192,86550,1,0,0:0:0:0:
64,192,86727,128,0,86815:0:0:0:0:
320,192,86903,1,0,0:0:0:0:
192,192,86903,1,0,0:0:0:0:
448,192,86903,128,0,87080:0:0:0:0:
320,192,87080,1,0,0:0:0:0:
64,192,87256,1,0,0:0:0:0:
192,192,87256,1,0,0:0:0:0:
448,192,87256,1,0,0:0:0:0:
192,192,87433,1,0,0:0:0:0:
448,192,87609,1,0,0:0:0:0:
192,192,87609,1,0,0:0:0:0:
320,192,87609,1,0,0:0:0:0:
320,192,87785,1,0,0:0:0:0:
64,192,87962,1,0,0:0:0:0:
448,192,87962,1,0,0:0:0:0:
192,192,87962,128,0,88050:0:0:0:0:
448,192,88138,128,0,88227:0:0:0:0:
192,192,88315,1,0,0:0:0:0:
320,192,88315,1,0,0:0:0:0:
64,192,88315,128,0,88491:0:0:0:0:
192,192,88491,128,0,88668:0:0:0:0:
448,192,88668,128,0,88844:0:0:0:0:
320,192,88668,1,0,0:0:0:0:
64,192,88668,1,0,0:0:0:0:
320,192,88844,128,0,89021:0:0:0:0:
448,192,89021,1,0,0:0:0:0:
64,192,89021,1,0,0:0:0:0:
192,192,89021,128,0,89197:0:0:0:0:
64,192,89197,1,0,0:0:0:0:
192,192,89374,1,0,0:0:0:0:
320,192,89374,1,0,0:0:0:0:
448,192,89374,1,0,0:0:0:0:
320,192,89550,128,0,89727:0:0:0:0:
192,192,89727,1,0,0:0:0:0:
64,192,89727,1,0,0:0:0:0:
448,192,89727,1,0,0:0:0:0:
64,192,89903,128,0,90256:0:0:0:0:
192,192,90080,1,0,0:0:0:0:
320,192,90080,1,0,0:0:0:0:
448,192,90080,1,0,0:0:0:0:
320,192,90256,1,0,0:0:0:0:
64,192,90433,1,0,0:0:0:0:
448,192,90433,1,0,0:0:0:0:
192,192,90521,1,0,0:0:0:0:
320,192,90609,128,0,90785:0:0:0:0:
192,192,90785,1,0,0:0:0:0:
448,192,90785,1,0,0:0:0:0:
64,192,90785,128,0,90962:0:0:0:0:
448,192,90962,1,0,0:0:0:0:
320,192,91138,128,0,91315:0:0:0:0:
448,192,91138,128,0,91227:0:0:0:0:
64,192,91138,1,0,0:0:0:0:
192,192,91138,1,0,0:0:0:0:
192,192,91315,1,0,0:0:0:0:
448,192,91491,128,0,91668:0:0:0:0:
320,192,91491,1,0,0:0:0:0:
64,192,91491,128,0,91580:0:0:0:0:
320,192,91668,1,0,0:0:0:0:
64,192,91844,128,0,92021:0:0:0:0:
448,192,91844,1,0,0:0:0:0:
192,192,91844,128,0,91933:0:0:0:0:
448,192,92021,128,0,92197:0:0:0:0:
192,192,92197,128,0,92374:0:0:0:0:
64,192,92197,1,0,0:0:0:0:
320,192,92197,1,0,0:0:0:0:
320,192,92374,128,0,92550:0:0:0:0:
448,192,92550,1,0,0:0:0:0:
192,192,92550,128,0,92727:0:0:0:0:
64,192,92550,128,0,92638:0:0:0:0:
448,192,92727,128,0,92903:0:0:0:0:
192,192,92903,128,0,93080:0:0:0:0:
64,192,92903,1,0,0:0:0:0:
320,192,92903,128,0,92991:0:0:0:0:
64,192,93080,128,0,93256:0:0:0:0:
320,192,93256,128,0,93433:0:0:0:0:
192,192,93256,1,0,0:0:0:0:
448,192,93256,128,0,93344:0:0:0:0:
192,192,93433,1,0,0:0:0:0:
448,192,93609,1,0,0:0:0:0:
64,192,93609,128,0,93785:0:0:0:0:
320,192,93609,1,0,0:0:0:0:
320,192,93785,128,0,93962:0:0:0:0:
448,192,93962,128,0,94138:0:0:0:0:
64,192,93962,1,0,0:0:0:0:
192,192,93962,128,0,94050:0:0:0:0:
64,192,94138,1,0,0:0:0:0:
320,192,94315,128,0,94491:0:0:0:0:
448,192,94315,128,0,94403:0:0:0:0:
192,192,94315,1,0,0:0:0:0:
192,192,94491,1,0,0:0:0:0:
320,192,94668,1,0,0:0:0:0:
64,192,94668,128,0,94844:0:0:0:0:
448,192,94668,128,0,94756:0:0:0:0:
320,192,94844,128,0,95021:0:0:0:0:
192,192,95021,128,0,95197:0:0:0:0:
64,192,95021,1,0,0:0:0:0:
448,192,95021,1,0,0:0:0:0:
448,192,95197,128,0,95374:0:0:0:0:
192,192,95374,128,0,95462:0:0:0:0:
320,192,95374,128,0,95550:0:0:0:0:
64,192,95374,1,0,0:0:0:0:
64,192,95550,128,0,95727:0:0:0:0:
448,192,95727,1,0,0:0:0:0:
320,192,95727,128,0,95815:0:0:0:0:
192,192,95727,128,0,95903:0:0:0:0:
448,192,95903,128,0,96080:0:0:0:0:
320,192,96080,128,0,96256:0:0:0:0:
192,192,96080,1,0,0:0:0:0:
64,192,96080,128,0,96168:0:0:0:0:
448,192,96256,1,0,0:0:0:0:
192,192,96433,1,0,0:0:0:0:
64,192,96433,1,0,0:0:0:0:
320,192,96433,1,0,0:0:0:0:
64,192,96609,1,0,0:0:0:0:
192,192,96785,1,0,0:0:0:0:
320,192,96785,1,0,0:0:0:0:
448,192,96785,128,0,96962:0:0:0:0:
320,192,96962,1,0,0:0:0:0:
448,192,97138,1,0,0:0:0:0:
192,192,97138,1,0,0:0:0:0:
64,192,97138,1,0,0:0:0:0:
192,192,97315,1,0,0:0:0:0:
192,192,97491,1,0,0:0:0:0:
320,192,97491,1,0,0:0:0:0:
448,192,97491,1,0,0:0:0:0:
320,192,97668,1,0,0:0:0:0:
64,192,97844,1,0,0:0:0:0:
448,192,97844,1,0,0:0:0:0:
192,192,97844,128,0,97933:0:0:0:0:
448,192,98021,128,0,98109:0:0:0:0:
64,192,98197,128,0,98374:0:0:0:0:
192,192,98197,1,0,0:0:0:0:
320,192,98197,1,0,0:0:0:0:
192,192,98374,1,0,0:0:0:0:
320,192,98550,1,0,0:0:0:0:
448,192,98550,1,0,0:0:0:0:
64,192,98550,1,0,0:0:0:0:
320,192,98727,1,0,0:0:0:0:
64,192,98903,1,0,0:0:0:0:
192,192,98903,1,0,0:0:0:0:
320,192,98903,1,0,0:0:0:0:
192,192,99080,1,0,0:0:0:0:
448,192,99256,1,0,0:0:0:0:
64,192,99256,1,0,0:0:0:0:
320,192,99256,128,0,99344:0:0:0:0:
64,192,99433,128,0,99521:0:0:0:0:
192,192,99609,1,0,0:0:0:0:
448,192,99609,128,0,99785:0:0:0:0:
320,192,99609,1,0,0:0:0:0:
320,192,99785,128,0,99962:0:0:0:0:
192,192,99962,1,0,0:0:0:0:
448,192,99962,1,0,0:0:0:0:
64,192,99962,128,0,100138:0:0:0:0:
192,192,100138,128,0,100315:0:0:0:0:
448,192,100315,1,0,0:0:0:0:
64,192,100315,1,0,0:0:0:0:
320,192,100315,128,0,100491:0:0:0:0:
64,192,100491,1,0,0:0:0:0:
192,192,100668,1,0,0:0:0:0:
320,192,100668,1,0,0:0:0:0:
448,192,100668,1,0,0:0:0:0:
320,192,100844,128,0,101021:0:0:0:0:
192,192,101021,1,0,0:0:0:0:
64,192,101021,1,0,0:0:0:0:
448,192,101021,1,0,0:0:0:0:
64,192,101197,128,0,101727:0:0:0:0:
320,192,101374,1,0,0:0:0:0:
448,192,101374,1,0,0:0:0:0:
192,192,101374,128,0,101462:0:0:0:0:
448,192,101550,128,0,101638:0:0:0:0:
320,192,101727,128,0,101815:0:0:0:0:
192,192,101903,128,0,101991:0:0:0:0:
64,192,101903,1,0,0:0:0:0:
448,192,101903,1,0,0:0:0:0:
64,192,102080,128,0,102168:0:0:0:0:
192,192,102080,1,0,0:0:0:0:
320,192,102080,1,0,0:0:0:0:
448,192,102080,1,0,0:0:0:0:
448,192,102256,128,0,102344:0:0:0:0:
64,192,102433,1,0,0:0:0:0:
192,192,102433,1,0,0:0:0:0:
448,192,102433,1,0,0:0:0:0:
64,192,102609,1,0,0:0:0:0:
448,192,102785,1,0,0:0:0:0:
320,192,102785,1,0,0:0:0:0:
64,192,102785,1,0,0:0:0:0:
64,192,102962,1,0,0:0:0:0:
64,192,103138,1,0,0:0:0:0:
320,192,103315,1,0,0:0:0:0:
448,192,103315,1,0,0:0:0:0:
448,192,103491,1,0,0:0:0:0:
192,192,103491,1,0,0:0:0:0:
64,192,103491,1,0,0:0:0:0:
64,192,103668,1,0,0:0:0:0:
448,192,103844,1,0,0:0:0:0:
320,192,103844,1,0,0:0:0:0:
448,192,104021,1,0,0:0:0:0:
448,192,104197,1,0,0:0:0:0:
192,192,104197,1,0,0:0:0:0:
64,192,104197,1,0,0:0:0:0:
448,192,104374,1,0,0:0:0:0:
320,192,104550,1,0,0:0:0:0:
192,192,104727,1,0,0:0:0:0:
64,192,104727,1,0,0:0:0:0:
64,192,104903,1,0,0:0:0:0:
320,192,104903,1,0,0:0:0:0:
448,192,104903,1,0,0:0:0:0:
320,192,105080,1,0,0:0:0:0:
192,192,105256,1,0,0:0:0:0:
64,192,105256,1,0,0:0:0:0:
192,192,105433,1,0,0:0:0:0:
192,192,105609,1,0,0:0:0:0:
320,192,105609,1,0,0:0:0:0:
448,192,105609,1,0,0:0:0:0:
192,192,105785,1,0,0:0:0:0:
192,192,105962,1,0,0:0:0:0:
448,192,106138,1,0,0:0:0:0:
320,192,106138,1,0,0:0:0:0:
192,192,106315,1,0,0:0:0:0:
448,192,106315,1,0,0:0:0:0:
64,192,106315,1,0,0:0:0:0:
64,192,106491,1,0,0:0:0:0:
448,192,106668,1,0,0:0:0:0:
320,192,106668,1,0,0:0:0:0:
320,192,106844,1,0,0:0:0:0:
320,192,107021,1,0,0:0:0:0:
192,192,107021,1,0,0:0:0:0:
64,192,107021,1,0,0:0:0:0:
320,192,107197,1,0,0:0:0:0:
192,192,107374,1,0,0:0:0:0:
448,192,107550,1,0,0:0:0:0:
320,192,107550,1,0,0:0:0:0:
192,192,107727,1,0,0:0:0:0:
64,192,107727,1,0,0:0:0:0:
448,192,107727,1,0,0:0:0:0:
192,192,107903,1,0,0:0:0:0:
448,192,108080,1,0,0:0:0:0:
64,192,108080,1,0,0:0:0:0:
448,192,108256,1,0,0:0:0:0:
448,192,108433,1,0,0:0:0:0:
192,192,108433,1,0,0:0:0:0:
64,192,108433,1,0,0:0:0:0:
448,192,108609,1,0,0:0:0:0:
448,192,108785,1,0,0:0:0:0:
192,192,108962,1,0,0:0:0:0:
64,192,108962,1,0,0:0:0:0:
64,192,109138,1,0,0:0:0:0:
320,192,109138,1,0,0:0:0:0:
448,192,109138,1,0,0:0:0:0:
448,192,109315,1,0,0:0:0:0:
64,192,109491,1,0,0:0:0:0:
192,192,109491,1,0,0:0:0:0:
64,192,109668,1,0,0:0:0:0:
64,192,109844,1,0,0:0:0:0:
320,192,109844,1,0,0:0:0:0:
448,192,109844,1,0,0:0:0:0:
64,192,110021,1,0,0:0:0:0:
448,192,110197,1,0,0:0:0:0:
64,192,110374,1,0,0:0:0:0:
192,192,110374,1,0,0:0:0:0:
192,192,110550,1,0,0:0:0:0:
320,192,110550,1,0,0:0:0:0:
448,192,110550,1,0,0:0:0:0:
448,192,110727,1,0,0:0:0:0:
192,192,110903,1,0,0:0:0:0:
64,192,110903,1,0,0:0:0:0:
192,192,111080,1,0,0:0:0:0:
192,192,111256,1,0,0:0:0:0:
320,192,111256,1,0,0:0:0:0:
448,192,111256,1,0,0:0:0:0:
192,192,111433,1,0,0:0:0:0:
192,192,111609,1,0,0:0:0:0:
448,192,111785,1,0,0:0:0:0:
320,192,111785,1,0,0:0:0:0:
192,192,111962,1,0,0:0:0:0:
448,192,111962,1,0,0:0:0:0:
64,192,111962,1,0,0:0:0:0:
192,192,112138,1,0,0:0:0:0:
320,192,112315,1,0,0:0:0:0:
448,192,112315,1,0,0:0:0:0:
320,192,112491,1,0,0:0:0:0:
320,192,112668,1,0,0:0:0:0:
192,192,112668,1,0,0:0:0:0:
64,192,112668,1,0,0:0:0:0:
320,192,112844,1,0,0:0:0:0:
64,192,113021,1,0,0:0:0:0:
192,192,113109,1,0,0:0:0:0:
320,192,113197,1,0,0:0:0:0:
448,192,113197,1,0,0:0:0:0:
192,192,113374,1,0,0:0:0:0:
64,192,113374,1,0,0:0:0:0:
448,192,113374,1,0,0:0:0:0:
320,192,113550,1,0,0:0:0:0:
448,192,113727,128,0,113815:0:0:0:0:
64,192,113727,1,0,0:0:0:0:
192,192,113727,1,0,0:0:0:0:
448,192,113903,1,0,0:0:0:0:
64,192,114080,128,0,114168:0:0:0:0:
320,192,114080,1,0,0:0:0:0:
192,192,114080,1,0,0:0:0:0:
64,192,114256,1,0,0:0:0:0:
448,192,114433,128,0,114609:0:0:0:0:
192,192,114609,1,0,0:0:0:0:
320,192,114609,128,0,114785:0:0:0:0:
448,192,114785,1,0,0:0:0:0:
64,192,114785,1,0,0:0:0:0:
192,192,114785,128,0,114962:0:0:0:0:
64,192,114962,128,0,115138:0:0:0:0:
320,192,115138,1,0,0:0:0:0:
448,192,115138,1,0,0:0:0:0:
320,192,115315,128,0,115491:0:0:0:0:
64,192,115491,1,0,0:0:0:0:
448,192,115491,1,0,0:0:0:0:
192,192,115491,128,0,115668:0:0:0:0:
64,192,115668,128,0,115844:0:0:0:0:
192,192,115844,1,0,0:0:0:0:
320,192,116021,1,0,0:0:0:0:
448,192,116021,128,0,116109:0:0:0:0:
192,192,116197,1,0,0:0:0:0:
64,192,116197,1,0,0:0:0:0:
320,192,116197,128,0,116285:0:0:0:0:
64,192,116374,128,0,116550:0:0:0:0:
448,192,116550,1,0,0:0:0:0:
320,192,116550,128,0,116638:0:0:0:0:
320,192,116727,128,0,116815:0:0:0:0:
448,192,116903,1,0,0:0:0:0:
64,192,116903,1,0,0:0:0:0:
192,192,116903,128,0,116991:0:0:0:0:
64,192,117080,128,0,117168:0:0:0:0:
448,192,117256,128,0,117344:0:0:0:0:
320,192,117433,1,0,0:0:0:0:
192,192,117433,128,0,117521:0:0:0:0:
448,192,117609,1,0,0:0:0:0:
64,192,117609,1,0,0:0:0:0:
320,192,117609,128,0,117697:0:0:0:0:
448,192,117785,128,0,117962:0:0:0:0:
192,192,117962,1,0,0:0:0:0:
64,192,117962,1,0,0:0:0:0:
192,192,118138,128,0,118227:0:0:0:0:
320,192,118315,128,0,118491:0:0:0:0:
64,192,118315,1,0,0:0:0:0:
448,192,118315,1,0,0:0:0:0:
64,192,118491,128,0,118844:0:0:0:0:
448,192,118668,1,0,0:0:0:0:
192,192,118844,1,0,0:0:0:0:
320,192,118844,1,0,0:0:0:0:
448,192,119021,128,0,119197:0:0:0:0:
320,192,119021,1,0,0:0:0:0:
64,192,119021,1,0,0:0:0:0:
64,192,119197,128,0,119374:0:0:0:0:
320,192,119374,128,0,119550:0:0:0:0:
448,192,119374,1,0,0:0:0:0:
192,192,119374,1,0,0:0:0:0:
64,192,119727,128,0,119903:0:0:0:0:
192,192,119727,1,0,0:0:0:0:
448,192,119727,1,0,0:0:0:0:
192,192,119903,128,0,120080:0:0:0:0:
448,192,120080,128,0,120256:0:0:0:0:
320,192,120256,128,0,120433:0:0:0:0:
192,192,120256,1,0,0:0:0:0:
64,192,120433,128,0,120785:0:0:0:0:
192,192,120433,1,0,0:0:0:0:
448,192,120433,1,0,0:0:0:0:
448,192,120609,128,0,120785:0:0:0:0:
192,192,120785,1,0,0:0:0:0:
320,192,120785,1,0,0:0:0:0:
192,192,120962,128,0,121138:0:0:0:0:
320,192,121138,1,0,0:0:0:0:
448,192,121138,1,0,0:0:0:0:
64,192,121138,1,0,0:0:0:0:
448,192,121315,128,0,121491:0:0:0:0:
64,192,121491,1,0,0:0:0:0:
192,192,121580,1,0,0:0:0:0:
320,192,121668,128,0,121844:0:0:0:0:
448,192,121668,1,0,0:0:0:0:
64,192,121844,1,0,0:0:0:0:
192,192,121844,1,0,0:0:0:0:
448,192,121844,1,0,0:0:0:0:
192,192,122021,1,0,0:0:0:0:
64,192,122197,1,0,0:0:0:0:
320,192,122197,128,0,123080:0:0:0:0:
448,192,122903,1,0,0:0:0:0:
192,192,123080,1,0,0:0:0:0:
64,192,123256,128,0,123962:0:0:0:0:
320,192,123433,1,0,0:0:0:0:
448,192,123785,128,0,123962:0:0:0:0:
