osu file format v14

[General]
AudioFilename: audio.mp3
AudioLeadIn: 0
PreviewTime: 13507
Countdown: 0
SampleSet: Soft
StackLeniency: 0.7
Mode: 0
LetterboxInBreaks: 0
WidescreenStoryboard: 1

[Editor]
Bookmarks: 2301,14124,25418,36713,48007,59301,70595,83301,94595,105889,117183
DistanceSpacing: 0.5
BeatDivisor: 4
GridSize: 4
TimelineZoom: 1.899999

[Metadata]
Title:Up to 21C
TitleUnicode:Up to 21°C
Artist:Nor
ArtistUnicode:Nor
Creator:Ayesha Altugle
Version:Summer Platoon
Source:ブルーアーカイブ -Blue Archive-
Tags:Theme 165 degrees celsius ブルアカ future bass electronic instrumental video game yostar nat games theme flake lecandy acnozei shizuku shikibe mayu kazato asa amateurre midorijeon come kyuuchie moete tsukiyuki miyako 月雪ミヤコ sorai saki 空井サキ kasumizawa miyu 霞沢ミユ kazekura moe 風倉モエ usagi flop srt rabbit platoon rabbit小隊 squad summer
BeatmapID:4433726
BeatmapSetID:2111968

[Difficulty]
HPDrainRate:5.5
CircleSize:5
OverallDifficulty:8.5
ApproachRate:9.2
SliderMultiplier:1.8
SliderTickRate:1

[Events]
//Background and Video events
0,0,"109821914_p0.jpg",0,0
//Break Periods
2,36913,46731
//Storyboard Layer 0 (Background)
//Storyboard Layer 1 (Fail)
//Storyboard Layer 2 (Pass)
//Storyboard Layer 3 (Foreground)
//Storyboard Layer 4 (Overlay)
//Storyboard Sound Samples

[TimingPoints]
1419,352.941176470588,4,2,1,60,1,0
2830,-133.333333333333,4,2,1,60,0,0
12713,-133.333333333333,4,2,2,60,0,0
13595,-100,4,2,3,60,0,0
14124,-100,4,2,3,75,0,0
14477,-100,4,2,1,75,0,0
19418,-100,4,2,4,75,0,0
19506,-100,4,2,1,75,0,0
24713,-100,4,2,2,75,0,0
24889,-100,4,2,3,75,0,0
25066,-100,4,2,1,75,0,0
25418,-76.9230769230769,4,2,3,75,0,0
25682,-76.9230769230769,4,2,5,75,0,0
25771,-76.9230769230769,4,2,6,75,0,0
25948,-76.9230769230769,4,2,5,75,0,0
26036,-76.9230769230769,4,2,1,75,0,0
26389,-76.9230769230769,4,2,5,75,0,0
26477,-76.9230769230769,4,2,6,75,0,0
26654,-76.9230769230769,4,2,5,75,0,0
26742,-76.9230769230769,4,2,1,75,0,0
27094,-76.9230769230769,4,2,5,75,0,0
27183,-76.9230769230769,4,2,6,75,0,0
27360,-76.9230769230769,4,2,5,75,0,0
27448,-76.9230769230769,4,2,1,75,0,0
27801,-76.9230769230769,4,2,5,75,0,0
27889,-76.9230769230769,4,2,6,75,0,0
28153,-76.9230769230769,4,2,1,75,0,0
28595,-76.9230769230769,4,2,6,75,0,0
28771,-76.9230769230769,4,2,5,75,0,0
29301,-76.9230769230769,4,2,6,75,0,0
29477,-76.9230769230769,4,2,5,75,0,0
30007,-76.9230769230769,4,2,6,75,0,0
30183,-76.9230769230769,4,2,5,75,0,0
30271,-76.9230769230769,4,2,1,75,0,0
30713,-76.9230769230769,4,2,7,75,0,0
30801,-76.9230769230769,4,2,1,75,0,0
30889,-76.9230769230769,4,2,5,75,0,0
30977,-76.9230769230769,4,2,1,75,0,0
31330,-76.9230769230769,4,2,5,75,0,0
31418,-76.9230769230769,4,2,6,75,0,0
31594,-76.9230769230769,4,2,5,75,0,0
31683,-76.9230769230769,4,2,1,75,0,0
32124,-76.9230769230769,4,2,6,75,0,0
32301,-76.9230769230769,4,2,5,75,0,0
32389,-76.9230769230769,4,2,1,75,0,0
32741,-76.9230769230769,4,2,5,75,0,0
32830,-76.9230769230769,4,2,6,75,0,0
33007,-76.9230769230769,4,2,5,75,0,0
33095,-76.9230769230769,4,2,1,75,0,0
33360,-76.9230769230769,4,2,5,75,0,0
33536,-76.9230769230769,4,2,6,75,0,0
33800,-76.9230769230769,4,2,1,75,0,0
33889,-76.9230769230769,4,2,5,75,0,0
34242,-76.9230769230769,4,2,8,75,0,0
34330,-76.9230769230769,4,2,5,75,0,0
34948,-76.9230769230769,4,2,8,75,0,0
35036,-76.9230769230769,4,2,5,75,0,0
35124,-100,4,2,5,75,0,0
36183,-100,4,2,5,60,0,0
36713,-100,4,2,5,50,0,0
47301,-100,4,2,1,50,0,0
48007,-133.333333333333,4,2,1,60,0,0
48360,-133.333333333333,4,2,17,60,0,0
53654,-133.333333333333,4,2,1,60,0,0
54006,-133.333333333333,4,2,17,60,0,0
55066,-133.333333333333,4,2,1,60,0,0
55418,-133.333333333333,4,2,17,60,0,0
56477,-100,4,2,1,60,0,0
56830,-100,4,2,9,60,0,0
57006,-100,4,2,17,60,0,0
57183,-100,4,2,8,60,0,0
57536,-100,4,2,17,60,0,0
57888,-100,4,2,5,60,0,0
58595,-100,4,2,10,60,0,0
59066,-100,4,2,2,60,0,0
59183,-100,4,2,3,60,0,0
59301,-66.6666666666667,4,2,1,75,0,0
60360,-100,4,2,2,75,0,0
60713,-100,4,2,4,75,0,0
60948,-66.6666666666667,4,2,1,75,0,0
61654,-100,4,2,1,75,0,0
62124,-66.6666666666667,4,2,1,75,0,0
63066,-100,4,2,9,75,0,0
63536,-100,4,2,2,75,0,0
63771,-50,4,2,1,75,0,0
64595,-100,4,2,10,75,0,0
64948,-66.6666666666667,4,2,1,75,0,0
66007,-66.6666666666667,4,2,2,75,0,0
66242,-66.6666666666667,4,2,3,75,0,0
66595,-66.6666666666667,4,2,1,75,0,0
67418,-100,4,2,1,75,0,0
67771,-66.6666666666667,4,2,1,75,0,0
68477,-66.6666666666667,4,2,11,75,0,0
69418,-66.6666666666667,4,2,1,75,0,0
70595,-50,4,2,1,75,0,0
71654,-50,4,2,12,75,0,0
71889,-50,4,2,1,75,0,0
72712,-50,4,2,13,75,0,0
72948,-66.6666666666667,4,2,1,75,0,0
73418,-50,4,2,1,75,0,0
74477,-100,4,2,1,75,0,0
75066,-50,4,2,1,75,0,0
75536,-66.6666666666667,4,2,1,75,0,0
75889,-66.6666666666667,4,2,10,75,0,0
76242,-50,4,2,1,75,0,0
77301,-100,4,2,1,75,0,0
77889,-50,4,2,1,75,0,0
80124,-100,4,2,1,75,0,0
80359,-100,4,2,15,75,0,0
80477,-40,4,2,1,75,0,0
81183,-500,4,2,4,75,0,0
81889,-33.3333333333333,4,2,2,75,0,0
83301,-133.333333333333,4,2,16,50,0,0
83477,-133.333333333333,4,2,17,50,0,0
89124,-133.333333333333,4,2,1,51,0,0
89301,-133.333333333333,4,2,17,52,0,0
89477,-133.333333333333,4,2,1,52,0,0
89654,-133.333333333333,4,2,17,53,0,0
89830,-133.333333333333,4,2,1,54,0,0
90007,-133.333333333333,4,2,17,55,0,0
90183,-133.333333333333,4,2,1,56,0,0
90360,-133.333333333333,4,2,17,57,0,0
90448,-133.333333333333,4,2,1,57,0,0
90713,-133.333333333333,4,2,17,58,0,0
90889,-133.333333333333,4,2,1,59,0,0
91066,-133.333333333333,4,2,17,60,0,0
91242,-133.333333333333,4,2,1,61,0,0
91418,-133.333333333333,4,2,17,62,0,0
91595,-133.333333333333,4,2,1,63,0,0
91771,-133.333333333333,4,2,17,63,0,0
91860,-133.333333333333,4,2,1,63,0,0
91948,-133.333333333333,4,2,1,64,0,0
92124,-133.333333333333,4,2,14,65,0,0
92213,-133.333333333333,4,2,1,65,0,0
92301,-133.333333333333,4,2,1,66,0,0
92477,-133.333333333333,4,2,17,67,0,0
92566,-133.333333333333,4,2,1,67,0,0
92654,-133.333333333333,4,2,1,68,0,0
92830,-133.333333333333,4,2,14,68,0,0
92918,-133.333333333333,4,2,1,68,0,0
93007,-133.333333333333,4,2,1,69,0,0
93183,-133.333333333333,4,2,1,70,0,0
94595,-76.9230769230769,4,2,3,80,0,0
94948,-76.9230769230769,4,2,1,80,0,0
99624,-76.9230769230769,4,2,3,80,0,0
99713,-76.9230769230769,4,2,2,80,0,0
99889,-76.9230769230769,4,2,5,80,0,0
100066,-76.9230769230769,4,2,9,80,0,0
100242,-76.9230769230769,4,2,1,80,0,0
104477,-76.9230769230769,4,2,18,80,0,0
104830,-76.9230769230769,4,2,1,80,0,0
105183,-76.9230769230769,4,2,18,80,0,0
105271,-76.9230769230769,4,2,10,80,0,0
105536,-153.846153846154,4,2,5,80,0,0
105889,-66.6666666666667,4,2,3,80,0,0
106154,-66.6666666666667,4,2,5,80,0,0
106242,-66.6666666666667,4,2,19,80,0,0
106418,-66.6666666666667,4,2,5,80,0,0
106595,-66.6666666666667,4,2,1,80,0,0
106860,-66.6666666666667,4,2,5,80,0,0
106948,-66.6666666666667,4,2,19,80,0,0
107124,-66.6666666666667,4,2,5,80,0,0
107654,-66.6666666666667,4,2,19,80,0,0
107830,-66.6666666666667,4,2,5,80,0,0
108007,-66.6666666666667,4,2,1,80,0,0
108271,-66.6666666666667,4,2,5,80,0,0
108360,-66.6666666666667,4,2,19,80,0,0
108536,-66.6666666666667,4,2,5,80,0,0
109066,-66.6666666666667,4,2,19,80,0,0
109242,-66.6666666666667,4,2,5,80,0,0
109418,-66.6666666666667,4,2,1,80,0,0
109683,-66.6666666666667,4,2,5,80,0,0
109771,-66.6666666666667,4,2,19,80,0,0
109948,-66.6666666666667,4,2,5,80,0,0
110477,-66.6666666666667,4,2,19,80,0,0
110654,-66.6666666666667,4,2,5,80,0,0
110830,-66.6666666666667,4,2,1,80,0,0
111095,-66.6666666666667,4,2,5,80,0,0
111183,-66.6666666666667,4,2,19,80,0,0
111360,-66.6666666666667,4,2,5,80,0,0
111889,-66.6666666666667,4,2,19,80,0,0
112066,-66.6666666666667,4,2,5,80,0,0
112242,-66.6666666666667,4,2,1,80,0,0
112507,-66.6666666666667,4,2,5,80,0,0
112595,-66.6666666666667,4,2,19,80,0,0
112771,-66.6666666666667,4,2,5,80,0,0
113301,-66.6666666666667,4,2,19,80,0,0
113477,-66.6666666666667,4,2,5,80,0,0
113654,-66.6666666666667,4,2,1,80,0,0
113918,-66.6666666666667,4,2,5,80,0,0
114007,-66.6666666666667,4,2,19,80,0,0
114183,-66.6666666666667,4,2,5,80,0,0
114713,-66.6666666666667,4,2,8,80,0,0
114801,-66.6666666666667,4,2,5,80,0,0
115418,-66.6666666666667,4,2,8,80,0,0
115507,-66.6666666666667,4,2,5,80,0,0

[Colours]
Combo1 : 253,176,248
Combo2 : 115,203,236
Combo3 : 120,130,241
Combo4 : 185,134,247

[HitObjects]
404,64,2301,5,2,2:0:0:0:
400,80,2477,1,2,2:0:0:0:
396,96,2654,1,2,2:0:0:0:
464,144,2830,6,0,B|412:180|412:180|344:160,1,135,2|2,2:0|2:0,2:0:0:0:
296,232,3360,1,2,2:0:0:0:
216,208,3536,2,0,L|144:220,2,67.5000000000002,2|0|0,2:0|2:0|2:0,2:0:0:0:
64,192,4066,6,0,B|52:144|52:144|64:120|64:120|48:48,2,135,2|2|2,2:0|2:0|2:0,2:0:0:0:
112,312,4948,5,2,2:0:0:0:
36,292,5124,1,2,2:0:0:0:
84,264,5301,5,2,2:0:0:0:
64,340,5477,1,2,2:0:0:0:
160,384,5654,6,0,L|316:364,1,135,2|0,2:0|2:0,2:0:0:0:
348,304,6183,1,2,2:0:0:0:
440,308,6360,6,0,L|362:318,2,67.5000000000002,2|2|2,2:0|2:0|2:0,2:0:0:0:
288,260,6889,6,0,B|224:248|224:248|164:288,1,135,2|2,2:0|2:0,2:0:0:0:
96,188,7418,1,2,2:0:0:0:
12,256,7595,6,0,B|44:268|44:268|92:260,1,67.5000000000002,2|0,2:0|2:0,2:0:0:0:
172,168,7948,5,2,2:0:0:0:
184,96,8124,1,2,2:0:0:0:
196,28,8301,1,2,2:0:0:0:
256,72,8477,6,0,L|404:52,1,135,2|2,2:0|2:0,2:0:0:0:
452,104,9007,1,2,2:0:0:0:
420,176,9183,2,0,B|404:208|404:208|416:252,2,67.5000000000002,2|0|0,2:0|2:0|2:0,2:0:0:0:
456,312,9713,6,0,P|392:320|336:280,1,135,2|2,2:0|2:0,2:0:0:0:
264,320,10242,2,0,L|188:332,1,67.5000000000002,0|2,2:0|2:0,2:0:0:0:
136,288,10595,2,0,B|104:272|104:272|60:288,2,67.5000000000002,2|2|2,2:0|2:0|2:0,2:0:0:0:
197,330,11124,1,2,2:0:0:0:
0,384,11301,6,0,L|160:360,1,135,6|0,1:2|2:0,2:0:0:0:
256,192,11742,12,2,12713,2:0:0:0:
468,296,13595,6,0,L|460:344,1,45,2|0,2:0|2:0,2:0:0:0:
392,308,13771,2,0,L|384:356,1,45,2|0,2:0|2:0,2:0:0:0:
316,320,13948,2,0,L|308:368,1,45,2|0,2:0|2:0,2:0:0:0:
240,288,14124,6,0,L|100:308,1,135,6|2,1:2|2:0,2:0:0:0:
96,308,14477,1,8,2:0:0:0:
184,368,14654,1,2,2:0:0:0:
36,256,14830,6,0,B|12:296|12:296|32:356,1,90,2|2,2:0|1:2,2:0:0:0:
136,232,15183,1,10,2:0:0:0:
308,364,15360,5,2,3:2:0:0:
340,372,15448,1,2,3:2:0:0:
372,380,15536,2,0,B|400:340|400:340|384:248,1,135,2|2,1:2|2:0,2:0:0:0:
472,192,15889,2,0,B|484:224|484:224|468:280,1,90,8|2,2:0|2:0,2:0:0:0:
468,277,16154,1,0,3:2:0:0:
468,277,16242,1,2,2:0:0:0:
308,232,16418,1,2,1:2:0:0:
244,284,16595,2,0,L|152:296,1,90,10|0,3:2|2:0,2:0:0:0:
8,152,16948,6,0,P|72:152|120:200,1,135,6|0,1:2|2:0,2:0:0:0:
119,199,17301,1,10,2:0:0:0:
280,160,17477,1,2,2:0:0:0:
200,44,17654,6,0,B|184:72|184:72|196:144,1,90,2|2,2:0|1:2,2:0:0:0:
260,172,17918,1,0,2:0:0:0:
280,160,18007,2,0,B|308:144|308:144|380:156,1,90,10|2,2:0|1:2,2:0:0:0:
376,148,18271,1,0,2:0:0:0:
388,144,18360,2,0,B|376:192|376:192|404:240,1,90,0|2,2:0|1:2,2:0:0:0:
488,36,18713,1,10,2:0:0:0:
480,180,18889,6,0,P|452:124|468:56,1,135,2|0,2:0|2:0,2:0:0:0:
488,36,19242,2,0,L|412:48,1,45,2|0,1:2|2:0,2:0:0:0:
376,80,19418,2,0,L|300:92,1,45,10|0,2:0|3:2,2:0:0:0:
172,24,19595,5,2,2:0:0:0:
172,24,19683,1,0,3:2:0:0:
172,24,19771,2,0,B|204:64|204:64|180:164,1,135,6|2,1:2|2:0,2:0:0:0:
24,100,20124,2,0,L|136:84,1,90,8|2,2:0|2:0,2:0:0:0:
113,87,20389,1,0,3:2:0:0:
113,87,20477,1,2,2:0:0:0:
264,204,20654,1,2,1:2:0:0:
108,176,20830,6,0,L|220:160,1,90,10|2,2:0|3:2,2:0:0:0:
256,120,21095,1,2,3:2:0:0:
328,132,21183,6,0,B|412:144|412:144|476:112,1,135,2|2,1:2|2:0,2:0:0:0:
408,68,21536,2,0,P|388:108|388:152,1,90,8|2,2:0|2:0,2:0:0:0:
396,164,21801,1,0,3:2:0:0:
404,176,21889,1,2,2:0:0:0:
344,364,22066,6,0,L|400:376,1,45,2|0,1:2|3:2,2:0:0:0:
492,272,22242,2,0,L|400:288,1,90,10|0,3:2|2:0,2:0:0:0:
344,252,22507,5,2,3:2:0:0:
324,260,22595,2,0,P|308:216|308:172,1,90,6|0,1:2|2:0,2:0:0:0:
336,108,22860,1,2,2:0:0:0:
316,92,22948,2,0,L|404:108,1,90,10|0,2:0|2:0,2:0:0:0:
176,148,23301,6,0,B|131:154|131:154|107:172|107:172|46:181,1,135,2|0,2:0|2:0,2:0:0:0:
36,172,23654,1,10,2:0:0:0:
164,224,23830,1,2,2:0:0:0:
92,336,24007,6,0,B|76:308|76:308|100:228,1,90,8|2,1:2|2:0,2:0:0:0:
228,184,24271,2,0,B|244:212|244:212|220:292,1,90,8|0,2:0|2:0,2:0:0:0:
135,246,24536,5,8,2:0:0:0:
127,238,24624,1,8,2:0:0:0:
119,230,24713,2,0,L|203:218,1,45,8|8,1:2|2:0,2:0:0:0:
240,272,24889,2,0,L|324:260,1,45,10|8,1:2|2:0,2:0:0:0:
380,348,25066,5,10,2:1:0:0:
400,352,25154,1,0,2:0:0:0:
416,356,25242,1,2,2:0:0:0:
436,360,25330,1,0,2:0:0:0:
480,296,25418,6,0,B|420:304|420:304|392:332|392:332|312:344,1,175.5,6|10,1:2|2:0,2:0:0:0:
252,384,25771,6,0,P|244:360|244:328,1,58.5,8|0,1:2|2:0,2:0:0:0:
372,244,25948,2,0,P|380:268|380:300,1,58.5,10|0,2:0|3:2,2:0:0:0:
317,343,26124,1,2,1:2:0:0:
144,216,26301,6,0,P|176:228|200:272,1,58.5,2|8,2:0|2:0,2:0:0:0:
132,376,26477,5,10,1:2:0:0:
136,360,26566,1,0,2:0:0:0:
140,344,26654,1,10,2:0:0:0:
144,328,26742,1,2,3:2:0:0:
224,332,26830,6,0,B|161:339|161:339|137:367|137:367|53:379,1,175.5,6|10,1:2|2:0,2:0:0:0:
24,264,27183,5,8,1:2:0:0:
20,248,27271,1,0,2:0:0:0:
16,232,27360,2,0,P|44:252|56:288,1,58.5,10|0,2:0|3:2,2:0:0:0:
144,144,27536,1,2,1:2:0:0:
144,144,27713,6,0,P|112:158|75:150,1,58.5,2|8,2:0|2:0,2:0:0:0:
236,188,27889,5,10,1:2:0:0:
296,140,27977,2,0,L|280:44,2,58.5,0|0|2,2:0|2:0|3:2,2:0:0:0:
236,188,28242,6,0,B|300:176|300:176|340:200|340:200|416:184,1,175.5,6|0,1:2|2:0,2:0:0:0:
464,220,28595,1,10,1:2:0:0:
344,344,28771,5,10,2:0:0:0:
336,336,28860,1,0,2:0:0:0:
276,312,28948,6,0,L|416:280,1,117,2|2,1:2|2:0,2:0:0:0:
390,285,29213,1,8,2:0:0:0:
390,285,29301,2,0,P|418:305|458:309,1,58.5,10|0,1:2|2:0,2:0:0:0:
300,224,29477,1,10,2:0:0:0:
96,360,29654,6,0,B|160:348|160:348|216:388,1,117,4|2,1:2|2:0,2:0:0:0:
288,316,29918,1,8,2:0:0:0:
296,304,30007,2,0,L|236:316,1,58.5,10|0,1:2|2:0,2:0:0:0:
148,276,30183,2,0,L|88:288,1,58.5,10|0,2:0|3:2,2:0:0:0:
216,236,30360,5,0,1:2:0:0:
224,216,30448,1,0,3:2:0:0:
224,192,30536,1,2,3:2:0:0:
216,168,30624,1,0,2:0:0:0:
152,132,30713,6,0,P|124:144|92:148,1,58.5,10|0,1:2|3:2,2:0:0:0:
304,212,30889,5,10,2:0:0:0:
320,216,30977,1,0,3:2:0:0:
336,220,31066,2,0,B|376:176|376:176|348:64,1,175.5,6|10,1:2|2:0,2:0:0:0:
488,0,31418,2,0,B|452:20|452:20|440:104,1,117,8|10,1:2|2:0,2:0:0:0:
448,104,31683,1,0,3:2:0:0:
456,116,31771,2,0,L|520:128,1,58.5,2|0,1:2|2:0,2:0:0:0:
304,212,31948,1,2,2:0:0:0:
408,238,32124,5,10,1:2:0:0:
420,235,32213,1,0,2:0:0:0:
432,232,32301,1,10,2:0:0:0:
444,229,32389,1,2,3:2:0:0:
507,261,32477,6,0,B|461:270|424:240|424:240|427:288|393:318,1,175.5,6|10,1:2|2:0,2:0:0:0:
460,384,32830,5,8,1:2:0:0:
464,372,32918,1,0,2:0:0:0:
468,356,33007,2,0,P|468:324|448:284,1,58.5,10|0,2:0|3:2,2:0:0:0:
408,240,33183,6,0,L|336:256,1,58.5,2|0,1:2|3:2,2:0:0:0:
264,272,33360,2,0,L|192:288,1,58.5,10|8,2:0|2:0,2:0:0:0:
104,372,33536,5,10,1:2:0:0:
104,372,33624,2,0,B|128:332|128:332|108:256,1,117,0|2,2:0|3:2,2:0:0:0:
66,200,33889,5,14,1:2:0:0:
83,197,33977,1,8,2:0:0:0:
101,195,34066,1,8,2:0:0:0:
119,192,34154,1,8,2:0:0:0:
162,134,34242,5,10,1:2:0:0:
179,131,34330,1,8,2:0:0:0:
197,129,34418,1,8,2:0:0:0:
215,126,34507,1,8,2:0:0:0:
272,88,34595,5,8,1:2:0:0:
304,120,34683,1,8,2:0:0:0:
348,104,34771,1,10,2:0:0:0:
380,136,34860,1,8,2:0:0:0:
428,128,34948,1,10,1:2:0:0:
468,156,35036,1,8,2:0:0:0:
512,140,35124,6,0,L|44:204,1,450,6|0,1:2|2:0,2:0:0:0:
176,164,36183,5,2,2:0:0:0:
249,169,36360,1,2,2:0:0:0:
318,175,36536,1,2,2:0:0:0:
388,181,36713,1,2,2:0:0:0:
248,376,47301,6,0,L|240:328,1,45,10|0,2:3|2:0,2:0:0:0:
228,260,47477,2,0,L|224:236,2,22.5,8|0|0,2:3|2:0|2:0,2:0:0:0:
124,308,47654,5,6,2:3:0:0:
124,308,47742,1,4,2:3:0:0:
124,308,47830,2,0,P|148:312|176:312,1,45,4|4,2:3|2:3,2:0:0:0:
412,296,48007,6,0,P|352:308|292:276,1,101.25,6|0,1:2|2:0,2:0:0:0:
305,284,48360,2,0,L|320:200,1,67.5000000000002,10|0,2:0|2:0,2:0:0:0:
256,76,48713,5,0,2:0:0:0:
188,92,48889,1,2,2:0:0:0:
124,108,49066,1,10,2:0:0:0:
56,80,49242,6,0,B|100:108|100:108|84:212,1,135,2|2,2:0|2:0,2:0:0:0:
72,260,49771,1,10,2:0:0:0:
56,332,49948,1,2,2:0:0:0:
128,308,50124,5,2,2:0:0:0:
196,316,50301,1,2,2:0:0:0:
248,376,50477,1,10,2:0:0:0:
316,384,50654,1,2,2:0:0:0:
376,336,50830,6,0,L|444:328,3,67.5000000000002,2|2|10|2,2:0|2:0|2:0|2:0,2:0:0:0:
320,280,51536,5,2,2:0:0:0:
344,200,51713,1,2,2:0:0:0:
372,252,51889,5,10,2:0:0:0:
292,228,52066,1,2,2:0:0:0:
212,208,52242,2,0,B|165:232|165:232|103:220,2,101.25,2|2|2,2:0|2:0|2:0,2:0:0:0:
320,280,52948,5,2,2:0:0:0:
344,200,53124,1,2,2:0:0:0:
408,164,53301,5,10,2:0:0:0:
432,84,53477,1,2,2:0:0:0:
384,24,53654,6,0,B|324:60|324:60|240:36,1,135,6|8,1:2|2:0,2:0:0:0:
96,172,54360,1,0,2:0:0:0:
32,144,54536,2,0,L|16:64,2,67.5000000000002,2|10|2,2:0|2:0|2:0,2:0:0:0:
0,272,55066,6,0,B|68:288|68:288|120:240,1,135,6|10,1:2|2:0,2:0:0:0:
188,260,55595,1,0,2:0:0:0:
260,276,55771,1,2,2:0:0:0:
332,292,55948,1,2,2:0:0:0:
404,304,56124,1,10,2:0:0:0:
476,316,56301,1,2,2:0:0:0:
512,168,56477,6,0,P|444:168|388:224,1,135,6|0,1:2|2:0,2:0:0:0:
384,220,56830,2,0,L|397:126,1,90,8|2,1:2|2:0,2:0:0:0:
200,136,57183,6,0,L|213:42,1,90,2|2,1:2|2:0,2:0:0:0:
260,32,57448,1,0,2:0:0:0:
300,60,57536,2,0,L|287:149,2,90,10|2|4,1:2|2:0|1:2,2:0:0:0:
32,212,58595,6,0,L|-20:220,1,30,8|0,2:0|2:0,2:0:0:0:
96,240,58713,1,0,1:2:0:0:
192,204,58830,6,0,L|140:196,1,30,8|0,2:0|2:0,2:0:0:0:
256,236,58948,1,0,1:2:0:0:
328,208,59066,5,2,2:3:0:0:
396,228,59183,1,2,2:3:0:0:
468,208,59301,6,0,B|444:136|444:136|372:148|372:148|333:315|333:315|376:356|376:356|472:312,1,450,6|0,1:2|1:2,2:0:0:0:
420,264,60007,5,10,1:2:0:0:
420,264,60360,6,0,B|352:264|376:296|284:296,1,120,2|0,2:0|2:0,2:0:0:0:
136,184,60713,5,2,2:3:0:0:
136,184,60948,2,0,B|144:196|144:196|216:212|216:212|231:197|231:197|248:125|248:125|236:105|236:105|163:88|163:88|140:168,1,360,6|8,1:2|2:0,2:0:0:0:
0,148,61654,6,0,L|76:136,1,60,2|2,1:2|1:2,2:0:0:0:
216,200,62007,5,0,1:2:0:0:
0,148,62124,2,0,B|40:112|40:112|128:136|128:136|144:264|144:264|236:292|236:292|292:236,1,450,6|0,1:2|1:2,2:0:0:0:
216,200,62830,5,8,1:2:0:0:
52,296,63066,6,0,B|4:292|4:292|168:268,1,180,2|0,2:0|2:0,2:0:0:0:
216,200,63536,2,0,L|228:132,1,60,4|0,1:3|2:0,2:0:0:0:
160,8,63771,6,0,B|260:-8|260:-8|284:4|284:4|300:112|300:112|292:124|292:124|188:144|188:144|164:136|164:136|144:20,1,480,6|8,1:2|2:0,2:0:0:0:
224,68,64477,5,0,1:2:0:0:
224,68,64595,2,0,L|352:92,1,120,2|0,1:2|1:2,2:0:0:0:
392,144,64948,6,0,B|420:64|420:64|144:108|144:108|176:24,1,450,6|0,1:2|1:2,2:0:0:0:
248,60,65654,1,10,1:2:0:0:
376,368,66007,6,0,P|388:312|372:368,1,180,2|2,2:1|2:1,2:0:0:0:
511,260,66595,6,0,B|491:320|491:320|259:356|259:356|222:306,1,360,6|8,1:2|2:0,2:0:0:0:
264,248,67301,5,2,1:2:0:0:
188,380,67418,2,0,L|20:352,1,120,2|0,1:2|1:2,2:0:0:0:
0,312,67771,6,0,B|16:388|16:388|224:352|224:352|208:272,1,360,6|0,1:2|2:0,2:0:0:0:
248,368,68360,1,0,1:2:0:0:
160,344,68477,2,0,B|103:332|103:332|130:176|130:176|182:186,2,270,10|0|0,1:2|2:0|2:0,2:0:0:0:
24,212,69418,6,0,B|0:232|0:232|286:189|286:189|324:212,1,360,6|8,1:2|2:0,2:0:0:0:
496,184,70124,5,0,1:2:0:0:
496,184,70242,2,0,B|444:200|436:244|436:244|444:200|404:164,1,180,8|0,2:1|2:0,2:0:0:0:
460,312,70595,6,0,P|448:136|392:300,1,480,6|0,1:2|2:0,2:0:0:0:
436,244,71183,1,0,1:2:0:0:
384,294,71301,6,0,B|340:302|340:302|320:320|320:320|212:338,1,120,8|0,1:2|2:0,2:0:0:0:
140,148,71654,6,0,B|136:184|104:148|32:236|120:312|212:264|180:164|136:184|140:148,1,240,2|2,2:0|2:0,2:0:0:0:
57,121,72242,6,0,P|92:316|244:187,1,480,6|10,1:2|2:0,2:0:0:0:
414,124,72948,6,0,B|370:136|354:184|354:184|354:136|302:92,1,180,2|0,1:2|2:0,2:0:0:0:
336,256,73301,1,0,1:2:0:0:
432,212,73418,6,0,P|380:24|262:176,1,480,6|0,1:2|2:0,2:0:0:0:
336,256,74007,1,0,1:2:0:0:
356,180,74124,1,8,1:2:0:0:
356,180,74477,6,0,P|348:140|360:180,1,120,2|2,2:0|2:0,2:0:0:0:
484,220,75066,6,0,P|384:140|384:300,1,360,6|0,1:2|2:0,2:0:0:0:
468,308,75536,6,0,B|436:284|404:300|400:332|400:332|396:364|360:380|328:356,1,180,8|0,2:0|1:2,2:0:0:0:
256,380,75889,1,2,1:2:0:0:
76,232,76124,5,0,1:2:0:0:
0,288,76242,2,0,B|32:324|84:312|92:268|92:268|100:216|148:208|176:244|176:244|204:280|256:272|268:220|268:220|276:176|328:164|360:208,1,480,6|0,1:2|2:0,2:0:0:0:
359,207,76830,1,0,1:2:0:0:
204,160,76948,1,8,1:2:0:0:
204,160,77301,6,0,B|212:120|212:120|208:108|208:108|220:88|220:88|232:20,1,120,2|2,2:0|2:0,2:0:0:0:
227,45,77889,6,0,B|167:49|175:117|227:113|227:113|279:109|287:173|235:181|235:181|179:189|191:261|243:253|243:253|299:249|307:313|251:325,1,480,6|8,1:2|2:0,2:0:0:0:
253,324,78595,6,0,P|273:316|293:408,1,120,2|0,1:2|1:2,2:0:0:0:
376,212,78948,1,0,1:2:0:0:
323,379,79066,6,0,B|271:391|239:349|261:310|261:310|285:262|250:223|206:232|206:232|161:242|130:205|157:160|157:160|179:121|147:79|99:86,1,480,6|0,1:2|2:0,2:0:0:0:
84,8,79654,5,0,1:2:0:0:
48,152,79771,1,8,1:2:0:0:
48,152,80124,2,0,L|188:128,1,120,2|10,2:0|2:0,2:0:0:0:
211,189,80477,6,0,B|263:177|299:221|299:221|363:321|263:361|207:277|299:221|299:221|329:198|375:197|375:197|479:177|423:29|317:122|375:197|375:197|405:238|461:238,1,750,6|0,1:2|2:0,2:0:0:0:
512,209,81183,6,0,L|506:170,1,36,2|0,2:1|2:0,2:0:0:0:
507,174,81889,6,0,B|517:217|499:252|490:222|463:256|472:296,1,135,2|0,2:0|2:0,2:0:0:0:
496,344,83301,6,0,L|428:356,3,67.5000000000002,10|2|10|2,2:0|2:0|2:0|2:0,2:0:0:0:
360,320,84007,5,10,2:0:0:0:
280,312,84183,1,2,2:0:0:0:
272,316,84271,1,2,2:0:0:0:
264,320,84360,1,10,2:0:0:0:
192,304,84536,1,2,2:0:0:0:
124,340,84713,1,8,2:0:0:0:
116,336,84801,1,0,2:0:0:0:
108,332,84889,6,0,L|96:248,2,67.5000000000002,2|8|2,2:0|2:0|2:0,2:0:0:0:
20,176,85418,5,10,2:0:0:0:
92,184,85595,1,2,2:0:0:0:
164,192,85771,1,10,2:0:0:0:
236,200,85948,1,2,2:0:0:0:
296,156,86124,6,0,B|356:120|356:120|440:152,1,135,10|8,2:0|2:0,2:0:0:0:
416,143,86654,1,0,2:0:0:0:
484,216,86830,6,0,B|424:252|424:252|340:220,1,135,10|8,2:0|2:0,2:0:0:0:
363,228,87360,1,0,2:0:0:0:
288,308,87536,6,0,L|152:328,1,135,10|8,2:0|2:0,2:0:0:0:
154,327,88242,2,0,L|288:308,1,135,10|8,2:0|2:0,2:0:0:0:
492,224,88948,5,10,1:2:0:0:
420,212,89124,1,2,3:2:0:0:
348,200,89301,1,10,1:2:0:0:
276,188,89477,1,2,3:2:0:0:
200,252,89654,6,0,L|132:264,1,67.5000000000002,10|2,1:2|3:2,2:0:0:0:
124,272,89918,1,2,3:2:0:0:
116,280,90007,2,0,L|48:292,1,67.5000000000002,10|2,1:2|3:2,2:0:0:0:
0,192,90360,5,10,1:2:0:0:
20,188,90448,1,2,3:2:0:0:
40,184,90536,1,2,3:2:0:0:
116,212,90713,1,10,1:2:0:0:
188,200,90889,1,2,3:2:0:0:
260,240,91066,1,10,1:2:0:0:
332,228,91242,1,2,3:2:0:0:
404,216,91418,1,10,1:2:0:0:
476,204,91595,1,2,3:2:0:0:
512,272,91771,5,10,1:2:0:0:
488,268,91860,1,0,3:2:0:0:
464,264,91948,1,0,3:2:0:0:
440,260,92036,1,0,3:2:0:0:
416,256,92124,1,8,1:2:0:0:
392,252,92213,1,0,3:2:0:0:
368,248,92301,1,0,3:2:0:0:
344,244,92389,1,0,3:2:0:0:
308,248,92477,5,10,1:2:0:0:
284,244,92566,1,0,3:2:0:0:
260,240,92654,1,0,3:2:0:0:
236,236,92742,1,0,3:2:0:0:
212,232,92830,1,8,1:2:0:0:
188,228,92918,1,0,3:2:0:0:
164,224,93007,1,0,3:2:0:0:
140,220,93095,1,0,3:2:0:0:
116,228,93183,5,2,1:2:0:0:
116,228,93889,5,2,2:0:0:0:
116,228,94595,6,0,L|100:112,1,117,6|2,1:2|2:0,2:0:0:0:
91,44,94860,1,0,2:0:0:0:
140,0,94948,2,0,B|92:28|92:28|0:4,1,117,10|2,1:2|2:0,2:0:0:0:
245,139,95301,6,0,B|293:111|293:111|385:135,1,117,2|2,1:2|2:0,2:0:0:0:
415,88,95566,1,0,2:0:0:0:
392,12,95654,2,0,B|374:32|374:32|386:91,1,58.5,10|0,1:2|2:0,2:0:0:0:
458,277,95830,5,2,3:2:0:0:
467,281,95918,1,2,3:2:0:0:
510,230,96007,6,0,L|371:259,1,117,2|2,1:2|2:0,2:0:0:0:
346,306,96271,1,0,2:0:0:0:
278,277,96360,2,0,L|292:208,1,58.5,10|0,1:2|2:0,2:0:0:0:
256,131,96536,1,2,2:0:0:0:
237,345,96713,6,0,B|203:327|203:327|190:247,1,117,2|2,1:2|2:0,2:0:0:0:
97,166,96977,1,0,2:0:0:0:
152,130,97066,2,0,B|170:155|170:155|160:183,1,58.5,10|0,1:2|2:0,2:0:0:0:
42,202,97242,2,0,B|24:177|24:177|34:149,1,58.5,2|0,3:2|3:2,2:0:0:0:
110,238,97418,6,0,L|87:396,1,117,2|2,1:2|2:0,2:0:0:0:
98,362,97683,1,0,2:0:0:0:
150,302,97771,2,0,B|99:309|99:309|87:315|87:315|24:326,1,117,10|2,1:2|2:0,2:0:0:0:
321,91,98124,6,0,B|263:105|263:105|190:60,1,117,2|2,1:2|2:0,2:0:0:0:
165,131,98389,1,0,2:0:0:0:
140,121,98477,2,0,L|130:63,1,58.5,10|0,1:2|2:0,2:0:0:0:
241,177,98654,1,2,3:2:0:0:
16,228,98830,6,0,B|60:201|60:201|184:228,1,175.5,2|0,1:2|2:0,2:0:0:0:
369,180,99183,2,0,B|343:197|343:197|252:181,1,117,10|0,1:2|2:0,2:0:0:0:
251,179,99448,1,0,3:2:0:0:
241,177,99536,6,0,L|232:110,1,58.5,2|8,1:2|2:0,2:0:0:0:
300,61,99713,2,0,L|307:118,1,58.5,8|8,2:0|2:0,2:0:0:0:
454,270,99889,5,10,1:2:0:0:
456,276,99977,1,8,2:0:0:0:
459,283,100066,1,8,2:0:0:0:
461,290,100154,1,8,2:0:0:0:
498,216,100242,6,0,B|456:224|456:224|433:240|433:240|377:250,1,117,2|2,1:2|2:0,2:0:0:0:
336,292,100507,1,0,2:0:0:0:
272,265,100595,2,0,L|190:279,2,58.5,10|0|2,1:2|2:0|2:0,2:0:0:0:
160,361,100948,6,0,P|102:365|53:325,1,117,2|2,1:2|2:0,2:0:0:0:
96,206,101213,1,0,2:0:0:0:
148,249,101301,2,0,P|161:217|153:178,1,58.5,10|0,1:2|2:0,2:0:0:0:
53,95,101477,2,0,P|40:127|48:166,1,58.5,2|2,3:2|3:2,2:0:0:0:
96,206,101654,5,2,1:2:0:0:
128,200,101742,1,0,2:0:0:0:
160,194,101830,1,2,2:0:0:0:
192,188,101918,1,0,2:0:0:0:
241,143,102007,6,0,B|294:172|294:172|366:155,1,117,10|2,1:2|2:0,2:0:0:0:
402,113,102271,1,0,3:2:0:0:
469,134,102360,2,0,L|444:266,1,117,2|2,1:2|2:0,2:0:0:0:
424,381,102624,5,0,2:0:0:0:
492,384,102713,2,0,P|488:357|466:331,1,58.5,10|0,1:2|2:0,2:0:0:0:
336,234,102889,1,2,3:2:0:0:
447,248,103066,6,0,P|378:308|274:282,1,175.5,2|0,1:2|2:0,2:0:0:0:
44,367,103418,6,0,L|162:348,1,117,10|2,1:2|2:0,2:0:0:0:
166,346,103683,1,2,3:2:0:0:
232,384,103771,6,0,B|193:354|193:354|220:268,1,117,2|2,1:2|2:0,2:0:0:0:
101,167,104036,1,0,2:0:0:0:
97,172,104124,2,0,B|78:193|78:193|96:247,1,58.5,10|0,1:2|2:0,2:0:0:0:
135,276,104301,5,2,3:2:0:0:
206,257,104389,1,2,3:2:0:0:
275,237,104477,2,0,L|399:258,1,117,10|0,1:2|2:0,2:0:0:0:
456,221,104742,1,8,2:0:0:0:
503,327,104830,6,0,B|459:359|459:359|384:340,1,117,10|0,1:2|2:0,2:0:0:0:
320,375,105095,1,0,3:2:0:0:
332,367,105183,5,10,1:2:0:0:
292,359,105271,1,8,3:2:0:0:
252,351,105360,1,8,2:0:0:0:
212,343,105448,1,8,2:0:0:0:
136,384,105536,6,0,P|133:369|130:354,1,29.25,10|0,1:2|2:0,2:0:0:0:
147,366,105713,2,0,P|132:368|117:372,1,29.25,0|0,2:0|2:0,2:0:0:0:
9,198,105889,6,0,B|61:191|61:191|92:205|92:205|173:192,1,135,6|2,1:2|2:0,2:0:0:0:
147,195,106154,1,8,2:0:0:0:
209,150,106242,5,10,1:2:0:0:
276,165,106330,1,0,2:0:0:0:
344,179,106418,2,0,L|415:167,1,67.5,10|0,2:0|2:0,2:0:0:0:
512,274,106595,6,0,B|448:290|448:290|388:251,1,135,10|2,1:2|2:0,2:0:0:0:
272,319,106860,1,8,2:0:0:0:
291,339,106948,5,10,1:2:0:0:
299,298,107036,1,0,2:0:0:0:
307,257,107124,1,10,2:0:0:0:
316,216,107213,1,2,2:0:0:0:
365,155,107301,6,0,B|308:188|308:188|231:171,1,135,2|2,1:2|2:0,2:0:0:0:
84,268,107566,1,8,2:0:0:0:
45,216,107654,2,0,B|78:223|78:223|107:206,1,67.5,10|0,1:2|2:0,2:0:0:0:
316,352,107830,5,10,2:0:0:0:
252,364,107918,1,0,2:0:0:0:
184,376,108007,2,0,B|160:348|160:348|185:251,1,135,10|2,1:2|2:0,2:0:0:0:
188,244,108271,1,8,2:0:0:0:
124,208,108360,5,10,1:2:0:0:
120,172,108448,1,0,2:0:0:0:
116,136,108536,1,10,2:0:0:0:
112,100,108624,1,0,2:0:0:0:
160,48,108713,6,0,B|220:76|220:76|296:60,1,135,2|2,1:2|2:0,2:0:0:0:
412,172,108977,1,8,2:0:0:0:
480,144,109066,2,0,L|492:76,1,67.5,10|2,1:2|2:0,2:0:0:0:
448,320,109242,5,10,2:0:0:0:
448,320,109330,1,2,2:0:0:0:
500,260,109418,6,0,B|428:260|452:296|368:296,1,135,10|2,1:2|2:0,2:0:0:0:
296,232,109683,1,8,2:0:0:0:
312,244,109771,5,10,1:2:0:0:
280,268,109860,1,0,2:0:0:0:
239,273,109948,1,10,2:0:0:0:
204,260,110036,1,2,2:0:0:0:
152,320,110124,6,0,B|76:328|120:360|32:372,1,135,2|0,1:2|2:0,2:0:0:0:
0,308,110389,1,8,2:0:0:0:
52,296,110477,1,10,1:2:0:0:
100,308,110566,1,0,2:0:0:0:
128,352,110654,1,8,2:0:0:0:
308,164,110830,6,0,B|252:196|252:196|184:176,1,135,10|0,1:2|2:0,2:0:0:0:
136,236,111095,5,8,2:0:0:0:
204,228,111183,1,10,1:2:0:0:
272,220,111271,1,0,2:0:0:0:
340,212,111360,1,8,2:0:0:0:
408,204,111448,1,0,2:0:0:0:
476,252,111536,6,0,B|440:220|440:220|464:136,1,135,6|2,1:2|2:0,2:0:0:0:
388,28,111801,1,8,2:0:0:0:
392,16,111889,2,0,B|408:40|408:40|392:104,1,67.5,10|0,1:2|2:0,2:0:0:0:
220,144,112066,2,0,B|204:120|204:120|220:56,1,67.5,10|0,2:0|2:0,2:0:0:0:
404,84,112242,6,0,B|344:116|344:116|264:100,1,135,10|2,1:2|2:0,2:0:0:0:
156,224,112507,1,8,2:0:0:0:
104,164,112595,5,10,1:2:0:0:
148,148,112683,1,0,2:0:0:0:
192,156,112771,1,10,2:0:0:0:
224,188,112860,1,2,2:0:0:0:
256,252,112948,6,0,L|388:228,1,135,2|2,1:2|2:0,2:0:0:0:
480,304,113213,1,8,2:0:0:0:
496,284,113301,5,10,1:2:0:0:
456,272,113389,1,0,2:0:0:0:
412,280,113477,1,10,2:0:0:0:
380,312,113566,1,0,2:0:0:0:
368,352,113654,5,10,1:2:0:0:
304,344,113742,1,0,2:0:0:0:
240,352,113830,1,2,2:0:0:0:
176,344,113918,1,8,2:0:0:0:
112,352,114007,6,0,P|96:320|100:272,1,67.5,10|0,1:2|2:0,2:0:0:0:
320,152,114183,2,0,P|336:184|332:232,1,67.5,10|0,2:0|2:0,2:0:0:0:
244,280,114360,5,10,1:2:0:0:
218,273,114448,1,8,2:0:0:0:
192,267,114536,1,10,2:0:0:0:
167,260,114624,1,8,2:0:0:0:
95,288,114713,5,10,1:2:0:0:
67,264,114801,1,10,2:0:0:0:
59,224,114889,1,10,2:0:0:0:
72,192,114977,1,10,2:0:0:0:
116,132,115066,5,10,1:2:0:0:
164,146,115154,1,8,2:0:0:0:
203,118,115242,1,10,2:0:0:0:
252,132,115330,1,8,2:0:0:0:
290,103,115418,1,10,1:2:0:0:
340,118,115507,1,8,2:0:0:0:
377,88,115595,1,10,2:0:0:0:
427,103,115683,1,10,2:0:0:0:
464,74,115771,6,0,L|468:41,12,33.75,6|0|0|0|0|0|0|0|0|0|0|0|0,1:2|2:0|2:0|2:0|2:0|2:0|2:0|2:0|2:0|2:0|2:0|2:0|2:0,2:0:0:0:
