osu file format v14

[General]
AudioFilename: audio.mp3
AudioLeadIn: 0
PreviewTime: 13507
Countdown: 0
SampleSet: Soft
StackLeniency: 0.7
Mode: 0
LetterboxInBreaks: 0
WidescreenStoryboard: 0

[Editor]
Bookmarks: 2301,14124,25418,36713,48007,59301,70595,83301,94595,105889,117183
DistanceSpacing: 0.5
BeatDivisor: 4
GridSize: 4
TimelineZoom: 2.299999

[Metadata]
Title:Up to 21C
TitleUnicode:Up to 21°C
Artist:Nor
ArtistUnicode:Nor
Creator:Ayesha Altugle
Version:Rabbit
Source:ブルーアーカイブ -Blue Archive-
Tags:Theme 165 degrees celsius ブルアカ future bass electronic instrumental video game yostar nat games theme flake lecandy acnozei shizuku shikibe mayu kazato asa amateurre midorijeon come kyuuchie moete tsukiyuki miyako 月雪ミヤコ sorai saki 空井サキ kasumizawa miyu 霞沢ミユ kazekura moe 風倉モエ usagi flop srt rabbit platoon rabbit小隊 squad summer
BeatmapID:4436418
BeatmapSetID:2111968

[Difficulty]
HPDrainRate:6
CircleSize:4
OverallDifficulty:8.8
ApproachRate:9.2
SliderMultiplier:1.8
SliderTickRate:1

[Events]
//Background and Video events
0,0,"109281014_p0.jpg",0,0
//Break Periods
//Storyboard Layer 0 (Background)
//Storyboard Layer 1 (Fail)
//Storyboard Layer 2 (Pass)
//Storyboard Layer 3 (Foreground)
//Storyboard Layer 4 (Overlay)
//Storyboard Sound Samples

[TimingPoints]
1419,352.941176470588,4,2,1,60,1,0
2301,-142.857142857143,4,2,1,60,0,0
2830,-125,4,2,1,60,0,0
12713,-125,4,2,2,60,0,0
13595,-125,4,2,3,60,0,0
14124,-125,4,2,3,75,0,0
14213,-66.6666666666667,4,2,3,75,0,0
14477,-66.6666666666667,4,2,1,75,0,0
19418,-66.6666666666667,4,2,4,75,0,0
19506,-66.6666666666667,4,2,1,75,0,0
24713,-66.6666666666667,4,2,2,75,0,0
24889,-66.6666666666667,4,2,3,75,0,0
25066,-66.6666666666667,4,2,1,75,0,0
25418,-55.5555555555556,4,2,3,75,0,0
25683,-55.5555555555556,4,2,5,75,0,0
25771,-55.5555555555556,4,2,6,75,0,0
25948,-55.5555555555556,4,2,5,75,0,0
26036,-55.5555555555556,4,2,1,75,0,0
26389,-55.5555555555556,4,2,5,75,0,0
26477,-55.5555555555556,4,2,6,75,0,0
26654,-55.5555555555556,4,2,5,75,0,0
26742,-55.5555555555556,4,2,1,75,0,0
27095,-55.5555555555556,4,2,5,75,0,0
27183,-55.5555555555556,4,2,6,75,0,0
27360,-55.5555555555556,4,2,5,75,0,0
27448,-55.5555555555556,4,2,1,75,0,0
27801,-55.5555555555556,4,2,5,75,0,0
27889,-55.5555555555556,4,2,6,75,0,0
28153,-55.5555555555556,4,2,1,75,0,0
28595,-55.5555555555556,4,2,6,75,0,0
28771,-55.5555555555556,4,2,5,75,0,0
29301,-55.5555555555556,4,2,6,75,0,0
29477,-55.5555555555556,4,2,5,75,0,0
29565,-55.5555555555556,4,2,1,75,0,0
29918,-55.5555555555556,4,2,5,75,0,0
30007,-55.5555555555556,4,2,6,75,0,0
30183,-55.5555555555556,4,2,5,75,0,0
30271,-55.5555555555556,4,2,1,75,0,0
30713,-55.5555555555556,4,2,7,75,0,0
30801,-55.5555555555556,4,2,1,75,0,0
30889,-55.5555555555556,4,2,5,75,0,0
30977,-55.5555555555556,4,2,1,75,0,0
31330,-55.5555555555556,4,2,5,75,0,0
31418,-55.5555555555556,4,2,6,75,0,0
31595,-55.5555555555556,4,2,5,75,0,0
31683,-55.5555555555556,4,2,1,75,0,0
32036,-55.5555555555556,4,2,5,75,0,0
32124,-55.5555555555556,4,2,6,75,0,0
32301,-55.5555555555556,4,2,5,75,0,0
32389,-55.5555555555556,4,2,1,75,0,0
32742,-55.5555555555556,4,2,5,75,0,0
32830,-55.5555555555556,4,2,6,75,0,0
33007,-55.5555555555556,4,2,5,75,0,0
33095,-55.5555555555556,4,2,1,75,0,0
33360,-55.5555555555556,4,2,5,75,0,0
33536,-55.5555555555556,4,2,6,75,0,0
33713,-55.5555555555556,4,2,5,75,0,0
33801,-55.5555555555556,4,2,1,75,0,0
33889,-55.5555555555556,4,2,5,75,0,0
34242,-55.5555555555556,4,2,8,75,0,0
34330,-55.5555555555556,4,2,5,75,0,0
34948,-55.5555555555556,4,2,8,75,0,0
35036,-55.5555555555556,4,2,5,75,0,0
36183,-200,4,2,5,60,0,0
36713,-200,4,2,5,50,0,0
37066,-142.857142857143,4,2,5,50,0,0
47301,-142.857142857143,4,2,1,50,0,0
47654,-100,4,2,1,50,0,0
48007,-100,4,2,1,60,0,0
48360,-100,4,2,17,60,0,0
53654,-71.4285714285714,4,2,1,60,0,0
54007,-100,4,2,17,60,0,0
55066,-83.3333333333333,4,2,1,60,0,0
55418,-83.3333333333333,4,2,17,60,0,0
55771,-74.0740740740741,4,2,17,60,0,0
56477,-74.0740740740741,4,2,1,60,0,0
56654,-100,4,2,1,60,0,0
56830,-100,4,2,9,60,0,0
57007,-100,4,2,17,60,0,0
57183,-100,4,2,8,60,0,0
57360,-55.5555555555556,4,2,8,60,0,0
57536,-55.5555555555556,4,2,17,60,0,0
57889,-55.5555555555556,4,2,5,60,0,0
58595,-66.6666666666667,4,2,10,60,0,0
59066,-66.6666666666667,4,2,2,60,0,0
59183,-66.6666666666667,4,2,3,60,0,0
59301,-500,4,2,1,75,0,0
60007,-66.6666666666667,4,2,1,75,0,0
60360,-100,4,2,2,75,0,0
60712,-100,4,2,4,75,0,0
60948,-55.5555555555556,4,2,1,75,0,0
61771,-83.3333333333333,4,2,1,75,0,0
62124,-50,4,2,1,75,0,0
62477,-200,4,2,4,75,0,0
62712,-200,4,2,1,75,0,0
62830,-66.6666666666667,4,2,1,75,0,0
63066,-125,4,2,9,75,0,0
63536,-125,4,2,2,75,0,0
63771,-55.5555555555556,4,2,1,75,0,0
64595,-83.3333333333333,4,2,10,75,0,0
64948,-500,4,2,1,75,0,0
65654,-66.6666666666667,4,2,1,75,0,0
66007,-125,4,2,2,75,0,0
66242,-58.8235294117647,4,2,3,75,0,0
66595,-50,4,2,1,75,0,0
67418,-83.3333333333333,4,2,1,75,0,0
67771,-500,4,2,1,75,0,0
68477,-33.3333333333333,4,2,11,75,0,0
68889,-200,4,2,11,75,0,0
69418,-55.5555555555556,4,2,1,75,0,0
69889,-166.666666666667,4,2,1,75,0,0
70242,-50,4,2,1,75,0,0
70595,-166.666666666667,4,2,1,75,0,0
71654,-100,4,2,12,75,0,0
71889,-100,4,2,1,75,0,0
72242,-62.5,4,2,1,75,0,0
72712,-62.5,4,2,13,75,0,0
72948,-62.5,4,2,1,75,0,0
73066,-166.666666666667,4,2,1,75,0,0
73418,-50,4,2,1,75,0,0
73771,-125,4,2,14,75,0,0
74007,-125,4,2,1,75,0,0
74124,-66.6666666666667,4,2,1,75,0,0
74477,-125,4,2,1,75,0,0
75066,-58.8235294117647,4,2,1,75,0,0
75889,-83.3333333333333,4,2,10,75,0,0
76242,-250,4,2,1,75,0,0
77889,-62.5,4,2,1,75,0,0
78713,-166.666666666667,4,2,1,75,0,0
79066,-250,4,2,1,75,0,0
80124,-50,4,2,1,75,0,0
80360,-50,4,2,15,75,0,0
80477,-50,4,2,1,75,0,0
81183,-100,4,2,4,75,0,0
81889,-25,4,2,2,75,0,0
83301,-200,4,2,16,50,0,0
83477,-200,4,2,17,50,0,0
84713,-200,4,2,16,50,0,0
84889,-200,4,2,17,50,0,0
86124,-166.666666666667,4,2,17,50,0,0
89124,-166.666666666667,4,2,1,51,0,0
89301,-125,4,2,17,52,0,0
89389,-125,4,2,1,52,0,0
89654,-125,4,2,17,53,0,0
89742,-125,4,2,1,53,0,0
89830,-125,4,2,1,54,0,0
90007,-125,4,2,17,55,0,0
90095,-125,4,2,1,55,0,0
90183,-125,4,2,1,56,0,0
90360,-125,4,2,17,57,0,0
90448,-125,4,2,1,57,0,0
90536,-100,4,2,1,57,0,0
90713,-100,4,2,17,58,0,0
90801,-100,4,2,1,58,0,0
90889,-100,4,2,1,59,0,0
91066,-100,4,2,17,60,0,0
91154,-100,4,2,1,60,0,0
91242,-100,4,2,1,61,0,0
91418,-100,4,2,17,62,0,0
91507,-100,4,2,1,62,0,0
91595,-100,4,2,1,63,0,0
91771,-100,4,2,17,63,0,0
91860,-100,4,2,1,63,0,0
91948,-100,4,2,1,64,0,0
92124,-100,4,2,14,65,0,0
92213,-100,4,2,1,65,0,0
92301,-100,4,2,1,66,0,0
92477,-100,4,2,17,67,0,0
92566,-100,4,2,1,67,0,0
92654,-100,4,2,1,68,0,0
92830,-100,4,2,14,68,0,0
92918,-100,4,2,1,68,0,0
93007,-100,4,2,1,69,0,0
93183,-66.6666666666667,4,2,1,70,0,0
94595,-55.5555555555556,4,2,3,80,0,0
94948,-47.6190476190476,4,2,1,80,0,0
95124,-62.5,4,2,1,80,0,0
95301,-55.5555555555556,4,2,1,80,0,0
95654,-50,4,2,1,80,0,0
96007,-52.6315789473684,4,2,1,80,0,0
96183,-62.5,4,2,1,80,0,0
96360,-55.5555555555556,4,2,1,80,0,0
97418,-50,4,2,1,80,0,0
97595,-62.5,4,2,1,80,0,0
97771,-55.5555555555556,4,2,1,80,0,0
98477,-52.6315789473684,4,2,1,80,0,0
99624,-52.6315789473684,4,2,3,80,0,0
99712,-52.6315789473684,4,2,2,80,0,0
99889,-52.6315789473684,4,2,5,80,0,0
100066,-52.6315789473684,4,2,9,80,0,0
100242,-55.5555555555556,4,2,1,80,0,0
100418,-100,4,2,1,80,0,0
100595,-62.5,4,2,1,80,0,0
100771,-55.5555555555556,4,2,1,80,0,0
100948,-45.4545454545455,4,2,1,80,0,0
101301,-55.5555555555556,4,2,1,80,0,0
101830,-66.6666666666667,4,2,1,80,0,0
102360,-43.4782608695652,4,2,1,80,0,0
102713,-55.5555555555556,4,2,1,80,0,0
103066,-62.5,4,2,1,80,0,0
103418,-55.5555555555556,4,2,1,80,0,0
104477,-45.4545454545455,4,2,18,80,0,0
104830,-45.4545454545455,4,2,1,80,0,0
105183,-45.4545454545455,4,2,18,80,0,0
105271,-45.4545454545455,4,2,10,80,0,0
105536,-71.4285714285714,4,2,5,80,0,0
105889,-58.8235294117647,4,2,3,80,0,0
106154,-58.8235294117647,4,2,5,80,0,0
106242,-76.9230769230769,4,2,19,80,0,0
106418,-76.9230769230769,4,2,5,80,0,0
106595,-66.6666666666667,4,2,1,80,0,0
106860,-66.6666666666667,4,2,5,80,0,0
106948,-66.6666666666667,4,2,19,80,0,0
107124,-76.9230769230769,4,2,5,80,0,0
107301,-62.5,4,2,5,80,0,0
107654,-71.4285714285714,4,2,19,80,0,0
107830,-71.4285714285714,4,2,5,80,0,0
108007,-62.5,4,2,1,80,0,0
108271,-62.5,4,2,5,80,0,0
108360,-71.4285714285714,4,2,19,80,0,0
108536,-71.4285714285714,4,2,5,80,0,0
109066,-58.8235294117647,4,2,19,80,0,0
109242,-58.8235294117647,4,2,5,80,0,0
109418,-58.8235294117647,4,2,1,80,0,0
109595,-62.5,4,2,1,80,0,0
109683,-62.5,4,2,5,80,0,0
109771,-62.5,4,2,19,80,0,0
109948,-62.5,4,2,5,80,0,0
110124,-71.4285714285714,4,2,5,80,0,0
110477,-71.4285714285714,4,2,19,80,0,0
110653,-71.4285714285714,4,2,5,80,0,0
110830,-58.8235294117647,4,2,1,80,0,0
111007,-62.5,4,2,1,80,0,0
111095,-62.5,4,2,5,80,0,0
111183,-62.5,4,2,19,80,0,0
111360,-62.5,4,2,5,80,0,0
111536,-58.8235294117647,4,2,5,80,0,0
111889,-66.6666666666667,4,2,19,80,0,0
112066,-66.6666666666667,4,2,5,80,0,0
112242,-66.6666666666667,4,2,1,80,0,0
112507,-66.6666666666667,4,2,5,80,0,0
112595,-66.6666666666667,4,2,19,80,0,0
112771,-66.6666666666667,4,2,5,80,0,0
112948,-62.5,4,2,5,80,0,0
113301,-71.4285714285714,4,2,19,80,0,0
113477,-71.4285714285714,4,2,5,80,0,0
113654,-58.8235294117647,4,2,1,80,0,0
113918,-58.8235294117647,4,2,5,80,0,0
114007,-58.8235294117647,4,2,19,80,0,0
114183,-58.8235294117647,4,2,5,80,0,0
114713,-58.8235294117647,4,2,8,80,0,0
114801,-58.8235294117647,4,2,5,80,0,0
115418,-58.8235294117647,4,2,8,80,0,0
115507,-58.8235294117647,4,2,5,80,0,0
115771,-76.9230769230769,4,2,5,80,0,0

[Colours]
Combo1 : 253,176,248
Combo2 : 115,203,236
Combo3 : 120,130,241
Combo4 : 185,134,247

[HitObjects]
248,163,2301,6,0,L|261:224,2,62.9999999999999,2|2|2,2:0|2:0|2:0,2:0:0:0:
207,292,2830,6,0,P|267:255|338:258,1,144,2|2,2:0|2:0,2:0:0:0:
338,259,3360,1,2,2:0:0:0:
301,94,3536,2,0,P|240:130|169:127,1,144,2|0,2:0|2:0,2:0:0:0:
29,27,4066,6,0,P|10:57|6:93,1,72,2|0,2:0|2:0,2:0:0:0:
113,189,4418,2,0,P|110:135|90:85,1,108,2|0,2:0|2:0,2:0:0:0:
90,85,4771,1,2,2:0:0:0:
166,35,4948,2,0,P|201:43|241:48,1,72,2|2,2:0|2:0,2:0:0:0:
247,175,5301,2,0,P|282:179|317:187,1,72,2|2,2:0|2:0,2:0:0:0:
479,87,5654,6,0,P|485:51|494:16,2,72,2|0|0,2:0|2:0|2:0,2:0:0:0:
395,144,6183,1,2,2:0:0:0:
437,232,6360,2,0,P|473:252|507:246,1,72,2|2,2:0|2:0,2:0:0:0:
389,138,6713,5,2,2:0:0:0:
502,248,6889,2,0,P|425:248|368:281,1,144,2|2,2:0|2:0,2:0:0:0:
287,222,7418,1,2,2:0:0:0:
220,284,7595,2,0,P|205:316|209:352,1,72,2|0,2:0|2:0,2:0:0:0:
83,170,7948,6,0,P|86:135|95:100,2,72,2|2|2,2:0|2:0|2:0,2:0:0:0:
124,249,8477,6,0,P|59:198|-10:207,1,144,2|2,2:0|2:0,2:0:0:0:
1,202,9007,1,2,2:0:0:0:
64,7,9183,2,0,P|128:57|198:48,1,144,2|0,2:0|2:0,2:0:0:0:
326,140,9713,6,0,P|347:175|350:210,1,72,2|0,2:0|2:0,2:0:0:0:
221,293,10066,2,0,P|237:236|267:195,1,108,2|0,2:0|2:0,2:0:0:0:
265,197,10418,1,2,2:0:0:0:
199,122,10595,2,0,P|185:88|186:51,1,72,2|2,2:0|2:0,2:0:0:0:
311,31,10948,2,0,P|325:65|323:101,1,72,2|2,2:0|2:0,2:0:0:0:
127,240,11301,5,6,1:2:0:0:
256,192,11477,12,2,12713,2:0:0:0:
478,186,13595,5,2,2:0:0:0:
450,286,13771,1,2,2:0:0:0:
478,186,13948,1,2,2:0:0:0:
479,377,14124,5,6,1:2:0:0:
485,367,14213,2,0,P|437:323|363:338,1,135,0|2,2:0|2:0,2:0:0:0:
295,315,14477,2,0,P|286:280|277:249,1,67.5,8|0,2:0|2:0,2:0:0:0:
495,29,14654,1,2,2:0:0:0:
495,29,14742,1,0,3:2:0:0:
495,29,14830,2,0,P|504:64|512:94,1,67.5,2|0,2:0|3:2,2:0:0:0:
428,83,15007,6,0,P|392:81|358:75,1,67.5,2|0,1:2|2:0,2:0:0:0:
218,190,15183,2,0,P|184:184|151:182,1,67.5,10|0,2:0|2:0,2:0:0:0:
0,67,15360,5,2,3:2:0:0:
0,67,15448,1,2,3:2:0:0:
0,67,15536,2,0,P|51:60|119:124,1,135,2|0,1:2|2:0,2:0:0:0:
191,113,15801,1,2,2:0:0:0:
67,176,15889,2,0,P|76:222|68:258,1,67.5,8|0,2:0|2:0,2:0:0:0:
64,323,16066,6,0,P|31:309|0:307,1,67.5,2|0,2:0|3:2,2:0:0:0:
180,265,16242,2,0,P|213:279|244:281,1,67.5,2|0,2:0|3:2,2:0:0:0:
231,202,16418,1,2,1:2:0:0:
231,202,16507,1,0,3:2:0:0:
187,354,16595,2,0,P|253:364|372:282,1,202.5,10|2,3:2|3:2,2:0:0:0:
436,342,16948,6,0,P|404:296|403:196,1,135,6|2,1:2|2:0,2:0:0:0:
396,218,17213,1,0,2:0:0:0:
463,169,17301,2,0,P|479:204|479:236,1,67.5,10|0,2:0|2:0,2:0:0:0:
275,132,17477,2,0,P|276:98|291:68,1,67.5,2|0,2:0|3:2,2:0:0:0:
286,52,17654,6,0,L|358:39,1,67.5,2|0,2:0|3:2,2:0:0:0:
425,71,17830,2,0,L|497:58,1,67.5,2|0,1:2|2:0,2:0:0:0:
351,145,18007,1,10,2:0:0:0:
5,42,18183,6,0,P|52:20|133:127,1,202.5,2|0,1:2|3:2,2:0:0:0:
194,165,18536,2,0,P|182:195|154:217,1,67.5,2|0,1:2|2:0,2:0:0:0:
23,152,18713,1,10,2:0:0:0:
90,350,18889,2,0,P|87:282|73:216,1,135,2|0,2:0|1:2,2:0:0:0:
340,227,19242,6,0,P|347:259|348:293,1,67.5,2|0,1:2|2:0,2:0:0:0:
341,309,19418,2,0,P|368:313|412:325,1,67.5,10|0,2:0|3:2,2:0:0:0:
434,163,19595,2,0,P|407:159|364:147,1,67.5,2|0,2:0|3:2,2:0:0:0:
291,160,19771,5,6,1:2:0:0:
278,173,19860,2,0,P|254:140|255:29,1,135,0|2,2:0|2:0,2:0:0:0:
181,12,20124,2,0,P|150:9|105:0,1,67.5,8|0,2:0|2:0,2:0:0:0:
0,215,20301,1,2,2:0:0:0:
0,215,20389,1,0,3:2:0:0:
0,215,20477,2,0,P|31:218|76:227,1,67.5,2|0,2:0|3:2,2:0:0:0:
145,251,20654,6,0,P|144:219|154:179,1,67.5,2|0,1:2|2:0,2:0:0:0:
57,71,20830,2,0,P|58:103|48:143,1,67.5,10|0,2:0|2:0,2:0:0:0:
99,318,21007,5,2,3:2:0:0:
99,318,21095,1,2,3:2:0:0:
99,318,21183,2,0,P|141:296|234:289,1,135,2|0,1:2|2:0,2:0:0:0:
247,363,21448,1,2,2:0:0:0:
305,310,21536,2,0,P|305:273|292:239,1,67.5,8|0,2:0|2:0,2:0:0:0:
321,163,21713,6,0,P|295:155|253:152,1,67.5,2|0,2:0|3:2,2:0:0:0:
435,34,21889,2,0,P|460:41|502:44,1,67.5,2|0,2:0|3:2,2:0:0:0:
370,87,22066,1,2,1:2:0:0:
370,87,22154,1,0,3:2:0:0:
508,144,22242,2,0,P|462:137|386:260,1,202.5,10|2,3:2|3:2,2:0:0:0:
436,297,22595,6,0,B|437:232|381:223|366:257|311:234|321:159,1,202.5,6|2,1:2|2:0,2:0:0:0:
397,147,22948,2,0,B|438:206|399:251|370:228|325:261|355:318,1,202.5,10|0,2:0|3:2,2:0:0:0:
246,270,23301,6,0,P|279:264|315:246,1,67.5,2|0,2:0|3:2,2:0:0:0:
499,276,23477,2,0,P|466:282|430:300,1,67.5,2|0,1:2|2:0,2:0:0:0:
412,372,23654,1,10,2:0:0:0:
235,183,23830,5,2,2:0:0:0:
235,183,23918,1,0,3:2:0:0:
235,183,24007,2,0,P|187:182|133:251,1,135,8|2,1:2|2:0,2:0:0:0:
57,259,24271,2,0,P|61:293|83:323,1,67.5,8|0,2:0|2:0,2:0:0:0:
236,384,24536,5,8,2:0:0:0:
262,334,24624,1,8,2:0:0:0:
300,293,24713,1,8,1:2:0:0:
348,263,24801,1,8,2:0:0:0:
401,247,24889,1,10,1:2:0:0:
458,244,24977,1,8,2:0:0:0:
512,256,25066,2,0,P|502:288|496:321,1,67.5,10|0,2:1|2:0,2:0:0:0:
51,185,25242,2,0,P|61:153|66:119,1,67.5,2|0,2:0|2:0,2:0:0:0:
12,49,25418,6,0,P|73:98|152:91,1,162,6|0,1:2|2:0,2:0:0:0:
152,90,25683,1,10,2:0:0:0:
218,152,25771,2,0,P|235:188|242:228,1,80.9999999999999,8|0,1:2|2:0,2:0:0:0:
151,217,25948,5,10,2:0:0:0:
151,217,26036,1,0,3:2:0:0:
328,222,26124,2,0,P|321:261|303:298,1,80.9999999999999,2|0,1:2|2:0,2:0:0:0:
61,231,26301,2,0,P|67:191|85:154,1,80.9999999999999,2|8,2:0|2:0,2:0:0:0:
253,22,26477,5,10,1:2:0:0:
313,66,26566,5,0,2:0:0:0:
384,44,26654,5,10,2:0:0:0:
445,90,26742,5,2,3:2:0:0:
511,54,26830,6,0,B|470:102|470:102|505:148|493:211,1,162,6|0,1:2|2:0,2:0:0:0:
495,195,27095,1,10,2:0:0:0:
423,246,27183,2,0,P|384:235|343:230,1,80.9999999999999,8|0,1:2|2:0,2:0:0:0:
46,356,27360,6,0,P|79:298|86:269,1,80.9999999999999,10|0,2:0|3:2,2:0:0:0:
126,134,27536,2,0,P|159:191|181:212,1,80.9999999999999,2|0,1:2|3:2,2:0:0:0:
271,306,27713,2,0,P|204:306|175:314,1,80.9999999999999,2|8,2:0|2:0,2:0:0:0:
1,171,27889,5,10,1:2:0:0:
29,100,27977,2,0,P|110:94|193:80,1,162,0|2,2:0|3:2,2:0:0:0:
295,180,28242,6,0,L|313:102,1,80.9999999999999,6|0,1:2|2:0,2:0:0:0:
343,0,28418,1,2,2:0:0:0:
277,111,28595,6,0,L|335:167,1,80.9999999999999,10|0,1:2|2:0,2:0:0:0:
408,243,28771,1,10,2:0:0:0:
345,128,28948,6,0,L|267:152,1,80.9999999999999,2|0,1:2|2:0,2:0:0:0:
169,174,29124,1,2,2:0:0:0:
173,161,29213,1,8,2:0:0:0:
176,150,29301,1,10,1:2:0:0:
483,310,29477,6,0,P|502:274|506:234,1,80.9999999999999,10|0,2:0|3:2,2:0:0:0:
306,252,29654,2,0,P|270:232|230:228,1,80.9999999999999,4|0,1:2|2:0,2:0:0:0:
408,243,29830,6,0,P|396:204|371:173,1,80.9999999999999,2|8,2:0|2:0,2:0:0:0:
239,328,30007,2,0,P|200:339|169:364,1,80.9999999999999,10|0,1:2|2:0,2:0:0:0:
15,229,30183,5,10,2:0:0:0:
54,198,30271,1,0,3:2:0:0:
66,147,30360,1,0,1:2:0:0:
98,191,30448,1,0,3:2:0:0:
143,211,30536,1,2,3:2:0:0:
270,136,30713,2,0,P|273:91|282:55,1,80.9999999999999,10|0,1:2|3:2,2:0:0:0:
199,1,30889,2,0,P|196:46|186:81,1,80.9999999999999,10|0,2:0|3:2,2:0:0:0:
250,380,31066,6,0,P|311:331|390:338,1,162,6|0,1:2|2:0,2:0:0:0:
390,339,31330,1,10,2:0:0:0:
432,255,31418,2,0,P|416:217|379:193,1,80.9999999999999,8|0,1:2|2:0,2:0:0:0:
349,276,31595,5,10,2:0:0:0:
349,276,31683,1,0,3:2:0:0:
476,384,31771,2,0,P|482:344|500:307,1,80.9999999999999,2|0,1:2|2:0,2:0:0:0:
323,106,31948,2,0,P|316:145|299:182,1,80.9999999999999,2|8,2:0|2:0,2:0:0:0:
61,352,32124,5,10,1:2:0:0:
93,284,32213,5,0,2:0:0:0:
37,225,32301,5,10,2:0:0:0:
65,149,32389,5,2,3:2:0:0:
7,99,32477,6,0,P|80:116|169:69,1,162,6|0,1:2|2:0,2:0:0:0:
157,81,32742,1,10,2:0:0:0:
230,144,32830,2,0,P|269:154|300:184,1,80.9999999999999,8|0,1:2|2:0,2:0:0:0:
175,261,33007,6,0,P|168:221|157:182,1,80.9999999999999,10|0,2:0|3:2,2:0:0:0:
321,14,33183,2,0,P|327:53|338:92,1,80.9999999999999,2|0,1:2|3:2,2:0:0:0:
396,295,33360,5,10,2:0:0:0:
396,295,33448,1,8,2:0:0:0:
462,251,33536,2,0,P|468:211|479:172,1,80.9999999999999,10|0,1:2|2:0,2:0:0:0:
247,65,33713,2,0,P|240:104|229:143,1,80.9999999999999,10|2,2:0|3:2,2:0:0:0:
12,382,33889,5,14,1:2:0:0:
0,334,33977,1,8,2:0:0:0:
30,282,34066,1,8,2:0:0:0:
84,266,34154,1,8,2:0:0:0:
138,285,34242,5,10,1:2:0:0:
177,322,34330,1,8,2:0:0:0:
230,333,34418,1,8,2:0:0:0:
283,316,34507,1,8,2:0:0:0:
324,272,34595,5,8,1:2:0:0:
338,213,34683,1,8,2:0:0:0:
325,154,34771,1,10,2:0:0:0:
282,109,34860,1,8,2:0:0:0:
223,91,34948,1,10,1:2:0:0:
160,100,35036,1,8,2:0:0:0:
114,143,35124,1,6,1:2:0:0:
256,192,35213,12,0,36007,2:0:0:0:
256,192,36183,6,0,P|260:167|267:134,2,45,2|2|2,2:0|2:0|2:0,2:0:0:0:
241,273,36713,1,2,2:0:0:0:
499,369,37066,6,0,P|463:358|427:354,1,62.9999999999999,2|0,2:0|2:0,2:0:0:0:
359,355,37418,2,0,P|344:303|342:228,1,126,2|2,2:0|2:0,2:0:0:0:
244,145,37948,6,0,P|203:152|174:152,1,62.9999999999999,2|0,2:0|2:0,2:0:0:0:
155,235,38301,2,0,P|123:236|92:242,1,62.9999999999999,2|0,2:0|2:0,2:0:0:0:
20,198,38654,2,0,P|12:135|0:73,1,126,2|0,2:0|2:0,2:0:0:0:
93,89,39183,2,0,P|96:125|100:151,1,62.9999999999999,2|0,2:0|2:0,2:0:0:0:
228,302,39536,5,2,2:0:0:0:
306,284,39713,1,2,2:0:0:0:
198,165,39889,5,2,2:0:0:0:
175,242,40066,1,2,2:0:0:0:
331,207,40242,5,2,2:0:0:0:
277,148,40418,1,2,2:0:0:0:
254,226,40595,5,2,2:0:0:0:
254,226,40771,2,0,P|269:277|283:348,1,126,2|2,2:0|2:0,2:0:0:0:
283,348,41301,1,2,2:0:0:0:
496,224,41654,5,0,2:0:0:0:
429,168,41830,1,2,2:0:0:0:
348,204,42007,1,2,2:0:0:0:
348,204,42095,1,0,2:0:0:0:
348,204,42183,1,2,2:0:0:0:
207,363,42360,5,6,2:0:0:0:
128,384,42536,1,0,2:0:0:0:
58,340,42713,1,0,2:0:0:0:
33,261,42889,1,2,2:0:0:0:
60,183,43066,1,2,2:0:0:0:
136,147,43242,1,0,2:0:0:0:
136,147,43330,1,0,2:0:0:0:
136,147,43418,1,2,2:0:0:0:
215,168,43595,1,0,2:0:0:0:
288,120,43771,6,0,P|292:85|297:57,1,62.9999999999999,2|0,2:0|2:0,2:0:0:0:
215,168,44124,2,0,P|211:203|205:230,1,62.9999999999999,2|0,2:0|2:0,2:0:0:0:
379,185,44477,6,0,P|372:154|369:122,1,62.9999999999999,2|0,2:0|2:0,2:0:0:0:
126,84,44830,2,0,P|132:114|135:146,1,62.9999999999999,2|0,2:0|2:0,2:0:0:0:
0,327,45183,6,0,P|153:292|281:379,1,315,6|2,2:0|2:0,2:0:0:0:
358,346,46242,2,0,P|366:310|370:284,1,62.9999999999999,0|2,2:0|2:0,2:0:0:0:
426,216,46595,6,0,P|482:220|517:190,2,94.4999999999999,2|2|2,2:0|2:0|2:0,2:0:0:0:
267,141,47301,1,10,2:3:0:0:
348,99,47477,5,8,2:3:0:0:
353,108,47536,5,8,2:3:0:0:
358,116,47595,5,8,2:3:0:0:
362,127,47654,6,0,P|358:146|353:171,1,45,6|4,2:3|2:3,2:0:0:0:
280,223,47830,2,0,P|275:245|271:267,1,45,4|4,2:3|2:3,2:0:0:0:
79,329,48007,6,0,P|74:306|69:284,1,45,6|0,1:2|2:0,2:0:0:0:
139,251,48183,2,0,P|144:273|148:296,1,45,0|0,2:0|2:0,2:0:0:0:
0,347,48360,2,0,P|89:358|176:379,1,180,10|0,2:0|2:0,2:0:0:0:
433,241,48889,6,0,P|437:262|442:285,1,45,2|0,2:0|2:0,2:0:0:0:
373,320,49066,2,0,P|368:297|363:275,1,45,10|0,2:0|2:0,2:0:0:0:
512,174,49242,2,0,P|445:165|379:150,1,135,2|0,2:0|2:0,2:0:0:0:
303,68,49595,6,0,P|308:90|313:113,1,45,2|0,2:0|2:0,2:0:0:0:
220,139,49771,2,0,P|225:118|229:96,1,45,10|0,2:0|2:0,2:0:0:0:
179,36,49948,2,0,P|166:55|152:73,1,45,2|0,2:0|2:0,2:0:0:0:
0,217,50124,6,0,P|4:239|9:261,1,45,2|0,2:0|2:0,2:0:0:0:
86,173,50301,2,0,P|82:195|80:217,1,45,2|0,2:0|2:0,2:0:0:0:
175,197,50477,2,0,P|165:217|156:237,1,45,10|0,2:0|2:0,2:0:0:0:
230,278,50654,2,0,P|212:292|196:307,1,45,2|0,2:0|2:0,2:0:0:0:
97,333,50830,6,0,L|94:308,2,22.5,2|0|0,2:0|2:0|2:0,2:0:0:0:
97,333,51007,1,2,2:0:0:0:
406,384,51183,6,0,L|403:359,2,22.5,10|0|0,2:0|2:0|2:0,2:0:0:0:
406,384,51360,1,2,2:0:0:0:
313,305,51536,5,2,2:0:0:0:
313,305,51624,1,2,2:0:0:0:
313,305,51713,2,0,P|317:326|322:349,1,45,2|0,2:0|2:0,2:0:0:0:
480,226,51889,2,0,P|483:248|488:270,1,45,10|0,2:0|2:0,2:0:0:0:
346,233,52066,2,0,P|342:210|337:188,1,45,2|0,2:0|2:0,2:0:0:0:
491,37,52242,6,0,P|476:79|473:124,1,90,2|0,2:0|2:0,2:0:0:0:
399,105,52507,2,0,P|402:60|416:17,1,90,2|0,2:0|2:0,2:0:0:0:
337,22,52771,2,0,P|329:43|328:65,1,45,2|0,2:0|2:0,2:0:0:0:
93,209,52948,6,0,P|85:187|84:165,1,45,2|0,2:0|2:0,2:0:0:0:
16,128,53124,2,0,P|9:149|8:172,1,45,2|0,2:0|2:0,2:0:0:0:
210,162,53301,6,0,P|195:146|184:127,1,45,10|0,2:0|2:0,2:0:0:0:
248,59,53477,2,0,P|250:81|257:102,1,45,2|0,2:0|2:0,2:0:0:0:
13,347,53654,6,0,P|65:312|125:296,1,126,6|2,1:2|2:0,2:0:0:0:
203,307,53918,1,0,2:0:0:0:
203,307,54007,2,0,P|202:282|191:251,1,45,8|0,2:0|2:0,2:0:0:0:
400,374,54183,2,0,P|411:351|433:327,1,45,2|0,2:0|2:0,2:0:0:0:
329,248,54360,5,0,2:0:0:0:
329,248,54448,1,0,2:0:0:0:
329,248,54536,2,0,P|335:227|339:205,1,45,2|0,2:0|2:0,2:0:0:0:
427,241,54713,2,0,P|424:218|419:197,1,45,10|0,2:0|2:0,2:0:0:0:
512,199,54889,2,0,P|500:180|486:163,1,45,2|0,2:0|2:0,2:0:0:0:
346,4,55066,6,0,P|360:25|370:50,1,54,6|0,1:2|2:0,2:0:0:0:
212,58,55242,2,0,P|213:84|209:111,1,54,2|0,2:0|2:0,2:0:0:0:
287,49,55418,2,0,P|293:74|295:101,1,54,10|0,2:0|2:0,2:0:0:0:
140,31,55595,2,0,P|135:56|125:81,1,54,0|0,2:0|2:0,2:0:0:0:
314,365,55771,6,0,P|310:334|301:305,1,60.75,2|0,2:0|2:0,2:0:0:0:
100,326,55948,2,0,P|114:299|123:270,1,60.75,2|0,2:0|2:0,2:0:0:0:
413,304,56124,2,0,P|401:275|385:250,1,60.75,10|0,2:0|2:0,2:0:0:0:
200,372,56301,2,0,P|205:342|206:311,1,60.75,2|0,2:0|2:0,2:0:0:0:
373,156,56477,5,6,1:2:0:0:
373,156,56566,1,0,2:0:0:0:
373,156,56654,2,0,P|352:164|330:168,1,45,2|0,2:0|2:0,2:0:0:0:
142,223,56830,5,8,1:2:0:0:
142,223,56918,1,0,2:0:0:0:
142,223,57007,2,0,P|162:215|184:211,1,45,2|0,2:0|2:0,2:0:0:0:
495,260,57183,5,2,1:2:0:0:
495,260,57271,1,0,2:0:0:0:
495,260,57360,2,0,P|458:242|420:229,1,80.9999999999999,2|0,2:0|2:0,2:0:0:0:
28,110,57536,5,10,1:2:0:0:
28,110,57624,1,0,2:0:0:0:
28,110,57713,2,0,P|64:127|102:140,1,80.9999999999999,2|0,2:0|2:0,2:0:0:0:
256,192,57889,5,4,1:2:0:0:
253,175,58595,6,0,P|261:150|264:130,1,45,8|0,2:0|2:0,2:0:0:0:
259,209,58713,2,0,P|250:233|248:254,1,45,0|0,1:2|2:0,2:0:0:0:
239,195,58830,6,0,P|214:186|194:184,1,45,8|0,2:0|2:0,2:0:0:0:
273,189,58948,2,0,P|297:197|318:200,1,45,0|0,1:2|2:0,2:0:0:0:
395,160,59066,5,2,2:3:0:0:
441,253,59183,5,2,2:3:0:0:
473,90,59301,6,0,L|485:27,1,60,6|0,1:2|1:2,2:0:0:0:
498,172,60007,6,0,P|503:198|527:225,1,45,10|0,1:2|2:0,2:0:0:0:
401,151,60360,6,0,B|389:82|314:62|314:62|294:10,1,180,2|2,2:0|2:3,2:0:0:0:
318,22,60948,6,0,L|264:344,1,324,6|0,1:2|2:0,2:0:0:0:
263,354,61418,1,8,2:0:0:0:
298,250,61654,5,2,1:2:0:0:
271,178,61771,2,0,P|242:152|199:148,1,72,2|0,1:2|2:0,2:0:0:0:
91,186,62007,5,0,1:2:0:0:
138,333,62124,2,0,P|270:216|409:182,1,300,6|0,1:2|2:0,2:0:0:0:
438,246,62477,6,0,P|459:264|496:271,1,60,2|0,2:3|1:2,2:0:0:0:
87,171,62830,6,0,P|63:158|20:156,1,45,8|0,1:2|2:0,2:0:0:0:
288,103,63066,6,0,B|300:88|300:88|301:13|301:13|278:79|278:79|286:108,1,192,2|4,2:0|1:3,2:0:0:0:
309,345,63771,6,0,B|297:282|297:282|169:181|175:46,1,324,6|0,1:2|2:0,2:0:0:0:
177,45,64242,1,8,2:0:0:0:
263,187,64477,5,0,1:2:0:0:
226,254,64595,2,0,P|185:285|139:286,1,72,2|0,1:2|2:0,2:0:0:0:
83,241,64830,5,0,1:2:0:0:
387,297,64948,2,0,L|448:310,1,60,6|0,1:2|1:2,2:0:0:0:
328,231,65654,6,0,P|305:217|287:170,1,45,10|0,1:2|2:0,2:0:0:0:
298,310,66007,6,0,P|310:342|320:388,1,72,2|0,2:1|2:0,2:0:0:0:
314,318,66242,2,0,B|323:326|323:326|272:324|212:361,1,102,2|0,2:1|2:0,2:0:0:0:
45,348,66595,6,0,B|127:190|274:149|274:149|289:102,1,360,6|0,1:2|2:0,2:0:0:0:
293,90,67066,1,8,2:0:0:0:
201,214,67301,5,2,1:2:0:0:
123,213,67418,2,0,P|89:199|65:166,1,72,2|0,1:2|2:0,2:0:0:0:
81,90,67654,5,0,1:2:0:0:
192,302,67771,2,0,P|202:323|207:363,1,60,6|0,1:2|1:2,2:0:0:0:
81,90,68477,6,0,B|85:75|119:70|53:148|100:171|288:152|281:69|166:61|76:69|-134:85|-20:46|66:-19|121:22|143:45|136:51|166:115|248:22|208:11,1,450,10|0,1:2|2:0,2:0:0:0:
200,7,68889,6,0,P|203:53|215:88,1,75,0|0,2:0|2:0,2:0:0:0:
258,363,69418,6,0,L|305:1,1,324,6|0,1:2|2:0,2:0:0:0:
307,110,69889,2,0,P|302:135|264:174,1,71.9999999999999,8|0,2:0|1:2,2:0:0:0:
358,302,70242,6,0,P|226:239|91:225,1,240,8|0,2:1|2:0,2:0:0:0:
274,170,70595,6,0,P|358:156|431:130,1,162,6|0,1:2|2:0,2:0:0:0:
430,130,71183,1,0,1:2:0:0:
512,168,71301,1,8,1:2:0:0:
194,278,71654,6,0,P|200:248|203:218,1,60,2|0,2:0|2:0,2:0:0:0:
294,191,71889,2,0,P|283:249|281:309,1,120,2|0,2:0|2:0,2:0:0:0:
61,333,72242,6,0,L|440:273,1,384,6|10,1:2|2:0,2:0:0:0:
441,273,72948,6,0,L|428:326,1,48,2|0,1:2|2:0,2:0:0:0:
368,192,73066,6,0,L|385:125,1,53.9999999999999,0|0,1:2|2:0,2:0:0:0:
381,139,73301,1,0,1:0:0:0:
500,71,73418,6,0,B|436:53|436:53|400:145|295:134|295:134|263:210,1,300,6|0,1:2|2:0,2:0:0:0:
351,216,73771,2,0,L|362:287,1,72,2|0,2:0|2:0,2:0:0:0:
362,287,74007,5,0,1:0:0:0:
428,380,74124,6,0,P|367:327|262:344,1,180,8|0,1:2|2:0,2:0:0:0:
200,299,74477,2,0,P|184:273|147:249,1,48,2|0,2:0|2:0,2:0:0:0:
200,299,74713,2,0,P|205:269|231:234,1,48,2|0,2:0|2:0,2:0:0:0:
427,75,75066,6,0,B|514:141|485:298|321:314|233:186|326:114|374:114|393:167|384:185,1,408,6|8,1:2|2:0,2:0:0:0:
259,384,75771,5,0,1:2:0:0:
259,384,75889,2,0,P|171:344|104:335,1,144,2|0,1:2|1:2,2:0:0:0:
334,215,76242,6,0,L|445:193,1,108,6|0,1:2|2:0,2:0:0:0:
439,194,76830,5,0,1:2:0:0:
461,115,76948,1,8,1:2:0:0:
252,20,77301,5,2,2:0:0:0:
252,20,77536,1,2,2:0:0:0:
480,312,77889,6,0,B|460:254|460:254|361:254|311:171,1,240,6|0,1:2|2:0,2:0:0:0:
311,171,78242,2,0,L|324:108,1,48,0|0,2:0|2:0,2:0:0:0:
340,46,78360,1,8,2:0:0:0:
197,160,78595,6,0,L|117:177,1,48,2|0,1:2|2:0,2:0:0:0:
150,169,78713,2,0,L|165:87,1,71.9999999999999,0|0,1:2|1:2,2:0:0:0:
26,261,79066,6,0,P|76:273|117:313,1,108,6|0,1:2|2:0,2:0:0:0:
115,311,79654,5,0,1:2:0:0:
203,292,79771,1,8,1:2:0:0:
327,61,80124,6,0,L|339:1,2,60,2|0|0,2:0|2:0|2:0,2:0:0:0:
432,176,80360,5,10,2:0:0:0:
499,127,80477,2,0,B|470:101|451:136|451:136|432:172|403:146|403:146|374:120|355:155|355:155|336:190|307:164|307:164|278:138|259:173|259:173|240:208|211:182|211:182|181:155|162:190|162:190|143:225|114:199|114:199|85:173|66:208|66:208|47:243|18:217,1,600,6|0,1:2|2:0,2:0:0:0:
18,217,81183,6,0,B|33:243|33:243|9:281|9:281|3:237|3:237|29:219,1,150,2|0,2:1|2:0,2:0:0:0:
256,0,81889,6,0,B|281:54|230:40|256:120|319:106|304:19|267:58|256:0,1,180,2|0,2:0|2:0,2:0:0:0:
17,296,83301,6,0,P|12:273|-2:255,1,45,10|2,2:0|2:0,2:0:0:0:
115,185,83654,1,10,2:0:0:0:
116,215,83830,1,2,2:0:0:0:
109,244,84007,1,10,2:0:0:0:
187,327,84183,1,2,2:0:0:0:
187,327,84271,1,2,2:0:0:0:
187,327,84360,2,0,P|204:311|213:290,1,45,10|2,2:0|2:0,2:0:0:0:
257,198,84713,5,10,2:0:0:0:
257,198,84801,1,0,2:0:0:0:
257,198,84889,1,2,2:0:0:0:
329,121,85066,1,10,2:0:0:0:
319,91,85242,1,2,2:0:0:0:
322,62,85418,1,10,2:0:0:0:
459,105,85595,1,2,2:0:0:0:
437,122,85771,1,10,2:0:0:0:
425,148,85948,1,2,2:0:0:0:
425,246,86124,6,0,P|451:252|473:267,1,53.9999999999999,10|0,2:0|2:0,2:0:0:0:
497,349,86477,1,8,2:0:0:0:
491,358,86654,1,0,2:0:0:0:
346,261,86830,6,0,P|338:235|340:208,1,53.9999999999999,10|0,2:0|2:0,2:0:0:0:
408,166,87183,1,8,2:0:0:0:
419,166,87360,1,0,2:0:0:0:
407,323,87536,6,0,P|388:342|363:353,1,53.9999999999999,10|0,2:0|2:0,2:0:0:0:
285,341,87889,1,8,2:0:0:0:
281,332,88066,1,0,2:0:0:0:
425,246,88242,1,10,2:0:0:0:
185,137,88595,5,8,2:0:0:0:
420,236,88948,5,10,1:2:0:0:
478,171,89124,1,2,3:2:0:0:
459,315,89301,2,0,L|468:352,1,36,10|0,1:2|3:2,2:0:0:0:
329,232,89477,5,2,3:2:0:0:
329,232,89566,1,0,3:2:0:0:
329,232,89654,2,0,L|320:197,1,36,10|0,1:2|3:2,2:0:0:0:
253,135,89830,1,2,3:2:0:0:
253,135,89918,1,2,3:2:0:0:
253,135,90007,2,0,L|198:155,1,36,10|0,1:2|3:2,2:0:0:0:
67,197,90183,2,0,L|101:185,1,36,2|0,3:2|3:2,2:0:0:0:
186,237,90360,5,10,1:2:0:0:
186,237,90448,1,2,3:2:0:0:
186,237,90536,2,0,L|177:282,1,45,2|0,3:2|3:2,2:0:0:0:
127,102,90713,1,10,1:2:0:0:
127,102,90801,1,0,3:2:0:0:
127,102,90889,2,0,L|136:57,1,45,2|0,3:2|3:2,2:0:0:0:
80,282,91066,5,10,1:2:0:0:
80,282,91154,1,0,3:2:0:0:
80,282,91242,2,0,L|70:326,1,45,2|0,3:2|3:2,2:0:0:0:
237,62,91418,1,10,1:2:0:0:
237,62,91507,1,0,3:2:0:0:
237,62,91595,2,0,L|246:17,1,45,2|0,3:2|3:2,2:0:0:0:
254,347,91771,5,10,1:2:0:0:
271,358,91860,1,0,3:2:0:0:
291,362,91948,1,0,3:2:0:0:
308,355,92036,1,0,3:2:0:0:
334,335,92124,1,8,1:2:0:0:
357,286,92213,1,0,3:2:0:0:
332,239,92301,1,0,3:2:0:0:
282,225,92389,1,0,3:2:0:0:
235,247,92477,5,10,1:2:0:0:
203,195,92566,1,0,3:2:0:0:
224,135,92654,1,0,3:2:0:0:
285,114,92742,1,0,3:2:0:0:
341,143,92830,5,8,1:2:0:0:
365,129,92918,5,0,3:2:0:0:
393,134,93007,5,0,3:2:0:0:
406,123,93095,5,0,3:2:0:0:
423,129,93183,6,0,L|483:115,1,33.75,2|0,1:2|2:0,2:0:0:0:
66,197,93889,6,0,L|32:204,1,33.75,2|0,2:0|2:0,2:0:0:0:
512,247,94595,6,0,B|480:235|480:235|474:226|474:226|430:210,1,80.9999999999999,6|0,1:2|2:0,2:0:0:0:
386,151,94771,2,0,B|377:113|377:113|405:144,1,80.9999999999999,2|0,2:0|2:0,2:0:0:0:
223,384,94948,6,0,P|245:330|331:321,1,141.75,10|0,1:2|2:0,2:0:0:0:
398,360,95124,2,0,B|377:369|377:369|396:344|400:311,1,72,2|0,2:0|3:2,2:0:0:0:
440,213,95301,6,0,P|385:234|349:217,1,80.9999999999999,2|2,1:2|3:2,2:0:0:0:
65,97,95477,5,2,2:0:0:0:
65,97,95566,1,0,2:0:0:0:
65,97,95654,2,0,B|126:116|77:122|157:147,1,90,10|0,1:2|2:0,2:0:0:0:
283,252,95830,5,2,3:2:0:0:
283,252,95918,1,2,3:2:0:0:
270,170,96007,2,0,B|221:187|221:187|202:214|202:214|153:232,1,128.25,2|0,1:2|2:0,2:0:0:0:
100,284,96183,2,0,B|59:252|59:252|81:251,1,72,2|0,2:0|2:0,2:0:0:0:
283,252,96360,6,0,P|299:296|282:333,1,80.9999999999999,10|0,1:2|2:0,2:0:0:0:
196,383,96536,2,0,B|181:347|181:347|202:304,1,80.9999999999999,2|0,2:0|3:2,2:0:0:0:
364,190,96713,6,0,P|402:222|451:226,1,80.9999999999999,2|0,1:2|3:2,2:0:0:0:
507,137,96889,5,2,2:0:0:0:
511,124,96977,1,0,2:0:0:0:
508,111,97066,2,0,B|456:123|486:135|424:149,1,80.9999999999999,10|0,1:2|2:0,2:0:0:0:
225,66,97242,2,0,B|176:44|176:44|210:41,1,80.9999999999999,2|0,3:2|3:2,2:0:0:0:
321,47,97418,6,0,P|272:103|282:171,1,135,2|0,1:2|2:0,2:0:0:0:
285,167,97595,2,0,P|249:200|226:202,1,72,2|0,2:0|2:0,2:0:0:0:
0,304,97771,6,0,P|17:347|27:397,1,80.9999999999999,10|2,1:2|2:0,2:0:0:0:
117,355,97948,1,2,2:0:0:0:
117,355,98036,1,2,3:2:0:0:
117,355,98124,2,0,P|100:312|90:262,1,80.9999999999999,2|0,1:2|3:2,2:0:0:0:
29,157,98301,6,0,P|62:182|104:192,1,80.9999999999999,2|0,2:0|2:0,2:0:0:0:
204,354,98477,2,0,P|248:324|290:319,1,85.5,10|0,1:2|2:0,2:0:0:0:
317,214,98654,2,0,P|350:239|392:249,1,85.5,2|2,3:2|3:2,2:0:0:0:
471,197,98830,5,2,1:2:0:0:
464,185,98918,1,0,2:0:0:0:
454,195,99007,1,0,2:0:0:0:
462,210,99095,1,0,2:0:0:0:
497,290,99183,5,10,1:2:0:0:
489,341,99271,1,0,2:0:0:0:
442,364,99360,1,0,2:0:0:0:
392,352,99448,1,0,3:2:0:0:
310,384,99536,5,2,1:2:0:0:
244,330,99624,2,0,P|249:286|267:241,1,85.5,8|8,2:0|2:0,2:0:0:0:
65,95,99801,5,8,2:0:0:0:
0,141,99889,2,0,P|5:185|23:230,1,85.5,10|8,1:2|2:0,2:0:0:0:
174,368,100066,5,8,2:0:0:0:
170,375,100154,1,8,2:0:0:0:
166,381,100242,2,0,P|116:332|52:345,1,121.5,2|0,1:2|2:0,2:0:0:0:
0,364,100418,2,0,B|-16:383|-16:383|13:370,1,45,2|0,2:0|2:0,2:0:0:0:
263,247,100595,6,0,P|219:236|198:203,1,72,10|0,1:2|2:0,2:0:0:0:
97,163,100771,2,0,P|110:201|114:241,1,80.9999999999999,2|0,2:0|3:2,2:0:0:0:
329,370,100948,6,0,P|334:314|353:260,1,98.9999999999999,2|2,1:2|3:2,2:0:0:0:
483,175,101124,1,2,2:0:0:0:
489,185,101213,1,0,2:0:0:0:
484,196,101301,2,0,P|447:226|413:224,1,80.9999999999999,10|0,1:2|2:0,2:0:0:0:
195,71,101477,5,2,3:2:0:0:
209,63,101566,1,2,3:2:0:0:
230,67,101654,2,0,P|264:98|268:132,1,80.9999999999999,2|0,1:2|2:0,2:0:0:0:
202,235,101830,2,0,B|195:235|185:253|185:253|186:231|203:215,1,67.5,2|0,2:0|2:0,2:0:0:0:
392,172,102007,6,0,P|360:206|326:210,1,67.5000025749208,10|0,1:2|2:0,2:0:0:0:
136,149,102183,2,0,B|135:142|117:132|117:132|139:133|155:150,1,67.5,2|0,2:0|3:2,2:0:0:0:
90,384,102360,6,0,P|56:345|85:235,1,155.25,2|0,1:2|2:0,2:0:0:0:
176,280,102536,2,0,P|170:255|163:229,1,51.75,2|0,2:0|2:0,2:0:0:0:
190,285,102624,2,0,P|197:260|201:235,1,51.75,2|0,2:0|2:0,2:0:0:0:
202,296,102713,6,0,B|251:293|290:333|254:336|290:371|355:372,1,162,10|2,1:2|3:2,2:0:0:0:
412,332,102977,1,0,3:2:0:0:
338,371,103066,2,0,P|329:333|342:296,1,72,2|0,1:2|2:0,2:0:0:0:
479,209,103242,2,0,P|450:235|412:243,1,72,2|0,2:0|2:0,2:0:0:0:
343,161,103418,6,0,P|297:148|265:121,1,80.9999999999999,10|2,1:2|2:0,2:0:0:0:
22,309,103595,1,2,2:0:0:0:
13,300,103683,1,2,3:2:0:0:
11,285,103771,2,0,P|49:242|119:249,1,121.5,2|0,1:2|2:0,2:0:0:0:
184,277,103948,6,0,P|231:253|272:245,1,80.9999999999999,2|0,2:0|2:0,2:0:0:0:
324,285,104124,2,0,P|371:309|412:317,1,80.9999999999999,10|0,1:2|2:0,2:0:0:0:
494,157,104301,6,0,L|515:115,1,40.5,2|0,3:2|2:0,2:0:0:0:
483,149,104389,2,0,L|492:102,1,40.5,2|0,3:2|2:0,2:0:0:0:
473,148,104477,2,0,B|445:136|445:136|422:164|383:170,1,98.9999999999999,10|0,1:2|2:0,2:0:0:0:
190,284,104654,5,0,2:0:0:0:
190,284,104742,1,8,2:0:0:0:
190,284,104830,2,0,P|215:343|224:384,1,98.9999999999999,10|0,1:2|2:0,2:0:0:0:
317,337,105007,2,0,P|292:278|283:237,1,98.9999999999999,0|0,2:0|3:2,2:0:0:0:
39,8,105183,5,10,1:2:0:0:
76,71,105271,5,8,3:2:0:0:
28,127,105360,5,8,2:0:0:0:
66,193,105448,5,8,2:0:0:0:
0,233,105536,6,0,P|109:203|210:180,1,189,10|0,1:2|2:0,2:0:0:0:
256,16,105889,6,0,B|218:62|255:101|255:101|288:70|264:45,1,153,6|2,1:2|2:0,2:0:0:0:
118,180,106154,1,8,2:0:0:0:
126,178,106242,2,0,P|164:180|195:191,1,58.5,10|0,1:2|2:0,2:0:0:0:
318,187,106418,2,0,P|346:179|375:179,1,58.5,10|0,2:0|2:0,2:0:0:0:
247,324,106595,6,0,B|240:290|261:294|247:244,1,67.5,10|2,1:2|2:0,2:0:0:0:
292,98,106771,1,2,2:0:0:0:
217,99,106860,1,8,2:0:0:0:
253,137,106948,1,10,1:2:0:0:
153,38,107124,2,0,P|124:50|94:60,1,58.5,10|2,2:0|2:0,2:0:0:0:
0,161,107301,6,0,B|44:212|106:192|106:192|129:153,1,144,2|2,1:2|2:0,2:0:0:0:
96,272,107566,1,8,2:0:0:0:
63,286,107654,2,0,P|16:278|0:267,1,63,10|0,1:2|2:0,2:0:0:0:
147,322,107830,6,0,P|142:357|138:389,1,63,10|0,2:0|2:0,2:0:0:0:
234,303,108007,6,0,P|307:328|387:311,1,144,10|2,1:2|2:0,2:0:0:0:
448,242,108271,1,8,2:0:0:0:
383,197,108360,2,0,P|333:206|319:222,1,63,10|0,1:2|2:0,2:0:0:0:
129,197,108536,2,0,P|179:206|193:222,1,63,10|0,2:0|2:0,2:0:0:0:
256,136,108713,6,0,B|238:62|286:92|257:2,1,126,2|2,1:2|2:0,2:0:0:0:
253,2,108977,1,8,2:0:0:0:
254,10,109066,2,0,B|229:35|242:59|242:59|263:48|261:28,1,76.5,10|2,1:2|2:0,2:0:0:0:
415,113,109242,1,10,2:0:0:0:
465,94,109330,1,2,2:0:0:0:
414,80,109418,1,10,1:2:0:0:
222,211,109595,6,0,B|257:223|257:223|293:211,1,72,2|8,2:0|2:0,2:0:0:0:
458,281,109771,2,0,P|422:282|386:290,1,72,10|0,1:2|2:0,2:0:0:0:
256,360,109948,5,10,2:0:0:0:
256,368,110036,1,2,2:0:0:0:
179,339,110124,2,0,B|120:317|120:317|183:300,1,126,2|0,1:2|2:0,2:0:0:0:
256,276,110389,1,8,2:0:0:0:
333,339,110477,2,0,B|392:317|392:317|329:300,1,126,10|8,1:2|2:0,2:0:0:0:
256,171,110742,5,0,2:0:0:0:
256,182,110830,2,0,L|256:79,1,76.5,10|0,1:2|2:0,2:0:0:0:
411,166,111007,6,0,P|376:173|346:192,1,72,0|8,2:0|2:0,2:0:0:0:
101,165,111183,2,0,P|136:172|167:191,1,72,10|0,1:2|2:0,2:0:0:0:
256,269,111360,5,8,2:0:0:0:
256,276,111448,1,0,2:0:0:0:
241,311,111536,2,0,B|216:339|250:369|250:369|255:378|255:378|260:369|260:369|297:341|266:301,1,153,6|2,1:2|2:0,2:0:0:0:
376,284,111801,5,8,2:0:0:0:
401,315,111889,2,0,P|431:330|465:331,1,67.5,10|0,1:2|2:0,2:0:0:0:
468,175,112066,2,0,P|434:176|404:191,1,67.5,10|0,2:0|2:0,2:0:0:0:
252,142,112242,6,0,B|245:108|266:112|252:62,1,67.5,10|2,1:2|2:0,2:0:0:0:
412,9,112418,1,2,2:0:0:0:
416,87,112507,1,8,2:0:0:0:
349,52,112595,1,10,1:2:0:0:
165,51,112771,5,10,2:0:0:0:
164,55,112860,1,2,2:0:0:0:
163,60,112948,2,0,B|87:58|105:106|25:98,1,144,2|2,1:2|2:0,2:0:0:0:
0,29,113213,1,8,2:0:0:0:
26,11,113301,2,0,P|59:15|94:30,1,63,10|0,1:2|2:0,2:0:0:0:
213,152,113477,2,0,P|184:163|153:167,1,63,10|0,2:0|2:0,2:0:0:0:
5,274,113654,6,0,B|-6:239|-6:239|9:202,1,76.5,10|0,1:2|2:0,2:0:0:0:
175,314,113830,1,2,2:0:0:0:
59,351,113918,1,8,2:0:0:0:
99,281,114007,1,10,1:2:0:0:
258,370,114183,6,0,B|254:342|254:342|253:329|262:318|258:302|258:302|255:282,1,76.5,10|0,2:0|2:0,2:0:0:0:
342,215,114360,5,10,1:2:0:0:
345,192,114448,1,8,2:0:0:0:
360,218,114536,1,10,2:0:0:0:
370,197,114624,1,8,2:0:0:0:
379,226,114713,5,10,1:2:0:0:
431,219,114801,1,10,2:0:0:0:
460,177,114889,1,10,2:0:0:0:
455,120,114977,1,10,2:0:0:0:
428,86,115066,5,10,1:2:0:0:
370,97,115154,1,8,2:0:0:0:
310,112,115242,1,10,2:0:0:0:
252,128,115330,1,8,2:0:0:0:
230,216,115418,5,10,1:2:0:0:
153,198,115507,1,8,2:0:0:0:
78,178,115595,1,10,2:0:0:0:
1,163,115683,1,10,2:0:0:0:
49,88,115771,6,0,B|39:66|39:66|27:54|27:54|44:58|44:58|75:56|92:81|92:81|87:46|118:32|118:32|125:18|125:18|127:34|127:34|138:64|119:87|119:87|151:72|174:96|174:96|189:99|189:99|175:107|175:107|150:126|122:115|122:115|147:141|130:171|130:171|133:186|133:186|121:174|121:174|95:157|97:126|97:126|79:158|46:151|46:151|31:158|31:158|40:144|40:144|50:109|86:104,1,702,6|0,1:2|2:0,2:0:0:0:
