osu file format v14

[General]
AudioFilename: audio.ogg
AudioLeadIn: 0
PreviewTime: 79741
Countdown: 0
SampleSet: Normal
StackLeniency: 0.7
Mode: 1
LetterboxInBreaks: 0
WidescreenStoryboard: 1

[Editor]
Bookmarks: 45859,57153,68447,113624
DistanceSpacing: 3.5
BeatDivisor: 4
GridSize: 32
TimelineZoom: 1.22

[Metadata]
Title:Theme_113
TitleUnicode:Theme_113
Artist:Nor
ArtistUnicode:Nor
Creator:Maneh
Version:Ron's Kantan
Source:ブルーアーカイブ -Blue Archive-
Tags:ブルアカ ブル アカ blueaka buru aka blue archive yostar electronic nat nexon games videogame video game vgm music instrumental カルバノグの兎 編 生徒紹介PV theme 113 naverlyn [r] ron
BeatmapID:3599308
BeatmapSetID:1737510

[Difficulty]
HPDrainRate:8
CircleSize:5
OverallDifficulty:3
ApproachRate:5
SliderMultiplier:1.4
SliderTickRate:1

[Events]
//Background and Video events
0,0,"BG_CS_Rabbit_09.jpg",0,40
//Break Periods
//Storyboard Layer 0 (Background)
//Storyboard Layer 1 (Fail)
//Storyboard Layer 2 (Pass)
//Storyboard Layer 3 (Foreground)
//Storyboard Layer 4 (Overlay)
//Storyboard Sound Samples

[TimingPoints]
685,352.941176470588,4,1,0,65,1,0
11890,-100,4,1,0,85,0,0
34479,-100,4,1,0,75,0,0
45773,-100,4,1,0,65,0,0
68361,-100,4,1,0,75,0,0
74008,-100,4,1,0,80,0,0
79743,-100,4,1,0,90,0,1
102332,-100,4,1,0,80,0,0
122008,-100,4,1,0,65,0,0

[HitObjects]
307,205,685,5,0,0:0:0:0:
273,226,1037,1,8,0:0:0:0:
307,205,1390,1,8,0:0:0:0:
307,205,1920,1,8,0:0:0:0:
273,226,3508,1,0,0:0:0:0:
29,141,3861,1,0,0:0:0:0:
273,226,4214,1,8,0:0:0:0:
273,226,4743,1,8,0:0:0:0:
273,226,6332,1,0,0:0:0:0:
273,226,6684,1,0,0:0:0:0:
273,226,7037,1,8,0:0:0:0:
273,226,7567,1,8,0:0:0:0:
278,227,9155,1,0,0:0:0:0:
278,227,9861,1,8,0:0:0:0:
278,227,10390,1,8,0:0:0:0:
210,193,11979,1,4,0:0:0:0:
258,204,12684,1,8,0:0:0:0:
207,249,13390,1,8,0:0:0:0:
207,249,13743,1,0,0:0:0:0:
220,227,14096,1,8,0:0:0:0:
210,193,14802,1,0,0:0:0:0:
223,191,15508,1,8,0:0:0:0:
207,249,16214,1,0,0:0:0:0:
313,185,17626,1,0,0:0:0:0:
221,207,17979,1,8,0:0:0:0:
219,194,18332,1,0,0:0:0:0:
220,194,19037,1,8,0:0:0:0:
220,194,19390,1,0,0:0:0:0:
220,194,19743,1,8,0:0:0:0:
243,219,20449,1,0,0:0:0:0:
117,178,21155,1,8,0:0:0:0:
134,190,21861,1,8,0:0:0:0:
210,193,23273,1,4,0:0:0:0:
258,204,23979,1,8,0:0:0:0:
207,249,24684,1,8,0:0:0:0:
207,249,25037,1,0,0:0:0:0:
220,227,25390,1,8,0:0:0:0:
210,193,26096,1,0,0:0:0:0:
223,191,26802,1,8,0:0:0:0:
207,249,27508,1,0,0:0:0:0:
313,185,28920,1,0,0:0:0:0:
221,207,29273,1,8,0:0:0:0:
219,194,29626,1,0,0:0:0:0:
220,194,30332,1,8,0:0:0:0:
220,194,30684,1,0,0:0:0:0:
220,194,31037,1,8,0:0:0:0:
243,219,31743,1,0,0:0:0:0:
117,178,32449,1,8,0:0:0:0:
134,190,33155,1,8,0:0:0:0:
311,234,34567,1,4,0:0:0:0:
311,234,35273,1,8,0:0:0:0:
229,227,35979,1,0,0:0:0:0:
204,186,36332,1,8,0:0:0:0:
311,234,37390,1,0,0:0:0:0:
311,234,38096,1,8,0:0:0:0:
229,227,38802,1,8,0:0:0:0:
204,186,39155,1,8,0:0:0:0:
204,186,39861,1,8,0:0:0:0:
311,234,40214,1,0,0:0:0:0:
311,234,40920,1,8,0:0:0:0:
229,227,41626,1,0,0:0:0:0:
204,186,41979,1,8,0:0:0:0:
311,234,43037,1,0,0:0:0:0:
311,234,43390,1,0,0:0:0:0:
311,234,43743,1,8,0:0:0:0:
229,227,44449,1,0,0:0:0:0:
311,234,45155,1,8,0:0:0:0:
385,204,45861,1,0,0:0:0:0:
311,234,46214,1,8,0:0:0:0:
385,204,46567,1,8,0:0:0:0:
385,204,47096,1,0,0:0:0:0:
224,203,48684,1,8,0:0:0:0:
224,207,49567,1,0,0:0:0:0:
224,207,49920,1,0,0:0:0:0:
242,103,51508,1,0,0:0:0:0:
276,147,52214,1,8,0:0:0:0:
276,147,52743,1,8,0:0:0:0:
264,134,53096,1,8,0:0:0:0:
311,234,53449,1,8,0:0:0:0:
220,165,54332,1,0,0:0:0:0:
110,239,55037,1,8,0:0:0:0:
157,219,55567,1,8,0:0:0:0:
385,204,57155,1,0,0:0:0:0:
134,190,57861,1,8,0:0:0:0:
385,204,58390,1,8,0:0:0:0:
224,203,59979,1,8,0:0:0:0:
224,207,60684,1,0,0:0:0:0:
224,207,61214,1,0,0:0:0:0:
242,103,62802,1,0,0:0:0:0:
134,190,63508,1,8,0:0:0:0:
276,147,64037,1,8,0:0:0:0:
220,165,65626,1,8,0:0:0:0:
304,219,66332,1,0,0:0:0:0:
304,219,66861,1,0,0:0:0:0:
309,259,68449,1,0,0:0:0:0:
309,259,68802,1,0,0:0:0:0:
315,259,69155,1,0,0:0:0:0:
309,259,69861,1,8,0:0:0:0:
309,259,70214,1,8,0:0:0:0:
315,259,70567,1,8,0:0:0:0:
157,190,71273,1,0,0:0:0:0:
263,144,71979,1,0,0:0:0:0:
263,144,72684,1,8,0:0:0:0:
280,130,74096,1,0,0:0:0:0:
276,214,74449,1,8,0:0:0:0:
276,214,74802,1,0,0:0:0:0:
276,214,75508,1,8,0:0:0:0:
276,214,75861,1,0,0:0:0:0:
276,214,76214,1,8,0:0:0:0:
276,214,76920,1,8,0:0:0:0:
276,214,77626,1,0,0:0:0:0:
263,144,78332,1,8,0:0:0:0:
210,193,79743,1,4,0:0:0:0:
258,204,80449,1,8,0:0:0:0:
207,249,81155,1,0,0:0:0:0:
207,249,81508,1,8,0:0:0:0:
220,227,81861,1,8,0:0:0:0:
210,193,82567,1,8,0:0:0:0:
207,249,82920,1,0,0:0:0:0:
223,191,83273,1,8,0:0:0:0:
207,249,83979,1,0,0:0:0:0:
313,185,85390,1,8,0:0:0:0:
221,207,85743,1,8,0:0:0:0:
219,194,86096,1,0,0:0:0:0:
220,194,86802,1,0,0:0:0:0:
220,194,87155,1,0,0:0:0:0:
220,194,87508,1,8,0:0:0:0:
243,219,88214,1,0,0:0:0:0:
117,178,88920,1,8,0:0:0:0:
134,190,89626,1,8,0:0:0:0:
134,190,89979,1,8,0:0:0:0:
210,193,91037,1,4,0:0:0:0:
258,204,91743,1,8,0:0:0:0:
207,249,92449,1,0,0:0:0:0:
207,249,92802,1,0,0:0:0:0:
220,227,93155,1,8,0:0:0:0:
210,193,93861,1,8,0:0:0:0:
207,249,94214,1,8,0:0:0:0:
223,191,94567,1,8,0:0:0:0:
207,249,95273,1,0,0:0:0:0:
313,185,96684,1,0,0:0:0:0:
221,207,97037,1,8,0:0:0:0:
219,194,97390,1,0,0:0:0:0:
220,194,98096,1,8,0:0:0:0:
220,194,98449,1,0,0:0:0:0:
220,194,98802,1,8,0:0:0:0:
243,219,99508,1,0,0:0:0:0:
117,178,100214,1,8,0:0:0:0:
134,190,100920,1,8,0:0:0:0:
134,190,101273,1,8,0:0:0:0:
262,210,102332,1,4,0:0:0:0:
262,210,103037,1,8,0:0:0:0:
262,210,103743,1,8,0:0:0:0:
262,210,104096,1,8,0:0:0:0:
250,212,104449,1,0,0:0:0:0:
262,210,105155,1,0,0:0:0:0:
250,212,105508,1,0,0:0:0:0:
262,210,105861,1,8,0:0:0:0:
262,210,106567,1,0,0:0:0:0:
262,210,107979,1,4,0:0:0:0:
262,210,108684,1,8,0:0:0:0:
262,210,109390,1,8,0:0:0:0:
262,210,109743,1,0,0:0:0:0:
262,210,110096,1,8,0:0:0:0:
262,210,110802,1,8,0:0:0:0:
262,210,111155,1,8,0:0:0:0:
262,210,111508,1,0,0:0:0:0:
262,210,112214,1,8,0:0:0:0:
307,205,113626,1,4,0:0:0:0:
307,205,114332,1,8,0:0:0:0:
307,205,114861,1,8,0:0:0:0:
273,226,115214,1,8,0:0:0:0:
273,226,115567,1,8,0:0:0:0:
273,226,116449,1,0,0:0:0:0:
273,226,117155,1,8,0:0:0:0:
273,226,117861,1,0,0:0:0:0:
273,226,118214,1,8,0:0:0:0:
273,226,119273,1,0,0:0:0:0:
273,226,119979,1,8,0:0:0:0:
273,226,120508,1,8,0:0:0:0:
273,226,120861,1,8,0:0:0:0:
273,226,121214,1,8,0:0:0:0:
278,227,122096,1,0,0:0:0:0:
278,227,122802,1,8,0:0:0:0:
278,227,123332,1,8,0:0:0:0:
