osu file format v14

[General]
AudioFilename: audio.ogg
AudioLeadIn: 0
PreviewTime: 79741
Countdown: 0
SampleSet: Normal
StackLeniency: 0.7
Mode: 1
LetterboxInBreaks: 0
WidescreenStoryboard: 1

[Editor]
Bookmarks: 39682
DistanceSpacing: 3.5
BeatDivisor: 4
GridSize: 32
TimelineZoom: 3.099999

[Metadata]
Title:Theme_113
TitleUnicode:Theme_113
Artist:Nor
ArtistUnicode:Nor
Creator:Maneh
Version:Naver's Muzukashii
Source:ブルーアーカイブ -Blue Archive-
Tags:ブルアカ ブル アカ blueaka buru aka blue archive yostar electronic nat nexon games videogame video game vgm music instrumental カルバノグの兎 編 生徒紹介PV theme 113 naverlyn [r] ron
BeatmapID:3598371
BeatmapSetID:1737510

[Difficulty]
HPDrainRate:6
CircleSize:5
OverallDifficulty:4
ApproachRate:5
SliderMultiplier:1.4
SliderTickRate:1

[Events]
//Background and Video events
0,0,"1228745.jpg",0,-40
//Break Periods
//Storyboard Layer 0 (Background)
//Storyboard Layer 1 (Fail)
//Storyboard Layer 2 (Pass)
//Storyboard Layer 3 (Foreground)
//Storyboard Layer 4 (Overlay)
//Storyboard Sound Samples

[TimingPoints]
685,352.941176470588,4,1,0,65,1,0
11890,-100,4,1,0,85,0,0
34479,-100,4,1,0,75,0,0
45155,-100,4,1,0,75,0,0
45243,-101.905311778291,4,1,0,75,0,0
45332,-103.907572301126,4,1,0,75,0,0
45508,-108.108108108108,4,1,0,75,0,0
45684,-112.662570813054,4,1,0,75,0,0
45773,-112.662570813054,4,1,0,65,0,0
45861,-117.647058823529,4,1,0,65,0,0
46214,-117.647058823529,4,1,0,65,0,0
56626,-121.222527472527,4,1,0,65,0,0
56802,-125,4,1,0,65,0,0
56979,-129.044050447816,4,1,0,65,0,0
57153,-133.333333333333,4,1,0,65,0,0
67036,-129.638377158453,4,1,0,65,0,0
67213,-126.123366013072,4,1,0,65,0,0
67301,-124.445787988714,4,1,0,65,0,0
67478,-121.203199371902,4,1,0,65,0,0
67566,-119.653151189265,4,1,0,65,0,0
67742,-116.669028387889,4,1,0,65,0,0
67919,-113.814394986637,4,1,0,65,0,0
68095,-111.111111111111,4,1,0,65,0,0
68361,-111.111111111111,4,1,0,75,0,0
74008,-111.111111111111,4,1,0,80,0,0
78331,-109.751883336789,4,1,0,80,0,0
78419,-109.08841107371,4,1,0,80,0,0
78507,-108.432912256743,4,1,0,80,0,0
78683,-107.14526685109,4,1,0,80,0,0
78860,-105.880784104547,4,1,0,80,0,0
79036,-104.652695400026,4,1,0,80,0,0
79213,-103.446029574621,4,1,0,80,0,0
79301,-102.85640261675,4,1,0,80,0,0
79389,-102.273459135699,4,1,0,80,0,0
79655,-102.273459135699,4,1,0,80,0,0
79743,-100,4,1,0,90,0,1
102332,-105.263157894737,4,1,0,80,0,0
122008,-105.263157894737,4,1,0,65,0,0

[HitObjects]
256,192,685,5,0,0:0:0:0:
256,192,1037,1,8,0:0:0:0:
256,192,1390,1,8,0:0:0:0:
256,192,1743,1,0,0:0:0:0:
256,192,1920,1,8,0:0:0:0:
256,192,2273,1,0,0:0:0:0:
256,192,2626,1,0,0:0:0:0:
256,192,2979,1,0,0:0:0:0:
256,192,3155,1,8,0:0:0:0:
256,192,3508,1,0,0:0:0:0:
256,192,4037,1,0,0:0:0:0:
256,192,4214,1,8,0:0:0:0:
256,192,4567,1,0,0:0:0:0:
256,192,4743,1,8,0:0:0:0:
256,192,5096,1,8,0:0:0:0:
256,192,5273,1,8,0:0:0:0:
256,192,5449,1,8,0:0:0:0:
256,192,5802,1,0,0:0:0:0:
256,192,5979,1,0,0:0:0:0:
256,192,6155,1,8,0:0:0:0:
256,192,6332,1,8,0:0:0:0:
256,192,6684,1,8,0:0:0:0:
256,192,7037,1,8,0:0:0:0:
256,192,7390,1,0,0:0:0:0:
256,192,7567,1,8,0:0:0:0:
256,192,7920,1,0,0:0:0:0:
256,192,8273,1,0,0:0:0:0:
256,192,8626,1,0,0:0:0:0:
256,192,8802,1,8,0:0:0:0:
256,192,8979,1,8,0:0:0:0:
256,192,9155,1,4,0:0:0:0:
256,192,9861,1,0,0:0:0:0:
256,192,10390,1,8,0:0:0:0:
256,192,11449,1,0,0:0:0:0:
256,192,11802,1,8,0:0:0:0:
256,192,11979,1,4,0:0:0:0:
256,192,12332,1,8,0:0:0:0:
256,192,12684,1,8,0:0:0:0:
256,192,12861,1,0,0:0:0:0:
256,192,13037,1,8,0:0:0:0:
256,192,13214,1,0,0:0:0:0:
256,192,13567,1,0,0:0:0:0:
256,192,13743,1,8,0:0:0:0:
256,192,14096,1,0,0:0:0:0:
256,192,14273,1,0,0:0:0:0:
256,192,14449,1,8,0:0:0:0:
256,192,14626,1,8,0:0:0:0:
256,192,14802,1,0,0:0:0:0:
256,192,15155,1,8,0:0:0:0:
256,192,15508,1,8,0:0:0:0:
256,192,15684,1,0,0:0:0:0:
256,192,15861,1,8,0:0:0:0:
256,192,16037,1,0,0:0:0:0:
256,192,16390,1,8,0:0:0:0:
256,192,16567,1,8,0:0:0:0:
256,192,16743,1,8,0:0:0:0:
256,192,16920,1,0,0:0:0:0:
256,192,17096,1,8,0:0:0:0:
256,192,17184,1,8,0:0:0:0:
256,192,17273,1,8,0:0:0:0:
256,192,17449,1,8,0:0:0:0:
256,192,17626,1,0,0:0:0:0:
256,192,17979,1,8,0:0:0:0:
256,192,18155,1,8,0:0:0:0:
256,192,18332,1,0,0:0:0:0:
256,192,18684,1,8,0:0:0:0:
256,192,18861,1,0,0:0:0:0:
256,192,19037,1,8,0:0:0:0:
256,192,19390,1,8,0:0:0:0:
256,192,19567,1,8,0:0:0:0:
256,192,19743,1,8,0:0:0:0:
256,192,20096,1,0,0:0:0:0:
256,192,20273,1,8,0:0:0:0:
256,192,20449,1,0,0:0:0:0:
256,192,20802,1,8,0:0:0:0:
256,192,21155,1,8,0:0:0:0:
256,192,21508,1,0,0:0:0:0:
256,192,21684,1,8,0:0:0:0:
256,192,22037,1,0,0:0:0:0:
256,192,22214,1,8,0:0:0:0:
256,192,22390,1,8,0:0:0:0:
256,192,22567,1,0,0:0:0:0:
256,192,22655,1,0,0:0:0:0:
256,192,22743,1,0,0:0:0:0:
256,192,22920,1,8,0:0:0:0:
256,160,23273,1,4,0:0:0:0:
256,192,23626,1,8,0:0:0:0:
256,192,23979,1,0,0:0:0:0:
256,192,24155,1,0,0:0:0:0:
256,192,24332,1,8,0:0:0:0:
256,192,24508,1,0,0:0:0:0:
256,192,24596,1,0,0:0:0:0:
256,192,24684,1,0,0:0:0:0:
256,192,25037,1,8,0:0:0:0:
256,192,25390,1,8,0:0:0:0:
256,192,25567,1,0,0:0:0:0:
256,192,25743,1,8,0:0:0:0:
256,192,25920,1,0,0:0:0:0:
256,192,26008,1,0,0:0:0:0:
256,192,26096,1,0,0:0:0:0:
256,192,26449,1,8,0:0:0:0:
256,192,26802,1,8,0:0:0:0:
256,192,27155,1,0,0:0:0:0:
256,192,27332,1,8,0:0:0:0:
256,192,27508,1,0,0:0:0:0:
256,192,27596,1,0,0:0:0:0:
256,192,27684,1,0,0:0:0:0:
256,192,27861,1,0,0:0:0:0:
256,192,28037,1,8,0:0:0:0:
256,192,28214,1,8,0:0:0:0:
256,192,28567,1,8,0:0:0:0:
256,192,28743,1,0,0:0:0:0:
256,192,28920,1,8,0:0:0:0:
256,192,29273,1,8,0:0:0:0:
256,192,29449,1,8,0:0:0:0:
256,192,29626,1,0,0:0:0:0:
256,192,29979,1,8,0:0:0:0:
256,192,30155,1,0,0:0:0:0:
256,192,30332,1,8,0:0:0:0:
256,192,30684,1,0,0:0:0:0:
256,192,30861,1,8,0:0:0:0:
256,192,31037,1,8,0:0:0:0:
256,192,31390,1,8,0:0:0:0:
256,192,31743,1,8,0:0:0:0:
256,192,32096,1,0,0:0:0:0:
256,192,32273,1,8,0:0:0:0:
256,192,32449,1,8,0:0:0:0:
256,192,32802,1,0,0:0:0:0:
256,192,32979,1,8,0:0:0:0:
256,192,33332,1,0,0:0:0:0:
256,192,33508,1,8,0:0:0:0:
256,192,33684,1,0,0:0:0:0:
256,192,33861,1,0,0:0:0:0:
256,192,33949,1,0,0:0:0:0:
256,192,34037,1,0,0:0:0:0:
256,192,34214,1,8,0:0:0:0:
256,192,34567,1,12,0:0:0:0:
256,192,35273,1,0,0:0:0:0:
256,192,35626,1,8,0:0:0:0:
256,192,35802,1,0,0:0:0:0:
256,192,36155,1,0,0:0:0:0:
256,192,36332,1,8,0:0:0:0:
256,192,36508,1,8,0:0:0:0:
256,192,36861,1,0,0:0:0:0:
256,192,37037,1,8,0:0:0:0:
256,192,37214,1,8,0:0:0:0:
256,192,37390,1,0,0:0:0:0:
256,192,37743,1,8,0:0:0:0:
256,192,38096,1,0,0:0:0:0:
256,192,38184,1,0,0:0:0:0:
256,192,38273,1,0,0:0:0:0:
256,192,38449,1,8,0:0:0:0:
256,192,38626,1,0,0:0:0:0:
256,192,38979,1,0,0:0:0:0:
256,192,39155,1,8,0:0:0:0:
256,192,39332,1,8,0:0:0:0:
256,192,39684,1,0,0:0:0:0:
256,192,39861,1,8,0:0:0:0:
256,192,40037,1,8,0:0:0:0:
256,192,40214,1,0,0:0:0:0:
256,192,40567,1,8,0:0:0:0:
256,192,40920,1,8,0:0:0:0:
256,192,41096,1,0,0:0:0:0:
256,192,41273,1,8,0:0:0:0:
256,192,41449,1,0,0:0:0:0:
256,192,41802,1,0,0:0:0:0:
256,192,41979,1,8,0:0:0:0:
256,192,42155,1,8,0:0:0:0:
256,192,42508,1,0,0:0:0:0:
256,192,42684,1,8,0:0:0:0:
256,192,42861,1,0,0:0:0:0:
256,192,43037,1,8,0:0:0:0:
256,192,43390,1,8,0:0:0:0:
256,192,43743,1,8,0:0:0:0:
256,192,43832,1,8,0:0:0:0:
256,192,43920,1,8,0:0:0:0:
256,192,44096,1,8,0:0:0:0:
256,192,44273,1,0,0:0:0:0:
256,192,44626,1,0,0:0:0:0:
256,192,44802,1,8,0:0:0:0:
256,192,44979,1,8,0:0:0:0:
256,192,45155,1,0,0:0:0:0:
256,192,45508,1,0,0:0:0:0:
256,192,45861,1,8,0:0:0:0:
256,192,46214,1,0,0:0:0:0:
256,192,46567,1,8,0:0:0:0:
256,192,46920,1,0,0:0:0:0:
256,192,47096,1,8,0:0:0:0:
256,192,47449,1,0,0:0:0:0:
256,192,47626,1,8,0:0:0:0:
256,192,47802,1,0,0:0:0:0:
256,192,48155,1,8,0:0:0:0:
256,192,48332,1,8,0:0:0:0:
256,192,48508,1,0,0:0:0:0:
256,192,48684,1,8,0:0:0:0:
256,192,49037,1,8,0:0:0:0:
224,192,49390,1,0,0:0:0:0:
224,192,49567,1,8,0:0:0:0:
224,192,49920,1,0,0:0:0:0:
224,192,50273,1,8,0:0:0:0:
224,192,50449,1,8,0:0:0:0:
224,192,50626,1,0,0:0:0:0:
224,192,50979,1,0,0:0:0:0:
224,192,51155,1,8,0:0:0:0:
224,192,51332,1,0,0:0:0:0:
224,192,51508,1,8,0:0:0:0:
224,192,51861,1,8,0:0:0:0:
224,192,52214,1,0,0:0:0:0:
224,192,52567,1,8,0:0:0:0:
224,192,52743,1,0,0:0:0:0:
224,192,53096,1,8,0:0:0:0:
224,192,53273,1,8,0:0:0:0:
224,192,53449,1,0,0:0:0:0:
224,192,53802,1,0,0:0:0:0:
224,192,53979,1,8,0:0:0:0:
224,192,54155,1,8,0:0:0:0:
224,192,54332,1,4,0:0:0:0:
224,192,54684,1,0,0:0:0:0:
224,192,54861,1,8,0:0:0:0:
224,192,55214,1,0,0:0:0:0:
224,192,55567,1,8,0:0:0:0:
224,192,56449,1,8,0:0:0:0:
224,192,56626,1,0,0:0:0:0:
224,192,56802,1,8,0:0:0:0:
224,192,56979,1,0,0:0:0:0:
224,192,57155,1,12,0:0:0:0:
224,192,57508,1,8,0:0:0:0:
224,192,57861,1,0,0:0:0:0:
224,192,58214,1,8,0:0:0:0:
224,192,58390,1,0,0:0:0:0:
224,192,58743,1,0,0:0:0:0:
224,192,58920,1,8,0:0:0:0:
224,192,59096,1,0,0:0:0:0:
224,192,59449,1,0,0:0:0:0:
224,192,59626,1,8,0:0:0:0:
224,192,59802,1,8,0:0:0:0:
224,192,59979,1,0,0:0:0:0:
224,192,60332,1,8,0:0:0:0:
224,192,60684,1,8,0:0:0:0:
224,192,61037,1,8,0:0:0:0:
224,192,61214,1,0,0:0:0:0:
224,192,61567,1,0,0:0:0:0:
224,192,61743,1,8,0:0:0:0:
224,192,61920,1,0,0:0:0:0:
224,192,62273,1,0,0:0:0:0:
224,192,62449,1,8,0:0:0:0:
224,192,62626,1,8,0:0:0:0:
224,192,62802,1,4,0:0:0:0:
224,192,63155,1,8,0:0:0:0:
224,192,63508,1,0,0:0:0:0:
224,192,63861,1,8,0:0:0:0:
224,192,64037,1,0,0:0:0:0:
224,192,64390,1,0,0:0:0:0:
224,192,64567,1,8,0:0:0:0:
224,192,64743,1,0,0:0:0:0:
224,192,65096,1,8,0:0:0:0:
224,192,65273,1,8,0:0:0:0:
224,192,65449,1,0,0:0:0:0:
224,192,65626,1,8,0:0:0:0:
224,192,65979,1,8,0:0:0:0:
224,192,66332,1,0,0:0:0:0:
224,192,66508,1,0,0:0:0:0:
224,192,66684,1,8,0:0:0:0:
224,192,66773,1,8,0:0:0:0:
224,192,66861,1,8,0:0:0:0:
224,192,67037,1,0,0:0:0:0:
224,192,67214,1,0,0:0:0:0:
224,192,67302,1,8,0:0:0:0:
224,192,67479,1,8,0:0:0:0:
224,192,67567,1,0,0:0:0:0:
224,192,67743,1,0,0:0:0:0:
224,192,67920,1,8,0:0:0:0:
224,192,68096,1,8,0:0:0:0:
224,192,68449,1,12,0:0:0:0:
448,96,68802,1,0,0:0:0:0:
224,192,68979,1,0,0:0:0:0:
224,192,69155,1,8,0:0:0:0:
224,192,69420,1,0,0:0:0:0:
224,192,69508,1,0,0:0:0:0:
224,192,69684,1,0,0:0:0:0:
224,192,69861,1,8,0:0:0:0:
224,192,70037,1,0,0:0:0:0:
224,192,70214,1,8,0:0:0:0:
224,192,70390,1,8,0:0:0:0:
224,192,70567,1,8,0:0:0:0:
224,192,70832,1,8,0:0:0:0:
224,192,70920,1,0,0:0:0:0:
224,192,71096,1,0,0:0:0:0:
224,192,71273,1,8,0:0:0:0:
224,192,71449,1,8,0:0:0:0:
224,192,71626,1,8,0:0:0:0:
224,192,71802,1,0,0:0:0:0:
224,192,71979,1,8,0:0:0:0:
224,192,72332,1,0,0:0:0:0:
224,192,72508,1,8,0:0:0:0:
224,192,72861,1,8,0:0:0:0:
224,192,73214,1,0,0:0:0:0:
224,192,73302,1,0,0:0:0:0:
224,192,73390,1,0,0:0:0:0:
224,192,73567,1,0,0:0:0:0:
224,192,73743,1,8,0:0:0:0:
224,192,74096,1,8,0:0:0:0:
224,192,74449,1,8,0:0:0:0:
224,192,74626,1,0,0:0:0:0:
224,192,74802,1,8,0:0:0:0:
224,192,75067,1,0,0:0:0:0:
224,192,75155,1,8,0:0:0:0:
224,192,75332,1,0,0:0:0:0:
224,192,75508,1,8,0:0:0:0:
224,192,75861,1,8,0:0:0:0:
224,192,76037,1,0,0:0:0:0:
224,192,76214,1,8,0:0:0:0:
224,192,76479,1,8,0:0:0:0:
224,192,76567,1,8,0:0:0:0:
224,192,76743,1,0,0:0:0:0:
224,192,76920,1,8,0:0:0:0:
224,192,77096,1,0,0:0:0:0:
224,192,77273,1,8,0:0:0:0:
224,192,77449,1,0,0:0:0:0:
224,192,77626,1,8,0:0:0:0:
224,192,77802,1,0,0:0:0:0:
224,192,77979,1,8,0:0:0:0:
224,192,78155,1,8,0:0:0:0:
224,192,78332,1,0,0:0:0:0:
224,192,78420,1,0,0:0:0:0:
224,192,78508,1,0,0:0:0:0:
224,192,78684,1,8,0:0:0:0:
224,192,78861,1,8,0:0:0:0:
224,192,79037,1,0,0:0:0:0:
224,192,79214,1,8,0:0:0:0:
224,192,79302,1,8,0:0:0:0:
224,192,79390,1,8,0:0:0:0:
224,192,79743,1,0,0:0:0:0:
224,192,80273,1,8,0:0:0:0:
224,192,80449,1,8,0:0:0:0:
224,192,80802,1,8,0:0:0:0:
224,192,80979,1,0,0:0:0:0:
224,192,81155,1,8,0:0:0:0:
224,192,81332,1,8,0:0:0:0:
224,192,81508,1,0,0:0:0:0:
224,192,81684,1,8,0:0:0:0:
224,192,81861,1,8,0:0:0:0:
224,192,82214,1,8,0:0:0:0:
224,192,82390,1,0,0:0:0:0:
224,192,82567,1,8,0:0:0:0:
224,192,82743,1,0,0:0:0:0:
224,192,82920,1,8,0:0:0:0:
224,192,83096,1,8,0:0:0:0:
224,192,83273,1,8,0:0:0:0:
224,192,83449,1,0,0:0:0:0:
224,192,83537,1,0,0:0:0:0:
224,192,83626,1,0,0:0:0:0:
224,192,83802,1,0,0:0:0:0:
224,192,83979,1,8,0:0:0:0:
224,192,84155,1,0,0:0:0:0:
224,192,84332,1,8,0:0:0:0:
224,192,84508,1,8,0:0:0:0:
224,192,84684,1,8,0:0:0:0:
224,192,85390,1,8,0:0:0:0:
230,196,85479,1,8,0:0:0:0:
224,192,85567,1,8,0:0:0:0:
224,192,85743,1,8,0:0:0:0:
224,192,85920,1,8,0:0:0:0:
224,192,86096,1,0,0:0:0:0:
224,192,86449,1,8,0:0:0:0:
224,192,86626,1,0,0:0:0:0:
224,192,86802,1,8,0:0:0:0:
226,186,86890,1,8,0:0:0:0:
224,192,86979,1,8,0:0:0:0:
224,192,87155,1,8,0:0:0:0:
224,192,87332,1,0,0:0:0:0:
224,192,87508,1,0,0:0:0:0:
224,192,87861,1,8,0:0:0:0:
224,192,88037,1,0,0:0:0:0:
224,192,88214,1,8,0:0:0:0:
224,192,88390,1,0,0:0:0:0:
224,192,88567,1,0,0:0:0:0:
224,192,88743,1,8,0:0:0:0:
224,192,88920,1,8,0:0:0:0:
224,192,89273,1,8,0:0:0:0:
224,192,89449,1,8,0:0:0:0:
224,192,89802,1,0,0:0:0:0:
224,192,90155,1,8,0:0:0:0:
224,192,90332,1,0,0:0:0:0:
224,192,90508,1,8,0:0:0:0:
224,192,90684,1,0,0:0:0:0:
224,192,91037,1,4,0:0:0:0:
224,192,91390,1,8,0:0:0:0:
224,192,91567,1,0,0:0:0:0:
224,192,91743,1,8,0:0:0:0:
224,192,91920,1,0,0:0:0:0:
224,192,92008,1,0,0:0:0:0:
224,192,92096,1,0,0:0:0:0:
224,192,92273,1,0,0:0:0:0:
224,192,92449,1,8,0:0:0:0:
224,192,92802,1,8,0:0:0:0:
224,192,93155,1,0,0:0:0:0:
224,192,93332,1,8,0:0:0:0:
224,192,93420,1,8,0:0:0:0:
224,192,93508,1,8,0:0:0:0:
224,192,93684,1,8,0:0:0:0:
224,192,93861,1,0,0:0:0:0:
224,192,94214,1,8,0:0:0:0:
224,192,94567,1,8,0:0:0:0:
224,192,94743,1,0,0:0:0:0:
224,192,94920,1,0,0:0:0:0:
224,192,95096,1,8,0:0:0:0:
224,192,95273,1,0,0:0:0:0:
224,192,95626,1,8,0:0:0:0:
224,192,95979,1,8,0:0:0:0:
224,192,96155,1,0,0:0:0:0:
224,192,96243,1,0,0:0:0:0:
224,192,96332,1,0,0:0:0:0:
224,192,96508,1,8,0:0:0:0:
224,192,96684,1,8,0:0:0:0:
230,196,96773,1,8,0:0:0:0:
224,192,96861,1,8,0:0:0:0:
224,192,97037,1,8,0:0:0:0:
224,192,97214,1,8,0:0:0:0:
224,192,97390,1,0,0:0:0:0:
224,192,97743,1,8,0:0:0:0:
224,192,97920,1,0,0:0:0:0:
224,192,98096,1,8,0:0:0:0:
226,186,98184,1,8,0:0:0:0:
224,192,98273,1,8,0:0:0:0:
224,192,98449,1,8,0:0:0:0:
224,192,98626,1,0,0:0:0:0:
224,192,98802,1,0,0:0:0:0:
224,192,99155,1,8,0:0:0:0:
224,192,99332,1,0,0:0:0:0:
224,192,99508,1,8,0:0:0:0:
224,192,99684,1,0,0:0:0:0:
224,192,99861,1,0,0:0:0:0:
224,192,100037,1,8,0:0:0:0:
224,192,100214,1,8,0:0:0:0:
224,192,100567,1,8,0:0:0:0:
224,192,100743,1,8,0:0:0:0:
224,192,101096,1,0,0:0:0:0:
256,256,101273,1,0,0:0:0:0:
256,256,101449,1,8,0:0:0:0:
256,256,101626,1,0,0:0:0:0:
256,256,101714,1,0,0:0:0:0:
256,256,101802,1,0,0:0:0:0:
256,256,101979,1,8,0:0:0:0:
256,256,102332,1,4,0:0:0:0:
256,256,102684,1,8,0:0:0:0:
256,256,103214,1,0,0:0:0:0:
256,256,103390,1,8,0:0:0:0:
256,256,103743,1,0,0:0:0:0:
256,256,104096,1,8,0:0:0:0:
256,256,104273,1,8,0:0:0:0:
256,256,104626,1,0,0:0:0:0:
256,256,104802,1,8,0:0:0:0:
256,256,104979,1,0,0:0:0:0:
256,256,105155,1,0,0:0:0:0:
256,256,105508,1,8,0:0:0:0:
256,224,106037,1,0,0:0:0:0:
256,224,106214,1,8,0:0:0:0:
256,224,106390,1,8,0:0:0:0:
256,224,106567,1,0,0:0:0:0:
256,224,106920,1,8,0:0:0:0:
256,224,107096,1,8,0:0:0:0:
256,224,107449,1,0,0:0:0:0:
256,224,107626,1,8,0:0:0:0:
256,224,107979,1,12,0:0:0:0:
256,224,108684,1,8,0:0:0:0:
256,224,109037,1,8,0:0:0:0:
256,224,109214,1,8,0:0:0:0:
256,224,109390,1,0,0:0:0:0:
256,224,109743,1,0,0:0:0:0:
256,224,109920,1,8,0:0:0:0:
256,224,110096,1,8,0:0:0:0:
261,217,110449,1,0,0:0:0:0:
256,224,110626,1,8,0:0:0:0:
256,224,110802,1,0,0:0:0:0:
256,224,111155,1,8,0:0:0:0:
256,224,111684,1,0,0:0:0:0:
256,224,111861,1,8,0:0:0:0:
256,224,112214,1,0,0:0:0:0:
256,224,112567,1,8,0:0:0:0:
256,224,112743,1,8,0:0:0:0:
256,224,113096,1,0,0:0:0:0:
256,224,113273,1,8,0:0:0:0:
256,224,113449,1,8,0:0:0:0:
256,192,113626,1,4,0:0:0:0:
256,192,113979,1,8,0:0:0:0:
256,192,114332,1,8,0:0:0:0:
256,192,114684,1,0,0:0:0:0:
256,192,114861,1,8,0:0:0:0:
256,192,115214,1,0,0:0:0:0:
256,192,115567,1,0,0:0:0:0:
256,192,115920,1,0,0:0:0:0:
256,192,116096,1,8,0:0:0:0:
256,192,116449,1,0,0:0:0:0:
256,192,116979,1,0,0:0:0:0:
256,192,117155,1,8,0:0:0:0:
256,192,117508,1,0,0:0:0:0:
256,192,117684,1,8,0:0:0:0:
256,192,118037,1,8,0:0:0:0:
256,192,118214,1,8,0:0:0:0:
256,192,118390,1,8,0:0:0:0:
256,192,118743,1,0,0:0:0:0:
256,192,118920,1,0,0:0:0:0:
256,192,119096,1,8,0:0:0:0:
256,192,119273,1,8,0:0:0:0:
256,192,119626,1,8,0:0:0:0:
256,192,119979,1,8,0:0:0:0:
256,192,120332,1,0,0:0:0:0:
256,192,120508,1,8,0:0:0:0:
256,192,120861,1,0,0:0:0:0:
256,192,121214,1,0,0:0:0:0:
256,192,121567,1,0,0:0:0:0:
256,192,121743,1,8,0:0:0:0:
256,192,121920,1,8,0:0:0:0:
256,192,122096,1,4,0:0:0:0:
256,192,122802,1,0,0:0:0:0:
256,192,123332,1,8,0:0:0:0:
