osu file format v14

[General]
AudioFilename: audio.ogg
AudioLeadIn: 0
PreviewTime: 79741
Countdown: 0
SampleSet: Normal
StackLeniency: 0.7
Mode: 1
LetterboxInBreaks: 0
WidescreenStoryboard: 1

[Editor]
Bookmarks: 11977,14800,37388,45859,103741,106565
DistanceSpacing: 1.9
BeatDivisor: 4
GridSize: 32
TimelineZoom: 2.3

[Metadata]
Title:Theme_113
TitleUnicode:Theme_113
Artist:Nor
ArtistUnicode:Nor
Creator:Maneh
Version:Futsuu
Source:ブルーアーカイブ -Blue Archive-
Tags:ブルアカ ブル アカ blueaka buru aka blue archive yostar electronic nat nexon games videogame video game vgm music instrumental カルバノグの兎 編 生徒紹介PV theme 113 naverlyn [r] ron
BeatmapID:3551315
BeatmapSetID:1737510

[Difficulty]
HPDrainRate:7
CircleSize:5
OverallDifficulty:3.5
ApproachRate:5
SliderMultiplier:1.4
SliderTickRate:1

[Events]
//Background and Video events
0,0,"BG_CS_Rabbit_09.jpg",0,40
//Break Periods
//Storyboard Layer 0 (Background)
//Storyboard Layer 1 (Fail)
//Storyboard Layer 2 (Pass)
//Storyboard Layer 3 (Foreground)
//Storyboard Layer 4 (Overlay)
//Storyboard Sound Samples

[TimingPoints]
685,352.941176470588,4,1,0,65,1,0
11890,-100,4,1,0,85,0,0
34479,-100,4,1,0,75,0,0
45773,-100,4,1,0,65,0,0
68361,-100,4,1,0,75,0,0
74008,-100,4,1,0,80,0,0
79743,-100,4,1,0,90,0,1
102243,-100,4,1,0,80,0,1
102332,-100,4,1,0,80,0,0
122008,-100,4,1,0,65,0,0

[HitObjects]
307,205,685,5,0,0:0:0:0:
313,238,1037,1,0,0:0:0:0:
307,205,1390,1,8,0:0:0:0:
307,205,1920,1,8,0:0:0:0:
268,230,2626,1,8,0:0:0:0:
29,141,3155,1,0,0:0:0:0:
273,226,3508,1,8,0:0:0:0:
273,226,4214,1,8,0:0:0:0:
273,226,4743,1,8,0:0:0:0:
273,226,5449,1,8,0:0:0:0:
0,183,5979,1,0,0:0:0:0:
273,226,6332,1,8,0:0:0:0:
273,226,7037,1,8,0:0:0:0:
273,226,7567,1,8,0:0:0:0:
278,227,8273,1,8,0:0:0:0:
249,215,8802,1,0,0:0:0:0:
278,227,9155,1,12,0:0:0:0:
278,227,9861,1,12,0:0:0:0:
278,227,10390,1,12,0:0:0:0:
210,193,11979,1,4,0:0:0:0:
223,191,12332,1,0,0:0:0:0:
258,204,12508,1,8,0:0:0:0:
258,204,12684,1,8,0:0:0:0:
207,249,13037,1,8,0:0:0:0:
207,249,13390,1,0,0:0:0:0:
157,192,13567,1,8,0:0:0:0:
207,249,13743,1,0,0:0:0:0:
220,227,14096,1,0,0:0:0:0:
210,193,14802,1,8,0:0:0:0:
258,204,15155,1,8,0:0:0:0:
258,204,15332,1,8,0:0:0:0:
223,191,15508,1,0,0:0:0:0:
207,249,15861,1,0,0:0:0:0:
207,249,16214,1,8,0:0:0:0:
304,259,16390,1,0,0:0:0:0:
207,249,16567,1,8,0:0:0:0:
220,227,16920,1,8,0:0:0:0:
313,185,17626,1,0,0:0:0:0:
221,207,17979,1,8,0:0:0:0:
221,207,18155,1,0,0:0:0:0:
219,194,18332,1,0,0:0:0:0:
320,201,18684,1,0,0:0:0:0:
220,194,19037,1,8,0:0:0:0:
220,194,19390,1,0,0:0:0:0:
220,194,19567,1,0,0:0:0:0:
220,194,19743,1,8,0:0:0:0:
271,135,20096,1,8,0:0:0:0:
243,219,20449,1,0,0:0:0:0:
117,178,21155,1,0,0:0:0:0:
134,190,21684,1,8,0:0:0:0:
278,112,22567,1,0,0:0:0:0:
278,112,22743,1,8,0:0:0:0:
278,112,22920,1,0,0:0:0:0:
210,193,23273,1,4,0:0:0:0:
223,191,23626,1,0,0:0:0:0:
258,204,23802,1,8,0:0:0:0:
258,204,23979,1,8,0:0:0:0:
237,157,24332,1,0,0:0:0:0:
207,249,24684,1,8,0:0:0:0:
207,249,24861,1,8,0:0:0:0:
207,249,25037,1,0,0:0:0:0:
220,227,25390,1,0,0:0:0:0:
210,193,26096,1,8,0:0:0:0:
258,204,26449,1,8,0:0:0:0:
258,204,26626,1,8,0:0:0:0:
223,191,26802,1,0,0:0:0:0:
237,157,27155,1,8,0:0:0:0:
207,249,27508,1,0,0:0:0:0:
207,249,27684,1,8,0:0:0:0:
207,249,27861,1,8,0:0:0:0:
220,227,28214,1,8,0:0:0:0:
313,185,28920,1,0,0:0:0:0:
221,207,29273,1,8,0:0:0:0:
221,207,29449,1,0,0:0:0:0:
219,194,29626,1,0,0:0:0:0:
144,63,29979,1,8,0:0:0:0:
220,194,30332,1,0,0:0:0:0:
220,194,30508,1,0,0:0:0:0:
220,194,30684,1,8,0:0:0:0:
144,64,31037,1,8,0:0:0:0:
243,219,31390,1,8,0:0:0:0:
383,113,31743,1,0,0:0:0:0:
117,178,32449,1,8,0:0:0:0:
134,190,32979,1,8,0:0:0:0:
278,112,33861,1,8,0:0:0:0:
278,112,34037,1,0,0:0:0:0:
278,112,34214,1,8,0:0:0:0:
311,234,34567,1,12,0:0:0:0:
311,234,35273,1,8,0:0:0:0:
229,227,35626,1,0,0:0:0:0:
229,227,35802,1,0,0:0:0:0:
204,186,36332,1,8,0:0:0:0:
204,186,36684,1,0,0:0:0:0:
204,186,36861,1,0,0:0:0:0:
204,186,37037,1,8,0:0:0:0:
311,234,37390,1,0,0:0:0:0:
311,234,38096,1,0,0:0:0:0:
229,227,38449,1,8,0:0:0:0:
229,227,38626,1,8,0:0:0:0:
204,186,39155,1,0,0:0:0:0:
204,186,39508,1,8,0:0:0:0:
204,186,39684,1,8,0:0:0:0:
204,186,39861,1,0,0:0:0:0:
311,234,40214,1,0,0:0:0:0:
311,234,40920,1,8,0:0:0:0:
229,227,41273,1,0,0:0:0:0:
229,227,41449,1,0,0:0:0:0:
204,186,41979,1,8,0:0:0:0:
204,186,42332,1,0,0:0:0:0:
204,186,42508,1,8,0:0:0:0:
204,186,42684,1,8,0:0:0:0:
311,234,43037,1,8,0:0:0:0:
311,234,43743,1,0,0:0:0:0:
229,227,44096,1,8,0:0:0:0:
229,227,44273,1,8,0:0:0:0:
204,186,44802,1,0,0:0:0:0:
204,186,45155,1,8,0:0:0:0:
204,186,45332,1,0,0:0:0:0:
204,186,45508,1,0,0:0:0:0:
385,204,45861,1,0,0:0:0:0:
385,204,46567,1,8,0:0:0:0:
385,204,47096,1,0,0:0:0:0:
238,195,47802,1,8,0:0:0:0:
224,208,48332,1,0,0:0:0:0:
224,207,48508,1,0,0:0:0:0:
224,203,48684,1,8,0:0:0:0:
224,207,49390,1,0,0:0:0:0:
224,207,49920,1,0,0:0:0:0:
127,170,50626,1,8,0:0:0:0:
242,103,50979,1,8,0:0:0:0:
242,103,51155,1,8,0:0:0:0:
242,103,51332,1,0,0:0:0:0:
242,103,51508,1,0,0:0:0:0:
276,147,52214,1,0,0:0:0:0:
276,147,52743,1,8,0:0:0:0:
264,134,53449,1,0,0:0:0:0:
220,165,54332,1,0,0:0:0:0:
110,239,55037,1,8,0:0:0:0:
157,219,55567,1,8,0:0:0:0:
220,163,56449,1,8,0:0:0:0:
220,163,56802,1,0,0:0:0:0:
385,204,57155,1,8,0:0:0:0:
385,204,57861,1,8,0:0:0:0:
385,204,58390,1,0,0:0:0:0:
238,195,59096,1,8,0:0:0:0:
224,208,59626,1,0,0:0:0:0:
224,203,59979,1,8,0:0:0:0:
224,207,60684,1,8,0:0:0:0:
224,207,61214,1,8,0:0:0:0:
127,170,61920,1,8,0:0:0:0:
242,103,62449,1,0,0:0:0:0:
242,103,62802,1,8,0:0:0:0:
276,147,63508,1,8,0:0:0:0:
276,147,64037,1,8,0:0:0:0:
264,134,64743,1,0,0:0:0:0:
220,165,65626,1,0,0:0:0:0:
304,219,66332,1,8,0:0:0:0:
304,219,66861,1,8,0:0:0:0:
153,143,67390,1,8,0:0:0:0:
166,130,67567,1,8,0:0:0:0:
166,130,67743,1,0,0:0:0:0:
304,219,68096,1,8,0:0:0:0:
309,259,68449,1,0,0:0:0:0:
309,259,68802,1,0,0:0:0:0:
315,259,69155,1,8,0:0:0:0:
314,259,69420,1,8,0:0:0:0:
314,259,69684,1,8,0:0:0:0:
309,259,69861,1,0,0:0:0:0:
309,259,70214,1,0,0:0:0:0:
315,259,70567,1,8,0:0:0:0:
314,259,70832,1,8,0:0:0:0:
314,259,71096,1,8,0:0:0:0:
157,190,71273,1,0,0:0:0:0:
263,144,71979,1,8,0:0:0:0:
263,144,72508,1,0,0:0:0:0:
299,167,73214,1,8,0:0:0:0:
280,130,74096,1,8,0:0:0:0:
276,214,74449,1,0,0:0:0:0:
276,214,74802,1,0,0:0:0:0:
276,214,75155,1,8,0:0:0:0:
276,214,75332,1,8,0:0:0:0:
276,214,75508,1,0,0:0:0:0:
276,214,75861,1,8,0:0:0:0:
276,214,76214,1,8,0:0:0:0:
276,214,76567,1,0,0:0:0:0:
276,214,76743,1,0,0:0:0:0:
276,214,76920,1,8,0:0:0:0:
276,214,77626,1,8,0:0:0:0:
278,205,78155,1,0,0:0:0:0:
210,193,79743,1,4,0:0:0:0:
223,191,80096,1,0,0:0:0:0:
258,204,80273,1,8,0:0:0:0:
258,204,80449,1,8,0:0:0:0:
251,140,80802,1,0,0:0:0:0:
207,249,81155,1,8,0:0:0:0:
207,249,81332,1,8,0:0:0:0:
207,249,81508,1,0,0:0:0:0:
220,227,81861,1,0,0:0:0:0:
210,193,82567,1,8,0:0:0:0:
258,204,82920,1,8,0:0:0:0:
258,204,83096,1,8,0:0:0:0:
223,191,83273,1,0,0:0:0:0:
239,155,83626,1,8,0:0:0:0:
207,249,83979,1,0,0:0:0:0:
207,249,84155,1,8,0:0:0:0:
207,249,84332,1,8,0:0:0:0:
220,227,84684,1,8,0:0:0:0:
313,185,85390,1,4,0:0:0:0:
221,207,85743,1,8,0:0:0:0:
221,207,85920,1,0,0:0:0:0:
219,194,86096,1,0,0:0:0:0:
239,155,86449,1,0,0:0:0:0:
220,194,86802,1,0,0:0:0:0:
220,194,86979,1,0,0:0:0:0:
220,194,87155,1,8,0:0:0:0:
205,166,87508,1,8,0:0:0:0:
205,166,87861,1,0,0:0:0:0:
243,219,88214,1,0,0:0:0:0:
243,219,88567,1,0,0:0:0:0:
117,178,88743,1,8,0:0:0:0:
117,178,88920,1,0,0:0:0:0:
134,190,89273,1,0,0:0:0:0:
134,190,89449,1,8,0:0:0:0:
136,193,89802,1,8,0:0:0:0:
278,112,90332,1,0,0:0:0:0:
278,112,90508,1,8,0:0:0:0:
278,112,90684,1,0,0:0:0:0:
210,193,91037,1,4,0:0:0:0:
223,191,91390,1,0,0:0:0:0:
258,204,91567,1,8,0:0:0:0:
258,204,91743,1,8,0:0:0:0:
213,163,92096,1,0,0:0:0:0:
207,249,92449,1,8,0:0:0:0:
207,249,92626,1,8,0:0:0:0:
207,249,92802,1,0,0:0:0:0:
220,227,93155,1,0,0:0:0:0:
210,193,93861,1,8,0:0:0:0:
258,204,94214,1,8,0:0:0:0:
258,204,94390,1,8,0:0:0:0:
223,191,94567,1,0,0:0:0:0:
213,163,94920,1,8,0:0:0:0:
207,249,95273,1,0,0:0:0:0:
207,249,95449,1,8,0:0:0:0:
207,249,95626,1,8,0:0:0:0:
220,227,95979,1,8,0:0:0:0:
313,185,96684,1,4,0:0:0:0:
221,207,97037,1,8,0:0:0:0:
221,207,97214,1,0,0:0:0:0:
219,194,97390,1,0,0:0:0:0:
220,194,98096,1,8,0:0:0:0:
220,194,98449,1,0,0:0:0:0:
220,194,98626,1,0,0:0:0:0:
220,194,98802,1,8,0:0:0:0:
243,219,99508,1,8,0:0:0:0:
243,219,99861,1,8,0:0:0:0:
117,178,100037,1,0,0:0:0:0:
117,178,100214,1,8,0:0:0:0:
134,190,100567,1,8,0:0:0:0:
134,190,100743,1,0,0:0:0:0:
136,193,101096,1,0,0:0:0:0:
278,112,101626,1,8,0:0:0:0:
278,112,101802,1,0,0:0:0:0:
278,112,101979,1,8,0:0:0:0:
262,210,102332,1,0,0:0:0:0:
262,210,102684,1,8,0:0:0:0:
262,210,103214,1,0,0:0:0:0:
250,212,103390,1,8,0:0:0:0:
237,160,103567,1,8,0:0:0:0:
262,210,103743,1,0,0:0:0:0:
262,210,104096,1,8,0:0:0:0:
262,210,104626,1,0,0:0:0:0:
250,212,104802,1,8,0:0:0:0:
262,210,105155,1,0,0:0:0:0:
262,210,105508,1,8,0:0:0:0:
262,210,106037,1,0,0:0:0:0:
250,212,106214,1,8,0:0:0:0:
220,142,106390,1,8,0:0:0:0:
262,210,106567,1,0,0:0:0:0:
262,210,106920,1,8,0:0:0:0:
262,210,107449,1,0,0:0:0:0:
250,212,107626,1,8,0:0:0:0:
262,210,107979,1,0,0:0:0:0:
262,210,108332,1,8,0:0:0:0:
262,210,108861,1,0,0:0:0:0:
250,212,109037,1,8,0:0:0:0:
218,141,109214,1,8,0:0:0:0:
262,210,109390,1,0,0:0:0:0:
262,210,109743,1,8,0:0:0:0:
262,210,110273,1,0,0:0:0:0:
250,212,110449,1,8,0:0:0:0:
262,210,110802,1,0,0:0:0:0:
262,210,111155,1,8,0:0:0:0:
262,210,111684,1,0,0:0:0:0:
250,212,111861,1,8,0:0:0:0:
219,133,112037,1,8,0:0:0:0:
262,210,112214,1,0,0:0:0:0:
262,210,112567,1,8,0:0:0:0:
217,122,112920,1,0,0:0:0:0:
250,212,113096,5,8,0:0:0:0:
216,251,113626,1,0,0:0:0:0:
215,245,113979,1,8,0:0:0:0:
192,147,114332,1,8,0:0:0:0:
222,211,114508,1,0,0:0:0:0:
235,217,114684,1,8,0:0:0:0:
257,108,115037,1,0,0:0:0:0:
318,145,115390,1,8,0:0:0:0:
241,164,115567,1,0,0:0:0:0:
266,137,115743,1,8,0:0:0:0:
316,201,116096,1,8,0:0:0:0:
316,201,116449,1,0,0:0:0:0:
241,164,116626,1,0,0:0:0:0:
316,138,116802,1,8,0:0:0:0:
231,215,117155,1,8,0:0:0:0:
253,218,117332,1,0,0:0:0:0:
241,164,117508,1,0,0:0:0:0:
288,212,117861,1,0,0:0:0:0:
286,141,118214,1,8,0:0:0:0:
233,140,118390,1,0,0:0:0:0:
231,215,118743,1,0,0:0:0:0:
253,218,118920,1,8,0:0:0:0:
288,212,119273,1,0,0:0:0:0:
215,245,119626,1,8,0:0:0:0:
222,172,119979,1,0,0:0:0:0:
222,211,120155,1,0,0:0:0:0:
235,217,120332,1,8,0:0:0:0:
235,217,120684,1,8,0:0:0:0:
215,245,120861,1,0,0:0:0:0:
222,172,121037,1,0,0:0:0:0:
210,128,121390,1,8,0:0:0:0:
207,160,121567,1,0,0:0:0:0:
207,160,121743,1,8,0:0:0:0:
278,227,122096,5,12,0:0:0:0:
278,227,122802,1,4,0:0:0:0:
278,227,123332,1,4,0:0:0:0:
