osu file format v14

[General]
AudioFilename: audio.mp3
AudioLeadIn: 0
PreviewTime: 68049
Countdown: 0
SampleSet: Soft
StackLeniency: 0.4
Mode: 0
LetterboxInBreaks: 0
WidescreenStoryboard: 0

[Editor]
DistanceSpacing: 1
BeatDivisor: 4
GridSize: 32
TimelineZoom: 3.699998

[Metadata]
Title:RE Aoharu
TitleUnicode:RE Aoharu
Artist:Nor
ArtistUnicode:Nor
Creator:Shurelia
Version:Schale
Source:ブルーアーカイブ -Blue Archive-
Tags:ブルアカ future bass electronic instrumental video game yostar gacha nat games theme 59 pv4 Reaching for the precious time captin1 anxient supav too Kyuuchie lit120 -Hakurei- nakazawa nozhomi tycani fuiba fuyu
BeatmapID:3999350
BeatmapSetID:1935191

[Difficulty]
HPDrainRate:6.4
CircleSize:4.3
OverallDifficulty:9
ApproachRate:9.5
SliderMultiplier:2
SliderTickRate:1

[Events]
//Background and Video events
0,0,"schale.jpg",0,0
//Break Periods
//Storyboard Layer 0 (Background)
//Storyboard Layer 1 (Fail)
//Storyboard Layer 2 (Pass)
//Storyboard Layer 3 (Foreground)
//Storyboard Layer 4 (Overlay)
//Storyboard Sound Samples

[TimingPoints]
50,333.333333333333,4,2,2,70,1,0
50,-125,4,2,2,70,0,0
10383,-50,4,2,2,70,0,0
10549,-125,4,2,2,70,0,0
10716,-100,4,2,2,70,0,0
18716,-66.6666666666667,4,2,2,70,0,0
21049,-40,4,2,2,70,0,0
21216,-66.6666666666667,4,2,2,70,0,0
21383,-100,4,2,2,80,0,0
42716,-125,4,2,2,80,0,0
43966,-125,4,2,2,5,0,0
44049,-200,4,2,2,80,0,0
44716,-200,4,2,2,60,0,0
48049,-333.333333333333,4,2,2,40,0,0
57383,-333.333333333334,4,2,2,40,0,0
58716,-166.666666666667,4,2,3,50,0,0
68049,-125,4,2,3,50,0,0
69049,-125,4,2,3,60,0,0
69383,-100,4,2,2,70,0,0
70716,-100,4,2,3,70,0,0
70883,-100,4,2,2,70,0,0
73383,-100,4,2,3,70,0,0
73549,-100,4,2,2,70,0,0
76049,-100,4,2,3,70,0,0
76216,-100,4,2,2,70,0,0
78716,-100,4,2,3,70,0,0
78883,-100,4,2,2,70,0,0
80049,-90.9090909090909,4,2,2,70,0,0
81383,-90.9090909090909,4,2,3,70,0,0
81549,-90.9090909090909,4,2,2,70,0,0
84049,-90.9090909090909,4,2,3,70,0,0
84216,-90.9090909090909,4,2,2,70,0,0
86716,-90.9090909090909,4,2,3,70,0,0
86883,-90.9090909090909,4,2,2,70,0,0
88049,-83.3333333333333,4,2,2,70,0,0
88383,-76.9230769230769,4,2,2,70,0,0
88716,-71.4285714285714,4,2,2,70,0,0
89049,-66.6666666666667,4,2,2,70,0,0
89383,-83.3333333333333,4,2,2,70,0,0
90383,-50,4,2,3,70,0,0
90716,-83.3333333333333,4,2,2,80,0,0
111716,-50,4,2,2,80,0,0
112049,-66.6666666666667,4,2,2,85,0,1
133383,-1000,4,2,2,80,0,0
133466,-66.6666666666667,4,2,2,10,0,0

[Colours]
Combo1 : 250,180,240
Combo2 : 120,200,230
Combo3 : 255,230,130
Combo4 : 160,230,150

[HitObjects]
47,50,50,5,14,1:2:0:0:
126,42,216,1,2,0:0:0:0:
199,73,383,1,2,1:2:0:0:
215,151,549,2,0,L|198:229,1,80,10|0,0:0|1:0,0:0:0:0:
136,124,883,1,0,0:0:0:0:
282,96,1049,2,0,B|340:87|385:142|435:130,1,160,8|0,1:2|1:0,0:0:0:0:
488,77,1549,6,0,P|495:38|501:-1,1,80,8|0,0:0|1:0,0:0:0:0:
392,209,1883,1,0,3:0:0:0:
392,209,1966,1,0,3:0:0:0:
392,209,2049,2,0,P|397:248|404:288,1,80,8|0,1:2|3:0,0:0:0:0:
496,368,2383,1,8,1:2:0:0:
480,366,2466,1,8,0:0:0:0:
464,367,2549,1,8,0:0:0:0:
448,369,2633,1,8,0:0:0:0:
433,376,2716,5,14,1:2:0:0:
355,356,2883,1,2,3:2:0:0:
297,300,3049,1,2,1:2:0:0:
268,225,3215,2,0,P|229:230|191:243,1,80,10|0,0:0|1:0,0:0:0:0:
144,309,3549,1,0,3:0:0:0:
174,163,3716,2,0,P|194:87|183:8,1,160,8|0,1:2|1:0,0:0:0:0:
93,162,4215,6,0,P|54:170|18:189,1,80,8|0,0:0|1:0,0:0:0:0:
49,294,4549,1,0,3:0:0:0:
49,294,4632,1,0,3:0:0:0:
49,294,4716,2,0,L|33:330,3,40,8|8|8|8,1:2|0:0|0:0|0:0,0:0:0:0:
76,295,5049,1,8,1:2:0:0:
107,301,5132,1,8,0:0:0:0:
137,310,5215,1,8,0:0:0:0:
167,320,5299,1,8,0:0:0:0:
195,334,5383,5,14,1:2:0:0:
262,359,5549,1,0,0:0:0:0:
340,342,5716,1,2,1:2:0:0:
405,297,5882,2,0,P|443:306|481:320,1,80,10|0,0:0|1:0,0:0:0:0:
422,379,6216,1,0,0:0:0:0:
330,258,6382,2,0,P|335:179|347:100,1,160,8|0,1:2|1:0,0:0:0:0:
182,170,6882,6,0,P|144:180|105:191,1,80,8|0,0:0|1:0,0:0:0:0:
34,50,7216,1,0,3:0:0:0:
34,50,7299,1,0,3:0:0:0:
34,50,7382,2,0,P|73:52|112:42,1,80,8|0,1:2|3:0,0:0:0:0:
267,0,7716,1,8,1:2:0:0:
302,18,7799,1,8,0:0:0:0:
327,48,7882,1,8,0:0:0:0:
330,88,7966,1,8,0:0:0:0:
314,124,8049,5,10,1:2:0:0:
224,91,8215,1,2,0:0:0:0:
411,166,8382,1,2,1:2:0:0:
478,102,8548,2,0,L|483:22,1,80,10|0,0:0|1:0,0:0:0:0:
333,212,8882,1,0,3:0:0:0:
333,212,9048,2,0,P|335:291|340:371,1,160,8|0,1:2|1:0,0:0:0:0:
167,361,9548,6,0,L|173:281,1,80,8|0,0:0|1:0,0:0:0:0:
45,177,9882,1,0,3:0:0:0:
39,257,10049,1,8,1:2:0:0:
103,100,10216,1,0,0:0:0:0:
250,257,10383,2,0,B|300:245|300:245|317:199,1,100,8|0,0:1|0:0,0:0:0:0:
239,177,10549,1,8,0:0:0:0:
239,177,10633,1,8,0:0:0:0:
239,177,10716,5,14,1:2:0:0:
330,61,10883,1,2,0:0:0:0:
238,12,11049,1,10,1:2:0:0:
344,176,11216,2,0,P|347:225|348:275,1,100,8|8,0:0|1:2,0:0:0:0:
428,106,11549,1,0,0:0:0:0:
494,196,11716,2,0,P|491:247|486:295,1,100,8|0,1:2|0:0,0:0:0:0:
278,357,12049,5,8,1:2:0:0:
278,357,12133,1,0,3:2:0:0:
278,357,12216,2,0,P|221:343|175:337,1,100,8|8,0:0|1:2,0:0:0:0:
5,370,12549,1,0,3:0:0:0:
87,301,12716,2,0,P|97:252|105:199,1,100,8|0,1:2|3:0,0:0:0:0:
35,31,13049,1,8,1:2:0:0:
45,69,13133,1,8,0:0:0:0:
78,90,13216,1,8,0:0:0:0:
117,87,13299,1,8,0:0:0:0:
153,70,13383,5,14,1:2:0:0:
270,0,13550,1,2,3:2:0:0:
114,0,13716,1,10,1:2:0:0:
253,131,13883,2,0,P|302:128|352:124,1,100,10|8,0:0|1:2,0:0:0:0:
171,192,14216,1,0,0:0:0:0:
252,252,14383,2,0,P|300:264|348:278,1,100,8|0,1:2|0:0,0:0:0:0:
501,227,14716,5,8,1:2:0:0:
501,227,14799,1,0,3:0:0:0:
501,227,14883,2,0,P|488:178|480:129,1,100,8|8,0:0|1:2,0:0:0:0:
512,0,15216,1,0,3:0:0:0:
345,0,15383,5,8,1:2:0:0:
335,1,15466,1,8,0:0:0:0:
326,5,15549,1,8,0:0:0:0:
318,11,15633,1,8,0:0:0:0:
295,44,15716,5,8,1:2:0:0:
259,62,15800,1,8,0:0:0:0:
219,62,15883,1,8,0:0:0:0:
188,35,15966,1,8,0:0:0:0:
178,0,16049,5,6,1:2:0:0:
167,135,16216,1,0,0:0:0:0:
35,10,16382,1,10,1:2:0:0:
16,112,16549,2,0,P|19:162|22:211,1,100,10|8,0:0|1:2,0:0:0:0:
102,368,16882,1,0,0:0:0:0:
183,316,17049,2,0,P|179:266|174:216,1,100,8|0,1:2|0:0,0:0:0:0:
292,164,17382,5,8,1:2:0:0:
292,164,17466,1,0,3:0:0:0:
292,164,17549,2,0,P|341:168|391:172,1,100,8|8,0:0|1:2,0:0:0:0:
512,278,17882,1,0,3:0:0:0:
456,343,18049,2,0,P|406:345|356:349,1,100,8|0,1:2|0:0,0:0:0:0:
197,366,18382,1,8,0:0:0:0:
161,346,18466,1,8,0:0:0:0:
136,314,18549,1,8,0:0:0:0:
121,276,18632,1,8,0:0:0:0:
119,241,18716,6,0,P|155:249|192:254,1,75.0000028610231,14|0,1:2|0:0,0:0:0:0:
365,248,18882,2,0,P|329:241|291:235,1,75.0000028610231,10|0,1:2|0:0,0:0:0:0:
105,225,19049,6,0,P|138:230|184:237,1,75.0000028610231,10|0,1:2|0:0,0:0:0:0:
377,230,19215,2,0,P|340:221|303:217,1,75.0000028610231,10|0,1:2|0:0,0:0:0:0:
92,209,19383,6,0,P|125:214|171:221,1,75.0000028610231,8|0,0:0|0:0,0:0:0:0:
392,215,19549,2,0,P|355:206|318:202,1,75.0000028610231,8|0,0:0|0:0,0:0:0:0:
78,191,19716,6,0,P|111:196|157:203,1,75.0000028610231,8|0,0:0|0:0,0:0:0:0:
404,200,19883,2,0,P|367:191|330:187,1,75.0000028610231,8|0,0:0|0:0,0:0:0:0:
90,113,20049,5,4,1:2:0:0:
93,98,20133,1,0,0:0:0:0:
96,83,20216,1,0,1:0:0:0:
99,68,20299,1,0,0:0:0:0:
105,54,20383,2,0,B|177:71,1,75.0000028610231,8|0,0:0|0:0,0:0:0:0:
333,57,20549,5,0,1:0:0:0:
347,52,20633,1,0,0:0:0:0:
361,47,20716,1,0,1:0:0:0:
375,41,20799,1,0,0:0:0:0:
390,39,20883,2,0,B|407:111,1,75.0000028610231,8|0,0:0|0:0,0:0:0:0:
507,275,21049,6,0,B|493:254|493:254|348:197|348:197|291:237,1,250,8|8,0:1|0:0,0:0:0:0:
336,302,21299,1,8,0:0:0:0:
354,288,21383,5,14,1:2:0:0:
429,319,21550,1,0,0:0:0:0:
504,353,21716,1,8,1:2:0:0:
310,372,21883,5,0,1:0:0:0:
235,341,22050,1,0,1:0:0:0:
163,305,22216,1,8,0:0:0:0:
22,178,22383,5,8,0:0:0:0:
42,341,22549,1,0,1:0:0:0:
145,97,22716,5,8,1:3:0:0:
45,80,22883,1,4,1:3:0:0:
173,82,23050,1,4,1:3:0:0:
30,60,23217,1,8,0:0:0:0:
189,178,23383,6,0,B|210:184|210:184|335:160,1,150,10|0,1:2|0:0,0:0:0:0:
335,145,23717,1,8,1:2:0:0:
336,125,23799,1,8,3:0:0:0:
339,105,23883,1,8,3:0:0:0:
343,85,23966,1,8,3:0:0:0:
348,65,24050,5,14,1:2:0:0:
417,26,24216,1,2,1:2:0:0:
452,97,24383,1,10,1:2:0:0:
404,219,24549,5,2,0:0:0:0:
328,244,24717,1,8,1:2:0:0:
262,199,24883,1,8,0:0:0:0:
84,94,25050,5,8,1:2:0:0:
277,49,25216,1,8,0:0:0:0:
84,300,25383,5,8,1:3:0:0:
99,218,25550,1,4,1:3:0:0:
108,331,25717,1,4,1:3:0:0:
125,193,25884,1,8,0:0:0:0:
208,378,26050,5,8,0:0:0:0:
227,373,26133,1,8,0:0:0:0:
248,368,26217,1,8,0:0:0:0:
267,364,26300,1,8,0:0:0:0:
282,345,26384,5,8,0:0:0:0:
301,348,26466,1,8,0:0:0:0:
322,351,26550,1,8,0:0:0:0:
342,354,26633,1,8,0:0:0:0:
367,360,26716,5,6,1:2:0:0:
499,308,26883,1,0,0:0:0:0:
446,368,27049,1,10,1:2:0:0:
471,223,27216,5,10,0:0:0:0:
349,289,27383,1,8,1:2:0:0:
382,209,27549,1,0,1:0:0:0:
223,293,27716,5,8,0:0:0:0:
325,98,27882,1,0,0:0:0:0:
152,220,28049,5,8,1:3:0:0:
64,162,28216,1,4,1:3:0:0:
197,138,28383,1,4,1:3:0:0:
27,245,28549,1,8,0:0:0:0:
177,376,28716,6,0,P|202:282|288:234,1,200,8|8,0:0|0:0,0:0:0:0:
289,254,29133,1,8,0:0:0:0:
291,273,29216,1,8,0:0:0:0:
292,292,29299,1,8,0:0:0:0:
292,312,29383,5,6,1:2:0:0:
370,293,29550,1,2,1:2:0:0:
445,268,29716,1,10,1:2:0:0:
294,146,29883,5,10,0:0:0:0:
371,125,30050,1,8,1:2:0:0:
448,107,30216,1,8,0:0:0:0:
271,20,30383,5,8,0:0:0:0:
354,207,30549,1,0,1:0:0:0:
144,85,30716,5,8,1:3:0:0:
190,161,30883,1,4,1:3:0:0:
191,7,31050,1,4,1:3:0:0:
107,202,31217,1,8,0:0:0:0:
39,16,31383,2,0,B|21:32|21:32|9:208,1,200,8|8,0:0|0:0,0:0:0:0:
9,240,31800,1,8,0:0:0:0:
41,263,31883,1,8,0:0:0:0:
74,285,31966,1,8,0:0:0:0:
104,310,32049,6,0,L|110:359,1,50,6|0,1:2|0:0,0:0:0:0:
191,384,32217,1,0,0:0:0:0:
235,200,32383,5,8,0:0:0:0:
235,200,32466,1,8,3:2:0:0:
235,200,32549,2,0,L|241:249,1,50,8|0,0:0|0:0,0:0:0:0:
317,293,32717,1,8,1:2:0:0:
372,81,32883,5,8,1:0:0:0:
372,81,32966,1,8,3:2:0:0:
372,81,33049,2,0,L|379:131,1,50,8|0,1:0|0:0,0:0:0:0:
309,169,33216,1,0,0:0:0:0:
160,4,33383,5,8,1:3:0:0:
160,4,33466,1,8,3:2:0:0:
160,4,33549,2,0,L|166:53,1,50,4|0,1:3|0:0,0:0:0:0:
110,110,33717,1,4,1:3:0:0:
4,0,33884,1,8,0:0:0:0:
16,171,34049,2,0,L|22:220,1,50,10|0,1:2|0:0,0:0:0:0:
126,363,34216,5,0,1:0:0:0:
126,363,34300,1,8,3:2:0:0:
126,363,34383,2,0,L|132:313,1,50,8|0,1:2|0:0,0:0:0:0:
238,209,34550,5,0,3:0:0:0:
238,209,34633,1,8,3:2:0:0:
238,209,34716,2,0,L|306:200,1,50,14|0,1:2|0:0,0:0:0:0:
359,255,34883,1,2,1:2:0:0:
253,351,35049,5,10,0:0:0:0:
253,351,35133,1,8,3:2:0:0:
253,351,35216,2,0,L|302:345,1,50,10|0,0:0|0:0,0:0:0:0:
385,384,35383,1,8,1:2:0:0:
397,177,35549,5,0,0:0:0:0:
397,177,35633,1,8,3:2:0:0:
397,177,35716,2,0,L|446:172,1,50,8|0,0:1|0:0,0:0:0:0:
510,230,35882,1,0,1:0:0:0:
288,47,36049,5,8,1:3:0:0:
288,47,36133,1,8,3:2:0:0:
288,47,36216,2,0,L|340:41,1,50,4|0,1:3|0:0,0:0:0:0:
408,88,36383,1,4,1:3:0:0:
147,83,36549,5,8,0:0:0:0:
147,83,36633,1,8,3:2:0:0:
147,83,36716,2,0,L|196:76,1,50,10|0,1:2|0:0,0:0:0:0:
268,117,36883,1,0,0:0:0:0:
91,200,37050,5,8,1:2:0:0:
130,198,37133,1,8,0:0:0:0:
169,194,37216,1,8,0:0:0:0:
208,192,37299,1,8,0:0:0:0:
248,190,37383,6,0,L|198:184,1,50,10|0,1:2|0:0,0:0:0:0:
130,233,37549,1,0,0:0:0:0:
250,306,37716,5,10,1:2:0:0:
250,306,37799,1,8,3:2:0:0:
250,306,37883,2,0,L|200:297,1,50,10|0,0:0|0:0,0:0:0:0:
128,341,38049,1,8,1:2:0:0:
378,246,38216,5,8,0:0:0:0:
378,246,38299,1,8,3:2:0:0:
378,246,38383,2,0,L|328:237,1,50,8|0,1:0|0:0,0:0:0:0:
436,367,38549,5,0,0:0:0:0:
436,367,38633,1,8,3:2:0:0:
436,367,38716,2,0,L|323:343,1,100,6|0,1:2|0:0,0:0:0:0:
512,261,39049,1,8,1:2:0:0:
453,149,39216,1,0,1:0:0:0:
357,98,39383,2,0,L|260:124,1,100,8|0,1:0|1:0,0:0:0:0:
233,15,39633,1,8,3:2:0:0:
233,15,39716,2,0,L|162:85,1,100,8|8,1:0|0:0,0:0:0:0:
30,42,39966,1,8,0:0:0:0:
30,42,40049,6,0,L|31:91,1,50,14|0,1:2|0:0,0:0:0:0:
47,180,40216,2,0,L|48:130,1,50,10|0,1:2|0:0,0:0:0:0:
47,30,40383,6,0,L|48:79,1,50,10|0,1:2|0:0,0:0:0:0:
71,201,40550,2,0,L|72:151,1,50,10|0,1:2|0:0,0:0:0:0:
69,19,40716,6,0,L|70:68,1,50,8|0,1:2|0:0,0:0:0:0:
100,217,40883,2,0,L|101:167,1,50,8|0,1:2|0:0,0:0:0:0:
102,7,41049,6,0,L|103:56,1,50,8|0,1:2|0:0,0:0:0:0:
132,231,41216,2,0,L|133:181,1,50,8|0,1:2|0:0,0:0:0:0:
97,0,41383,5,8,1:3:0:0:
122,0,41466,5,8,0:0:0:0:
150,10,41549,5,8,0:0:0:0:
184,37,41633,5,8,0:0:0:0:
212,76,41716,5,8,0:0:0:0:
235,129,41799,5,8,0:0:0:0:
263,187,41883,5,8,0:0:0:0:
324,222,41966,5,8,0:0:0:0:
396,212,42049,5,8,0:0:0:0:
438,147,42133,5,8,0:0:0:0:
426,73,42216,5,8,0:0:0:0:
364,27,42299,5,8,0:0:0:0:
289,21,42383,5,8,0:0:0:0:
220,60,42466,5,8,0:0:0:0:
188,133,42549,5,8,0:0:0:0:
209,213,42633,5,8,0:0:0:0:
297,220,42716,6,8,B|324:170|351:162|351:162|379:155|422:180|422:180|379:155|372:128|372:128|364:100|394:51|394:51|364:100|337:108|337:108|309:115|266:90|266:90|309:115|317:142|317:142|324:170|309:195,1,600,12|2,1:1|0:0,0:0:0:0:
256,192,44049,12,0,47883,0:0:0:0:
256,192,48049,5,6,0:0:0:0:
181,142,48549,1,2,0:0:0:0:
152,56,49049,1,2,0:0:0:0:
62,50,49383,1,2,0:0:0:0:
28,133,49883,1,2,0:0:0:0:
88,199,50383,1,2,0:0:0:0:
49,279,50716,1,2,0:0:0:0:
123,328,51216,1,2,0:0:0:0:
203,287,51716,1,2,0:0:0:0:
279,335,52049,1,2,0:0:0:0:
359,295,52549,1,2,0:0:0:0:
385,209,53049,1,2,0:0:0:0:
473,172,53383,5,2,0:0:0:0:
481,82,53883,1,2,0:0:0:0:
433,5,54383,1,2,0:0:0:0:
342,24,54716,1,2,0:0:0:0:
288,96,55216,1,2,0:0:0:0:
313,182,55716,1,2,0:0:0:0:
403,213,56049,1,2,0:0:0:0:
443,293,56549,1,2,0:0:0:0:
375,352,57049,1,2,0:0:0:0:
332,269,57383,5,2,0:0:0:0:
85,384,57883,1,2,0:0:0:0:
4,341,58049,2,0,P|2:318|5:296,1,44.999998626709
23,272,58383,1,10,0:0:0:0:
49,257,58466,1,8,0:0:0:0:
78,250,58549,1,8,0:0:0:0:
106,259,58633,1,8,0:0:0:0:
162,278,58716,6,0,L|149:219,1,59.9999981689454,14|0,0:0|0:0,0:0:0:0:
68,162,59049,1,0,1:0:0:0:
68,162,59216,2,0,L|84:84,1,59.9999981689454,8|0,0:0|1:0,0:0:0:0:
180,59,59549,1,0,1:0:0:0:
180,59,59716,2,0,L|189:0,1,59.9999981689454,10|0,0:0|1:0,0:0:0:0:
251,116,60049,5,10,1:2:0:0:
310,56,60216,2,0,L|368:42,1,59.9999981689454,10|0,0:0|1:0,0:0:0:0:
403,138,60549,1,2,1:2:0:0:
403,138,60716,2,0,L|457:162,1,59.9999981689454,8|0,0:0|1:0,0:0:0:0:
325,187,61049,2,0,L|340:246,1,59.9999981689454,10|8,0:0|0:0,0:0:0:0:
370,261,61299,1,8,0:0:0:0:
402,272,61383,6,0,L|411:331,1,59.9999981689454,14|0,0:0|1:0,0:0:0:0:
286,319,61716,1,0,1:0:0:0:
286,319,61883,2,0,L|294:379,1,59.9999981689454,10|0,0:0|0:0,0:0:0:0:
183,278,62216,1,0,1:0:0:0:
183,278,62383,2,0,L|172:219,1,59.9999981689454,10|0,0:0|0:0,0:0:0:0:
117,353,62716,1,10,1:3:0:0:
17,320,62883,2,0,L|5:261,1,59.9999981689454,8|0,0:0|1:0,0:0:0:0:
70,164,63216,1,2,1:2:0:0:
70,164,63383,5,8,0:0:0:0:
98,154,63466,1,8,0:0:0:0:
124,140,63549,1,8,0:0:0:0:
146,119,63633,1,8,0:0:0:0:
164,95,63716,1,10,0:0:0:0:
0,0,63883,5,8,0:0:0:0:
8,28,63966,1,8,0:0:0:0:
26,49,64049,6,0,P|56:49|86:43,1,59.9999981689454,14|0,0:2|0:0,0:0:0:0:
185,7,64383,1,0,1:0:0:0:
185,7,64549,2,0,P|210:22|235:39,1,59.9999981689454,10|0,0:0|1:0,0:0:0:0:
292,133,64883,1,0,1:0:0:0:
292,133,65050,2,0,P|293:162|287:192,1,59.9999981689454,10|0,0:0|0:0,0:0:0:0:
231,264,65383,1,10,1:3:0:0:
281,339,65550,2,0,P|311:336|340:328,1,59.9999981689454,8|0,0:0|0:0,0:0:0:0:
443,317,65883,1,2,1:2:0:0:
443,317,66050,2,0,P|471:325|498:338,1,59.9999981689454,8|0,0:0|0:0,0:0:0:0:
381,234,66383,2,0,P|379:204|381:174,1,59.9999981689454,10|8,0:0|0:0,0:0:0:0:
404,152,66633,1,8,0:0:0:0:
431,140,66716,6,0,P|458:151|487:158,1,59.9999981689454,14|0,0:0|1:0,0:0:0:0:
388,38,67049,1,0,1:0:0:0:
388,38,67216,2,0,P|362:51|332:57,1,59.9999981689454,10|0,0:0|0:0,0:0:0:0:
239,26,67549,1,0,1:0:0:0:
239,26,67716,2,0,P|210:33|185:51,1,59.9999981689454,8|0,0:0|0:0,0:0:0:0:
143,151,68049,6,0,P|167:227|179:306,1,160,14|0,1:3|0:0,0:0:0:0:
57,262,68549,1,10,0:0:0:0:
46,245,68633,1,8,0:0:0:0:
45,221,68716,1,8,0:0:0:0:
251,117,68883,1,0,1:0:0:0:
302,333,69049,5,10,0:1:0:0:
302,333,69133,1,8,3:2:0:0:
302,333,69216,1,8,3:2:0:0:
302,333,69299,1,8,3:2:0:0:
302,332,69383,6,0,P|367:257|445:195,1,200,6|0,1:2|1:0,0:0:0:0:
509,370,69883,2,0,P|461:360|416:338,1,100,8|0,1:2|1:0,0:0:0:0:
318,211,70215,1,0,0:0:0:0:
377,134,70383,2,0,P|384:84|390:34,1,100,8|0,0:0|0:0,0:0:0:0:
191,130,70716,2,0,P|210:176|224:223,1,100,10|8,1:3|0:0,0:0:0:0:
198,364,71049,1,8,1:2:0:0:
64,299,71216,1,10,0:0:0:0:
48,317,71299,1,8,0:0:0:0:
29,336,71383,1,8,1:2:0:0:
290,308,71549,1,0,0:0:0:0:
94,198,71716,5,10,1:2:0:0:
56,165,71799,1,8,0:0:0:0:
37,118,71883,1,8,0:0:0:0:
43,68,71966,1,8,0:0:0:0:
0,4,72049,6,0,P|90:44|188:34,1,200,6|0,1:2|1:0,0:0:0:0:
402,32,72549,2,0,P|355:14|307:0,1,100,8|0,0:0|1:0,0:0:0:0:
197,163,72883,1,0,1:0:0:0:
263,224,73049,2,0,P|311:212|357:193,1,100,8|0,0:0|0:0,0:0:0:0:
494,129,73382,6,0,P|478:176|462:223,1,100,10|8,1:3|0:0,0:0:0:0:
436,371,73715,1,8,0:0:0:0:
347,303,73883,5,2,1:2:0:0:
327,301,73965,1,8,3:2:0:0:
307,303,74049,1,8,1:2:0:0:
288,310,74133,1,8,0:0:0:0:
270,319,74215,1,8,0:0:0:0:
255,333,74299,1,8,0:0:0:0:
221,370,74383,5,10,1:2:0:0:
172,378,74465,1,8,0:0:0:0:
122,366,74549,1,8,0:0:0:0:
91,326,74632,1,8,0:0:0:0:
45,384,74716,6,0,P|65:286|75:186,1,200,6|0,1:2|1:0,0:0:0:0:
16,8,75216,2,0,P|8:57|7:107,1,100,8|0,0:0|1:0,0:0:0:0:
206,183,75548,1,0,0:0:0:0:
265,111,75716,2,0,P|314:102|362:90,1,100,8|0,0:0|0:0,0:0:0:0:
358,290,76049,2,0,P|312:270|264:256,1,100,10|8,1:3|0:0,0:0:0:0:
15,307,76382,1,8,0:0:0:0:
166,382,76549,1,2,1:2:0:0:
185,381,76632,1,8,0:0:0:0:
206,380,76716,1,8,0:0:0:0:
42,207,76882,1,0,0:0:0:0:
245,157,77049,5,10,0:0:0:0:
294,152,77132,1,8,0:0:0:0:
340,171,77216,1,8,0:0:0:0:
373,207,77299,1,8,0:0:0:0:
379,312,77383,6,0,P|406:216|446:125,1,200,6|0,1:2|1:0,0:0:0:0:
512,1,77883,2,0,P|462:10|413:13,1,100,8|0,0:0|1:0,0:0:0:0:
230,86,78215,1,0,1:0:0:0:
150,27,78383,2,0,P|100:33|50:36,1,100,8|0,0:0|0:0,0:0:0:0:
185,240,78716,2,0,P|234:239|284:235,1,100,10|8,1:2|0:0,0:0:0:0:
512,157,79049,1,8,0:0:0:0:
371,117,79216,1,2,1:2:0:0:
365,96,79299,1,8,3:2:0:0:
359,75,79383,1,8,0:0:0:0:
431,334,79549,1,0,0:0:0:0:
304,364,79716,5,8,0:0:0:0:
256,378,79799,1,8,0:0:0:0:
205,379,79883,1,8,0:0:0:0:
162,352,79966,1,8,0:0:0:0:
105,292,80049,6,0,P|51:305|-1:324,1,110.000003356934,14|0,1:2|0:0,0:0:0:0:
307,148,80383,2,0,P|252:155|198:164,1,110.000003356934,8|8,0:0|0:0,0:0:0:0:
36,188,80632,1,8,3:2:0:0:
36,188,80716,2,0,P|36:133|37:78,1,110.000003356934,8|0,1:2|0:0,0:0:0:0:
169,0,81049,1,8,1:2:0:0:
203,188,81216,1,0,0:0:0:0:
387,73,81383,6,0,P|332:64|277:60,1,110.000003356934,10|8,1:3|0:0,0:0:0:0:
117,248,81716,1,0,1:2:0:0:
224,290,81883,1,2,1:2:0:0:
226,306,81966,1,8,3:2:0:0:
226,326,82049,1,8,1:2:0:0:
346,169,82216,1,0,0:0:0:0:
366,323,82383,5,10,0:0:0:0:
406,359,82466,1,8,0:0:0:0:
459,371,82549,1,8,0:0:0:0:
511,352,82633,1,8,0:0:0:0:
512,267,82716,6,0,P|503:212|487:159,1,110.000003356934,6|0,1:2|0:0,0:0:0:0:
399,58,83050,2,0,P|376:108|361:161,1,110.000003356934,8|8,1:2|0:0,0:0:0:0:
299,21,83299,1,8,3:2:0:0:
299,21,83383,2,0,P|252:25|189:18,1,110.000003356934,8|0,1:2|0:0,0:0:0:0:
0,0,83716,1,8,1:2:0:0:
88,76,83883,1,0,0:0:0:0:
14,155,84050,6,0,P|29:209|40:263,1,110.000003356934,10|8,1:3|0:0,0:0:0:0:
7,380,84383,1,8,0:0:0:0:
168,324,84550,1,2,1:2:0:0:
178,301,84633,1,8,3:2:0:0:
171,274,84716,1,8,0:0:0:0:
110,165,84883,1,0,0:0:0:0:
252,99,85049,5,10,0:0:0:0:
299,128,85133,1,8,0:0:0:0:
353,131,85216,1,8,0:0:0:0:
404,111,85300,1,8,0:0:0:0:
474,72,85383,6,0,P|451:122|436:175,1,110.000003356934,14|0,1:2|0:0,0:0:0:0:
277,375,85717,2,0,P|260:322|247:269,1,110.000003356934,8|8,1:2|0:0,0:0:0:0:
112,178,85966,1,8,3:2:0:0:
112,178,86050,2,0,P|118:123|124:68,1,110.000003356934,8|0,1:2|0:0,0:0:0:0:
0,41,86383,1,8,1:2:0:0:
229,3,86550,1,0,1:0:0:0:
0,223,86717,6,0,P|6:277|17:331,1,110.000003356934,10|8,1:3|0:0,0:0:0:0:
134,360,87050,1,8,0:0:0:0:
233,297,87217,1,2,1:2:0:0:
233,274,87299,1,8,3:2:0:0:
233,251,87383,1,8,0:0:0:0:
329,166,87550,1,0,0:0:0:0:
447,234,87716,5,10,0:0:0:0:
495,261,87800,1,8,0:0:0:0:
507,297,87883,1,8,0:0:0:0:
503,352,87967,1,8,0:0:0:0:
429,381,88049,6,0,P|400:379|371:371,1,59.9999981689454,12|0,1:2|0:0,0:0:0:0:
376,346,88216,2,0,P|405:349|433:359,1,59.9999981689454,8|0,1:2|0:0,0:0:0:0:
240,275,88383,6,0,P|210:276|177:285,1,64.9999970245363,8|0,1:2|0:0,0:0:0:0:
182,320,88550,2,0,P|214:316|245:308,1,64.9999970245363,8|0,1:2|0:0,0:0:0:0:
400,123,88716,6,0,P|365:119|330:122,1,69.9999978637696,8|0,1:2|0:0,0:0:0:0:
329,166,88883,2,0,P|362:174|397:170,1,69.9999978637696,8|0,1:2|0:0,0:0:0:0:
182,90,89049,6,0,P|145:101|108:103,1,75.0000028610231,8|0,1:0|0:0,0:0:0:0:
100,43,89216,2,0,P|137:32|173:30,1,75.0000028610231
337,16,89383,5,6,1:2:0:0:
418,6,89549,1,0,1:0:0:0:
499,19,89716,2,0,P|500:48|499:78,1,59.9999981689454,8|0,0:0|0:0,0:0:0:0:
485,221,89883,5,2,1:2:0:0:
404,211,90049,1,0,1:0:0:0:
322,224,90216,2,0,P|320:253|321:283,1,59.9999981689454,8|0,0:0|0:0,0:0:0:0:
253,382,90383,6,0,B|220:370|199:373|199:373|153:346|153:346|120:338|86:346|86:346|80:318|55:296|55:296|60:271|47:233,1,300,10|8,1:0|0:0,0:0:0:0:
27,241,90716,6,0,L|4:358,1,119.999996337891,6|0,1:2|0:0,0:0:0:0:
183,229,91049,1,8,0:0:0:0:
111,131,91216,1,0,1:0:0:0:
111,131,91299,1,8,3:2:0:0:
111,131,91383,1,0,1:0:0:0:
311,22,91549,1,8,0:0:0:0:
161,15,91716,1,8,1:0:0:0:
160,15,91799,1,8,3:2:0:0:
161,15,91883,1,0,0:0:0:0:
330,148,92049,5,2,1:2:0:0:
452,160,92216,1,8,0:0:0:0:
493,83,92383,1,0,1:0:0:0:
461,317,92549,5,10,0:0:0:0:
339,294,92716,1,8,0:0:0:0:
280,363,92883,1,0,0:0:0:0:
117,261,93049,6,0,P|88:262|58:267,1,59.9999981689454,10|8,0:0|0:0,0:0:0:0:
98,383,93216,2,0,P|123:367|150:355,1,59.9999981689454,8|8,0:0|0:0,0:0:0:0:
233,212,93383,6,0,P|245:153|259:95,1,119.999996337891,6|0,1:2|0:0,0:0:0:0:
9,8,93716,1,8,0:0:0:0:
105,129,93883,1,0,1:0:0:0:
105,129,93966,1,8,3:2:0:0:
105,129,94049,1,0,1:0:0:0:
0,335,94216,1,8,0:0:0:0:
188,369,94383,1,8,1:0:0:0:
188,369,94466,1,8,3:2:0:0:
188,369,94550,1,0,0:0:0:0:
308,224,94716,5,2,1:2:0:0:
392,325,94883,1,8,0:0:0:0:
330,384,95050,1,0,1:0:0:0:
501,203,95216,5,10,0:0:0:0:
423,111,95383,1,8,0:0:0:0:
480,40,95549,1,0,0:0:0:0:
284,4,95716,5,10,0:0:0:0:
230,31,95799,1,8,0:0:0:0:
198,82,95883,1,8,0:0:0:0:
198,141,95966,1,8,0:0:0:0:
248,205,96049,6,0,P|191:189|133:175,1,119.999996337891,6|0,1:2|0:0,0:0:0:0:
0,24,96382,1,8,0:0:0:0:
19,229,96549,1,0,1:0:0:0:
19,229,96632,1,8,3:2:0:0:
19,229,96716,1,0,1:0:0:0:
129,104,96882,1,8,0:0:0:0:
135,327,97049,1,8,1:0:0:0:
135,327,97132,1,8,3:2:0:0:
135,327,97216,1,0,0:0:0:0:
268,270,97382,5,2,1:2:0:0:
387,246,97549,1,8,0:0:0:0:
311,190,97716,1,0,1:0:0:0:
393,93,97883,5,10,0:0:0:0:
512,117,98050,1,8,1:2:0:0:
437,167,98217,1,0,0:0:0:0:
492,325,98382,6,0,P|500:355|505:384,1,59.9999981689454,8|8,0:0|0:0,0:0:0:0:
357,348,98549,2,0,P|327:348|297:354,1,59.9999981689454,8|8,0:0|0:0,0:0:0:0:
54,282,98716,6,0,P|110:263|170:255,1,119.999996337891,4|0,1:2|0:0,0:0:0:0:
114,384,99049,1,8,0:0:0:0:
7,201,99216,1,8,0:0:0:0:
7,201,99299,1,8,3:2:0:0:
7,201,99383,1,0,1:0:0:0:
76,45,99549,1,8,0:0:0:0:
167,169,99716,1,8,1:0:0:0:
167,169,99799,1,8,3:2:0:0:
167,169,99883,1,0,0:0:0:0:
273,5,100049,5,2,1:2:0:0:
442,29,100216,1,8,0:0:0:0:
512,0,100383,1,0,1:2:0:0:
265,136,100549,5,2,1:2:0:0:
434,112,100716,1,8,0:0:0:0:
504,141,100883,1,0,1:2:0:0:
379,299,101049,5,8,0:0:0:0:
368,239,101133,1,8,0:0:0:0:
358,180,101216,1,8,0:0:0:0:
348,121,101299,1,8,0:0:0:0:
337,38,101383,6,0,P|280:18|221:5,1,119.999996337891,6|0,1:2|0:0,0:0:0:0:
76,0,101716,1,8,0:0:0:0:
113,114,101883,1,8,0:0:0:0:
113,114,101966,1,8,3:2:0:0:
113,114,102050,1,0,1:0:0:0:
0,80,102216,1,8,0:0:0:0:
44,203,102383,1,8,1:0:0:0:
44,203,102466,1,8,3:2:0:0:
44,203,102550,1,0,0:0:0:0:
301,152,102716,5,8,1:3:0:0:
140,211,102883,1,8,0:0:0:0:
113,114,103050,1,0,1:0:0:0:
253,258,103216,5,2,1:2:0:0:
414,199,103383,1,8,0:0:0:0:
441,296,103550,1,0,0:0:0:0:
157,320,103716,6,0,P|128:325|98:326,1,59.9999981689454,10|8,0:0|0:0,0:0:0:0:
0,211,103883,2,0,P|29:209|59:214,1,59.9999981689454,8|8,0:0|0:0,0:0:0:0:
253,258,104049,6,0,P|272:314|286:373,1,119.999996337891,6|0,1:2|0:0,0:0:0:0:
307,170,104382,1,8,0:0:0:0:
441,296,104549,1,8,0:0:0:0:
441,296,104632,1,8,3:2:0:0:
441,296,104716,1,0,1:0:0:0:
211,384,104882,1,8,0:0:0:0:
347,266,105049,1,8,1:0:0:0:
347,266,105133,1,8,3:2:0:0:
347,266,105216,1,0,0:0:0:0:
135,240,105382,5,2,1:2:0:0:
62,14,105549,1,8,0:0:0:0:
36,102,105716,1,0,0:0:0:0:
244,244,105883,5,2,1:2:0:0:
317,18,106050,1,8,0:0:0:0:
343,106,106217,1,0,1:0:0:0:
188,0,106383,5,10,0:0:0:0:
161,53,106466,1,8,0:0:0:0:
155,112,106549,1,8,0:0:0:0:
177,168,106633,1,8,0:0:0:0:
116,213,106716,6,0,P|175:215|235:222,1,119.999996337891,6|0,1:2|0:0,0:0:0:0:
471,194,107049,1,8,0:0:0:0:
343,106,107216,1,8,0:0:0:0:
343,106,107299,1,8,3:2:0:0:
343,106,107383,1,0,1:0:0:0:
471,84,107549,1,8,0:0:0:0:
320,298,107716,1,8,1:0:0:0:
320,298,107799,1,8,3:2:0:0:
320,298,107883,1,0,0:0:0:0:
480,275,108049,5,6,1:2:0:0:
269,382,108216,1,8,0:0:0:0:
187,326,108383,1,0,1:0:0:0:
26,132,108549,5,10,0:0:0:0:
237,239,108716,1,8,0:0:0:0:
319,183,108883,1,0,1:0:0:0:
494,2,109049,6,0,P|464:6|435:12,1,59.9999981689454,10|0,0:0|0:0,0:0:0:0:
340,56,109216,2,0,P|310:59|281:60,1,59.9999981689454,0|0,1:0|1:0,0:0:0:0:
170,0,109383,6,0,P|114:19|63:50,1,119.999996337891,6|0,1:2|0:0,0:0:0:0:
6,239,109716,1,8,0:0:0:0:
128,384,109883,2,0,P|134:354|144:326,1,59.9999981689454,8|0,0:0|0:0,0:0:0:0:
177,265,110049,2,0,P|188:237|196:208,1,59.9999981689454,8|0,0:0|0:0,0:0:0:0:
172,135,110216,1,0,1:0:0:0:
265,379,110383,2,0,P|273:349|282:321,1,59.9999981689454,8|0,0:0|0:0,0:0:0:0:
260,253,110549,1,0,1:0:0:0:
439,381,110716,5,14,1:2:0:0:
411,378,110799,1,8,3:2:0:0:
384,368,110883,1,8,0:0:0:0:
414,264,111049,1,8,0:0:0:0:
476,227,111216,1,10,0:0:0:0:
498,157,111383,1,8,0:0:0:0:
489,84,111549,1,8,0:0:0:0:
273,8,111716,6,0,P|175:4|104:71,1,200,8|0,1:0|0:0,0:0:0:0:
100,149,111966,1,0,0:0:0:0:
203,239,112049,6,0,P|193:164|182:90,1,150.000005722046,6|0,1:2|0:0,0:0:0:0:
200,79,112299,1,8,3:2:0:0:
221,80,112383,1,0,1:0:0:0:
399,141,112549,1,8,0:0:0:0:
312,221,112716,1,0,1:2:0:0:
330,78,112883,1,0,1:0:0:0:
386,281,113049,1,8,0:0:0:0:
237,381,113216,1,0,0:0:0:0:
291,307,113383,5,12,1:3:0:0:
61,365,113549,1,8,1:2:0:0:
18,248,113716,1,0,1:0:0:0:
18,248,113799,1,8,3:2:0:0:
18,248,113883,1,10,1:2:0:0:
154,313,114049,1,8,0:0:0:0:
111,35,114216,1,0,0:0:0:0:
83,161,114383,5,8,0:0:0:0:
144,202,114466,1,8,0:0:0:0:
218,202,114549,1,8,0:0:0:0:
279,158,114633,1,8,0:0:0:0:
319,228,114716,6,0,P|311:153|301:79,1,150.000005722046,6|0,1:2|0:0,0:0:0:0:
281,73,114966,1,8,3:2:0:0:
255,68,115050,1,0,1:0:0:0:
460,24,115216,1,8,0:0:0:0:
346,0,115383,1,0,1:2:0:0:
512,116,115550,1,8,0:0:0:0:
385,109,115716,1,8,0:0:0:0:
229,269,115883,1,0,1:0:0:0:
380,249,116050,5,12,1:3:0:0:
512,381,116216,1,0,0:0:0:0:
512,381,116299,1,8,3:2:0:0:
512,381,116383,1,0,1:0:0:0:
512,260,116550,1,10,0:0:0:0:
319,384,116716,1,8,0:0:0:0:
198,288,116883,2,0,P|161:285|124:280,1,75.0000028610231,0|0,1:0|0:0,0:0:0:0:
9,136,117050,5,10,0:0:0:0:
26,63,117133,1,8,0:0:0:0:
86,19,117216,1,8,0:0:0:0:
159,8,117299,1,8,0:0:0:0:
228,37,117383,6,0,P|210:109|203:184,1,150.000005722046,6|0,1:2|0:0,0:0:0:0:
225,199,117633,1,8,3:2:0:0:
256,190,117717,1,8,0:0:0:0:
394,0,117883,1,8,0:0:0:0:
319,50,118050,1,0,0:0:0:0:
381,266,118217,1,8,1:2:0:0:
477,195,118383,1,8,0:0:0:0:
373,130,118550,1,0,0:0:0:0:
105,267,118717,5,12,1:3:0:0:
21,169,118883,1,8,1:2:0:0:
42,361,119050,1,0,1:0:0:0:
42,361,119133,1,8,3:2:0:0:
42,361,119217,1,2,1:2:0:0:
218,304,119383,1,8,0:0:0:0:
105,267,119550,1,0,1:0:0:0:
297,384,119716,5,8,0:0:0:0:
373,384,119800,1,8,0:0:0:0:
441,354,119883,1,8,0:0:0:0:
493,299,119967,1,8,0:0:0:0:
502,225,120049,6,0,P|485:151|471:78,1,150.000005722046,6|0,1:2|0:0,0:0:0:0:
478,65,120299,1,8,3:2:0:0:
490,50,120383,1,0,1:0:0:0:
370,162,120549,1,8,0:0:0:0:
383,310,120716,1,0,1:2:0:0:
374,155,120883,1,0,1:0:0:0:
230,122,121049,1,8,0:0:0:0:
210,0,121216,1,0,0:0:0:0:
24,130,121383,5,12,1:3:0:0:
37,0,121549,1,0,0:0:0:0:
134,176,121716,1,0,1:2:0:0:
137,195,121799,1,8,3:2:0:0:
143,212,121883,1,2,3:2:0:0:
187,366,122049,1,8,0:0:0:0:
6,328,122216,2,0,P|40:314|76:304,1,75.0000028610231,0|0,1:0|0:0,0:0:0:0:
278,260,122383,5,10,0:0:0:0:
348,235,122466,1,8,0:0:0:0:
416,264,122549,1,8,0:0:0:0:
440,335,122633,1,8,0:0:0:0:
363,383,122716,6,0,P|351:308|348:234,1,150.000005722046,14|0,1:2|0:0,0:0:0:0:
392,147,123049,2,0,P|388:110|379:74,1,75.0000028610231,8|0,1:2|0:0,0:0:0:0:
241,0,123216,2,0,P|243:37|250:74,1,75.0000028610231,8|0,0:0|0:0,0:0:0:0:
140,188,123383,2,0,P|134:150|126:114,1,75.0000028610231,8|0,1:2|0:0,0:0:0:0:
51,80,123550,1,0,1:0:0:0:
22,371,123716,2,0,P|58:359|95:351,1,75.0000028610231,8|0,1:1|0:0,0:0:0:0:
196,382,123883,5,0,1:0:0:0:
196,382,123966,1,8,3:2:0:0:
196,382,124050,1,12,1:3:0:0:
387,341,124216,2,0,P|422:353|457:366,1,75.0000028610231,8|0,0:0|0:0,0:0:0:0:
512,250,124383,2,0,P|506:213|499:177,1,75.0000028610231,8|8,1:2|0:0,0:0:0:0:
421,156,124550,1,10,0:0:0:0:
501,0,124716,2,0,P|470:21|436:38,1,75.0000028610231,8|0,1:2|0:0,0:0:0:0:
368,0,124883,1,0,1:0:0:0:
303,202,125050,5,8,1:2:0:0:
279,131,125133,1,8,0:0:0:0:
217,88,125216,1,8,0:0:0:0:
142,76,125300,1,8,0:0:0:0:
165,165,125383,6,0,P|229:127|286:78,1,150.000005722046,6|0,1:2|0:0,0:0:0:0:
154,0,125633,1,8,3:2:0:0:
154,0,125716,2,0,P|116:5|80:12,1,75.0000028610231,8|0,1:2|0:0,0:0:0:0:
0,117,125883,2,0,P|36:125|72:137,1,75.0000028610231,8|0,0:0|0:0,0:0:0:0:
205,250,126050,2,0,P|169:263|135:278,1,75.0000028610231,0|0,1:0|0:0,0:0:0:0:
40,236,126217,1,8,0:0:0:0:
315,258,126383,2,0,P|306:294|301:331,1,75.0000028610231,8|0,0:1|0:0,0:0:0:0:
421,380,126550,5,0,1:0:0:0:
421,380,126633,1,8,0:0:0:0:
421,380,126717,1,12,1:3:0:0:
502,252,126883,2,0,P|497:215|489:179,1,75.0000028610231,8|0,0:0|0:0,0:0:0:0:
314,56,127050,2,0,P|336:88|355:120,1,75.0000028610231,0|8,1:0|0:0,0:0:0:0:
312,179,127217,1,10,0:0:0:0:
194,380,127383,2,0,P|187:343|181:306,1,75.0000028610231,8|0,1:2|0:0,0:0:0:0:
108,384,127550,1,0,1:0:0:0:
0,128,127717,5,8,1:2:0:0:
8,53,127800,1,8,0:0:0:0:
65,5,127883,1,8,0:0:0:0:
140,0,127967,1,8,0:0:0:0:
200,41,128049,6,0,P|194:115|183:189,1,150.000005722046,6|0,1:2|0:0,0:0:0:0:
270,217,128299,1,8,0:0:0:0:
270,217,128382,2,0,P|306:216|336:194,1,75.0000028610231,8|0,1:2|0:0,0:0:0:0:
356,58,128549,2,0,P|374:92|389:126,1,75.0000028610231,8|0,0:0|0:0,0:0:0:0:
512,227,128716,2,0,P|480:207|444:194,1,75.0000028610231,0|0,1:0|0:0,0:0:0:0:
388,270,128883,1,0,1:0:0:0:
511,1,129049,2,0,P|477:15|440:20,1,75.0000028610231,8|0,1:1|0:0,0:0:0:0:
292,0,129216,5,0,1:0:0:0:
292,0,129299,1,8,0:0:0:0:
292,0,129383,1,12,1:3:0:0:
190,186,129549,2,0,P|154:178|118:167,1,75.0000028610231,8|0,0:0|0:0,0:0:0:0:
89,11,129716,2,0,P|84:48|77:84,1,75.0000028610231,8|8,1:2|0:0,0:0:0:0:
18,160,129883,1,10,0:0:0:0:
267,151,130049,2,0,P|275:187|281:224,1,75.0000028610231,8|0,1:2|0:0,0:0:0:0:
224,297,130216,1,0,1:0:0:0:
475,272,130383,5,10,1:2:0:0:
502,202,130466,1,8,0:0:0:0:
506,127,130549,1,8,0:0:0:0:
477,56,130633,1,8,0:0:0:0:
416,10,130716,6,0,P|382:26|350:45,1,75.0000028610231,14|0,1:2|0:0,0:0:0:0:
251,6,130883,2,0,P|267:39|281:74,1,75.0000028610231,10|0,1:2|0:0,0:0:0:0:
194,170,131049,6,0,P|160:152|127:136,1,75.0000028610231,10|0,1:2|0:0,0:0:0:0:
72,206,131216,2,0,P|85:240|96:276,1,75.0000028610231,10|0,1:2|0:0,0:0:0:0:
273,368,131383,6,0,P|274:326|277:293,1,75.0000028610231,8|0,1:2|0:0,0:0:0:0:
348,248,131549,2,0,P|384:257|420:266,1,75.0000028610231,8|0,1:2|0:0,0:0:0:0:
191,49,131716,6,0,P|154:57|118:64,1,75.0000028610231,8|0,1:2|0:0,0:0:0:0:
52,11,131883,2,0,P|19:26|0:58,1,75.0000028610231,8|0,1:2|0:0,0:0:0:0:
20,266,132049,5,12,1:3:0:0:
25,295,132133,5,8,0:0:0:0:
41,328,132216,5,8,0:0:0:0:
75,356,132299,5,8,0:0:0:0:
123,377,132383,5,8,0:0:0:0:
182,384,132466,5,8,0:0:0:0:
248,374,132549,5,10,0:0:0:0:
320,352,132633,5,8,0:0:0:0:
391,312,132716,5,8,0:0:0:0:
456,250,132799,5,8,0:0:0:0:
478,154,132883,5,8,0:0:0:0:
485,49,132966,5,8,0:0:0:0:
382,0,133049,6,0,P|309:19|240:48,1,150.000005722046,8|4,0:1|1:3,0:0:0:0:
116,128,133299,1,4,1:3:0:0:
33,104,133383,6,0,B|19:62|17:14|17:14|34:60|37:100,1,180,4|0,0:0|0:0,0:0:0:0:
