osu file format v14

[General]
AudioFilename: audio.mp3
AudioLeadIn: 0
PreviewTime: 68049
Countdown: 0
SampleSet: Soft
StackLeniency: 0.4
Mode: 0
LetterboxInBreaks: 0
WidescreenStoryboard: 1

[Editor]
Bookmarks: 50,10716,21383,32049,42716,48049,58716,69383,80049,90716,112049,112133,112216,112299,112383,122716,133383
DistanceSpacing: 0.7
BeatDivisor: 16
GridSize: 32
TimelineZoom: 3.699998

[Metadata]
Title:RE Aoharu
TitleUnicode:RE Aoharu
Artist:Nor
ArtistUnicode:Nor
Creator:Shurelia
Version:Gehenna
Source:ブルーアーカイブ -Blue Archive-
Tags:ブルアカ future bass electronic instrumental video game yostar gacha nat games theme 59 pv4 Reaching for the precious time captin1 anxient supav too Kyuuchie lit120 -Hakurei- nakazawa nozhomi tycani fuiba fuyu
BeatmapID:4031264
BeatmapSetID:1935191

[Difficulty]
HPDrainRate:6
CircleSize:4
OverallDifficulty:9
ApproachRate:9.5
SliderMultiplier:2
SliderTickRate:1

[Events]
//Background and Video events
0,0,"gehennabg.jpg",0,0
//Break Periods
//Storyboard Layer 0 (Background)
//Storyboard Layer 1 (Fail)
//Storyboard Layer 2 (Pass)
//Storyboard Layer 3 (Foreground)
//Storyboard Layer 4 (Overlay)
//Storyboard Sound Samples

[TimingPoints]
50,333.333333333333,4,2,2,70,1,0
10383,-50,4,2,2,70,0,0
10716,-66.6666666666667,4,2,2,70,0,0
18716,-58.8235294117647,4,2,2,70,0,0
20049,-133.333333333333,4,2,2,70,0,0
20383,-66.6666666666667,4,2,2,70,0,0
21383,-33.3333333333333,4,2,2,80,0,0
21716,-66.6666666666667,4,2,2,80,0,0
22716,-35.7142857142857,4,2,2,80,0,0
23383,-66.6666666666667,4,2,2,80,0,0
23716,-55.5555555555556,4,2,2,80,0,0
24049,-40,4,2,2,80,0,0
24549,-55.5555555555556,4,2,2,80,0,0
25383,-35.7142857142857,4,2,2,80,0,0
25883,-55.5555555555556,4,2,2,80,0,0
26716,-33.3333333333333,4,2,2,80,0,0
27049,-66.6666666666667,4,2,2,80,0,0
28049,-35.7142857142857,4,2,2,80,0,0
28549,-55.5555555555556,4,2,2,80,0,0
29383,-40,4,2,2,80,0,0
29883,-55.5555555555556,4,2,2,80,0,0
30716,-40,4,2,2,80,0,0
31383,-200,4,2,2,80,0,0
32049,-33.3333333333333,4,2,2,80,0,0
32383,-50,4,2,2,80,0,0
32883,-33.3333333333333,4,2,2,80,0,0
33383,-100,4,2,2,80,0,0
34716,-40,4,2,2,80,0,0
35216,-55.5555555555556,4,2,2,80,0,0
35716,-133.333333333333,4,2,2,80,0,0
36049,-40,4,2,2,80,0,0
36716,-333.333333333333,4,2,2,80,0,0
37383,-40,4,2,2,80,0,0
38049,-47.6190476190476,4,2,2,80,0,0
38383,-33.3333333333333,4,2,2,80,0,0
39049,-66.6666666666667,4,2,2,80,0,0
39383,-40,4,2,2,80,0,0
40049,-50,4,2,2,80,0,0
41383,-70.1588839691461,4,2,2,80,0,0
42716,-1000,4,2,2,80,0,0
44716,-1000,4,2,2,60,0,0
48049,-100,4,2,2,40,0,0
48549,-166.666666666667,4,2,2,40,0,0
49049,-100,4,2,2,40,0,0
49383,-133.333333333333,4,2,2,40,0,0
50716,-200,4,2,2,40,0,0
52049,-133.333333333333,4,2,2,40,0,0
52549,-200,4,2,2,40,0,0
53383,-100,4,2,2,40,0,0
53883,-133.333333333333,4,2,2,40,0,0
54383,-100,4,2,2,40,0,0
55216,-133.333333333333,4,2,2,40,0,0
56049,-200,4,2,2,40,0,0
58716,-66.6666666666667,4,2,3,50,0,0
59049,-100,4,2,3,50,0,0
59216,-66.6666666666667,4,2,3,50,0,0
64383,-100,4,2,3,50,0,0
64549,-66.6666666666667,4,2,3,50,0,0
68216,-55.5555555555556,4,2,3,50,0,0
69049,-250,4,2,3,60,0,0
69383,-50,4,2,2,70,0,0
69716,-76.9230769230769,4,2,2,70,0,0
69883,-66.6666666666667,4,2,2,70,0,0
70716,-66.6666666666667,4,2,3,70,0,0
70883,-66.6666666666667,4,2,2,70,0,0
71383,-58.8235294117647,4,2,2,70,0,0
72049,-50,4,2,2,70,0,0
72383,-76.9230769230769,4,2,2,70,0,0
72549,-66.6666666666667,4,2,2,70,0,0
73383,-66.6666666666667,4,2,3,70,0,0
73549,-66.6666666666667,4,2,2,70,0,0
74716,-50,4,2,2,70,0,0
75049,-76.9230769230769,4,2,2,70,0,0
75216,-66.6666666666667,4,2,2,70,0,0
76049,-66.6666666666667,4,2,3,70,0,0
76216,-66.6666666666667,4,2,2,70,0,0
77383,-50,4,2,2,70,0,0
77716,-76.9230769230769,4,2,2,70,0,0
77883,-66.6666666666667,4,2,2,70,0,0
78716,-58.8235294117647,4,2,3,70,0,0
78883,-58.8235294117647,4,2,2,70,0,0
79716,-41.2699274827562,4,2,2,70,0,0
80049,-50,4,2,2,70,0,0
80383,-66.6666666666667,4,2,2,70,0,0
80716,-55.5555555555556,4,2,2,70,0,0
81049,-100,4,2,2,70,0,0
81383,-58.8235294117647,4,2,3,70,0,0
81549,-66.6666666666667,4,2,2,70,0,0
81716,-58.8235294117647,4,2,2,70,0,0
82716,-50,4,2,2,70,0,0
83049,-66.6666666666667,4,2,2,70,0,0
83383,-58.8235294117647,4,2,2,70,0,0
83716,-66.6666666666667,4,2,2,70,0,0
84049,-58.8235294117647,4,2,3,70,0,0
84216,-66.6666666666667,4,2,2,70,0,0
84716,-58.8235294117647,4,2,2,70,0,0
85049,-50,4,2,2,70,0,0
86049,-66.6666666666667,4,2,2,70,0,0
86716,-58.8235294117647,4,2,3,70,0,0
86883,-58.8235294117647,4,2,2,70,0,0
89049,-50,4,2,2,70,0,0
89716,-76.9230769230769,4,2,2,70,0,0
90216,-66.6666666666667,4,2,2,70,0,0
90383,-40,4,2,3,70,0,0
90716,-50,4,2,2,80,0,0
91049,-58.8235294117647,4,2,2,80,0,0
91216,-66.6666666666667,4,2,2,80,0,0
91549,-58.8235294117647,4,2,2,80,0,0
91716,-50,4,2,2,80,0,0
92049,-66.6666666666667,4,2,2,80,0,0
92216,-58.8235294117647,4,2,2,80,0,0
92383,-66.6666666666667,4,2,2,80,0,0
92549,-58.8235294117647,4,2,2,80,0,0
93383,-50,4,2,2,80,0,0
93883,-66.6666666666667,4,2,2,80,0,0
94383,-50,4,2,2,80,0,0
94716,-58.8235294117647,4,2,2,80,0,0
95049,-66.6666666666667,4,2,2,80,0,0
95383,-58.8235294117647,4,2,2,80,0,0
95716,-50,4,2,2,80,0,0
96383,-58.8235294117647,4,2,2,80,0,0
96549,-66.6666666666667,4,2,2,80,0,0
96883,-58.8235294117647,4,2,2,80,0,0
97049,-50,4,2,2,80,0,0
97383,-58.8235294117647,4,2,2,80,0,0
98716,-50,4,2,2,80,0,0
99049,-58.8235294117647,4,2,2,80,0,0
99716,-50,4,2,2,80,0,0
100216,-58.8235294117647,4,2,2,80,0,0
101049,-50,4,2,2,80,0,0
101716,-58.8235294117647,4,2,2,80,0,0
102383,-50,4,2,2,80,0,0
102716,-58.8235294117647,4,2,2,80,0,0
104049,-50,4,2,2,80,0,0
104383,-58.8235294117647,4,2,2,80,0,0
105049,-50,4,2,2,80,0,0
105383,-58.8235294117647,4,2,2,80,0,0
106049,-50,4,2,2,80,0,0
107049,-58.8235294117647,4,2,2,80,0,0
107716,-50,4,2,2,80,0,0
108216,-58.8235294117647,4,2,2,80,0,0
109383,-50,4,2,2,80,0,0
109716,-58.8235294117647,4,2,2,80,0,0
111716,-50,4,2,2,80,0,0
112049,-37.037037037037,4,2,2,85,0,1
112383,-58.8235294117647,4,2,2,85,0,1
112549,-50,4,2,2,85,0,1
113383,-37.037037037037,4,2,2,85,0,1
113883,-50,4,2,2,85,0,1
114383,-34.3005176516692,4,2,2,85,0,1
114716,-37.037037037037,4,2,2,85,0,1
115049,-58.8235294117647,4,2,2,85,0,1
115216,-50,4,2,2,85,0,1
115716,-43.4782608695652,4,2,2,85,0,1
116049,-37.037037037037,4,2,2,85,0,1
116549,-50,4,2,2,85,0,1
117383,-37.037037037037,4,2,2,85,0,1
117716,-58.8235294117647,4,2,2,85,0,1
117883,-50,4,2,2,85,0,1
118216,-66.6666666666667,4,2,2,85,0,1
118383,-50,4,2,2,85,0,1
118716,-37.037037037037,4,2,2,85,0,1
119216,-50,4,2,2,85,0,1
120049,-37.037037037037,4,2,2,85,0,1
120383,-58.8235294117647,4,2,2,85,0,1
120549,-50,4,2,2,85,0,1
121383,-37.037037037037,4,2,2,85,0,1
121883,-50,4,2,2,85,0,1
122716,-35.7142857142857,4,2,2,85,0,1
123049,-50,4,2,2,85,0,1
123883,-58.8235294117647,4,2,2,85,0,1
124049,-33.3333333333333,4,2,2,85,0,1
124549,-50,4,2,2,85,0,1
125049,-30.8554445539747,4,2,2,85,0,1
125383,-35.7142857142857,4,2,2,85,0,1
125716,-50,4,2,2,85,0,1
125883,-43.4782608695652,4,2,2,85,0,1
126216,-50,4,2,2,85,0,1
126383,-40,4,2,2,85,0,1
126549,-58.8235294117647,4,2,2,85,0,1
126716,-33.3333333333333,4,2,2,85,0,1
127216,-58.8235294117647,4,2,2,85,0,1
128049,-35.7142857142857,4,2,2,85,0,1
128383,-50,4,2,2,85,0,1
128883,-66.6666666666667,4,2,2,85,0,1
129049,-43.4782608695652,4,2,2,85,0,1
129383,-33.3333333333333,4,2,2,85,0,1
129883,-50,4,2,2,85,0,1
132049,-42.0326030706229,4,2,2,85,0,1
133383,-100,4,2,2,80,0,0

[Colours]
Combo1 : 234,182,85
Combo2 : 255,128,128
Combo3 : 185,49,196
Combo4 : 138,207,244

[HitObjects]
136,29,50,5,14,1:2:0:0:
212,188,216,1,2,0:0:0:0:
177,263,383,1,2,1:2:0:0:
166,256,549,2,0,L|179:315,1,50,10|0,0:0|0:0,0:0:0:0:
231,364,716,5,0,1:0:0:0:
311,5,1049,2,0,L|286:120,1,100,8|0,1:2|0:0,0:0:0:0:
270,185,1383,1,0,1:0:0:0:
512,81,1549,2,0,L|413:123,1,100,8|0,0:0|1:0,0:0:0:0:
318,12,1883,5,0,3:0:0:0:
318,12,1966,1,0,3:0:0:0:
318,12,2049,2,0,L|380:27,2,50,8|0|0,1:2|3:0|3:0,0:0:0:0:
179,135,2383,1,8,1:2:0:0:
170,163,2466,1,8,0:0:0:0:
169,196,2549,1,8,0:0:0:0:
182,234,2632,1,8,0:0:0:0:
212,268,2716,5,14,1:2:0:0:
472,193,2883,1,2,3:2:0:0:
472,193,2966,1,0,3:0:0:0:
472,193,3049,1,2,1:2:0:0:
424,384,3216,2,0,L|450:279,1,100,10|0,0:0|1:0,0:0:0:0:
448,286,3549,1,0,3:0:0:0:
278,101,3716,2,0,L|351:182,1,100,8|0,1:2|0:0,0:0:0:0:
344,175,4049,1,0,1:0:0:0:
415,0,4216,2,0,L|377:101,2,100,8|0|0,0:0|1:0|3:0,0:0:0:0:
203,163,4716,5,8,1:2:0:0:
199,200,4799,1,8,0:0:0:0:
210,235,4882,1,8,0:0:0:0:
235,263,4965,1,8,0:0:0:0:
301,303,5049,5,8,1:2:0:0:
253,284,5132,1,8,0:0:0:0:
205,295,5215,1,8,0:0:0:0:
171,331,5298,1,8,0:0:0:0:
103,376,5383,6,0,P|29:360|41:280,1,150,14|0,1:2|0:0,0:0:0:0:
36,286,5716,1,2,1:2:0:0:
129,115,5883,1,10,0:0:0:0:
69,48,6049,1,0,1:0:0:0:
69,48,6383,6,0,L|15:59,1,50,8|0,1:2|0:0,0:0:0:0:
226,11,6549,2,0,L|280:0,1,50,0|0,3:0|0:0,0:0:0:0:
147,30,6716,1,0,1:0:0:0:
324,73,6883,2,0,L|421:97,1,100,8|0,0:0|1:0,0:0:0:0:
421,97,7216,1,0,3:0:0:0:
375,329,7383,2,0,L|398:227,1,100,8|0,1:2|3:0,0:0:0:0:
500,49,7716,1,8,1:2:0:0:
500,49,7799,1,8,0:0:0:0:
500,49,7883,1,8,0:0:0:0:
500,49,7966,1,8,0:0:0:0:
421,97,8049,6,0,P|400:53|409:-1,2,100,10|2|2,1:2|0:0|1:2,0:0:0:0:
495,261,8549,2,0,P|451:226|398:228,1,100,10|0,0:0|1:0,0:0:0:0:
409,224,8883,1,0,3:0:0:0:
213,377,9049,2,0,P|265:356|290:309,1,100,8|0,1:2|0:0,0:0:0:0:
287,320,9383,1,0,1:0:0:0:
235,33,9549,6,0,L|256:143,1,100,8|0,0:0|1:0,0:0:0:0:
253,131,9883,1,0,3:0:0:0:
17,58,10049,2,0,L|118:90,1,100,8|0,1:2|0:0,0:0:0:0:
472,103,10383,6,0,L|153:202,1,300,8|8,0:1|0:0,0:0:0:0:
378,20,10716,6,0,B|383:39|383:39|365:66|364:107,1,75.0000028610231,14|0,1:2|0:0,0:0:0:0:
431,274,10883,1,2,0:0:0:0:
279,47,11049,2,0,B|260:52|260:52|233:34|192:33,1,75.0000028610231,10|0,1:2|0:0,0:0:0:0:
388,0,11216,1,8,0:0:0:0:
242,245,11383,2,0,L|77:208,1,150.000005722046,8|0,1:2|0:0,0:0:0:0:
378,20,11716,2,0,L|415:185,1,150.000005722046,8|0,1:2|0:0,0:0:0:0:
455,375,12049,5,8,1:2:0:0:
174,320,12216,2,0,L|328:350,1,150.000005722046,8|8,0:0|1:2,0:0:0:0:
401,287,12549,1,0,3:0:0:0:
401,287,12633,1,0,3:0:0:0:
401,287,12716,1,8,1:2:0:0:
310,103,12883,1,0,3:0:0:0:
477,25,13049,5,8,1:2:0:0:
488,48,13132,1,8,0:0:0:0:
496,77,13215,1,8,0:0:0:0:
496,116,13299,1,8,0:0:0:0:
479,167,13383,6,0,B|461:172|461:172|437:156|401:145,1,75.0000028610231,14|0,1:2|0:0,0:0:0:0:
189,219,13549,1,2,3:2:0:0:
189,219,13633,1,0,3:2:0:0:
189,219,13716,2,0,B|194:237|194:237|178:261|167:297,1,75.0000028610231,10|0,1:2|0:0,0:0:0:0:
301,119,13883,1,10,0:0:0:0:
65,0,14049,2,0,L|94:157,1,150.000005722046,8|0,1:2|0:0,0:0:0:0:
331,262,14383,2,0,L|175:214,1,150.000005722046,8|0,1:2|0:0,0:0:0:0:
8,346,14716,6,0,B|26:349|26:349|47:332|82:320,1,75.0000028610231,8|0,1:2|0:0,0:0:0:0:
370,381,14883,2,0,L|219:349,1,150.000005722046,8|8,0:0|1:2,0:0:0:0:
223,349,15216,1,0,3:0:0:0:
98,218,15383,5,8,1:2:0:0:
85,183,15466,1,8,0:0:0:0:
92,147,15549,1,8,0:0:0:0:
117,120,15633,1,8,0:0:0:0:
58,80,15716,5,8,1:2:0:0:
107,87,15800,1,8,0:0:0:0:
151,65,15883,1,8,0:0:0:0:
175,23,15966,1,8,0:0:0:0:
92,10,16049,6,0,B|116:34|116:34|210:37|302:95,1,225.000008583069,6|0,1:2|0:0,0:0:0:0:
346,156,16383,2,0,B|364:159|364:159|385:142|420:130,1,75.0000028610231,10|0,1:2|0:0,0:0:0:0:
494,15,16549,1,10,0:0:0:0:
456,217,16716,2,0,L|425:376,1,150.000005722046,8|0,1:2|0:0,0:0:0:0:
193,239,17049,2,0,L|224:80,1,150.000005722046,8|0,1:2|0:0,0:0:0:0:
346,268,17383,5,8,1:2:0:0:
54,375,17549,2,0,L|208:318,1,150.000005722046,8|8,0:0|1:2,0:0:0:0:
194,322,17883,1,0,3:0:0:0:
368,81,18049,2,0,L|281:206,1,150.000005722046,8|0,1:2|0:0,0:0:0:0:
146,37,18383,1,8,0:0:0:0:
146,37,18466,1,8,0:0:0:0:
146,37,18549,1,8,0:0:0:0:
146,37,18633,1,8,0:0:0:0:
84,91,18716,6,0,B|78:108|78:108|100:136|102:179,1,85.0000016212464,14|0,1:2|0:0,0:0:0:0:
282,204,18883,2,0,B|288:221|288:221|266:249|264:282,1,85.0000016212464,10|0,1:2|0:0,0:0:0:0:
64,88,19049,2,0,B|58:105|58:105|80:133|81:166,1,85.0000016212464,10|0,1:2|0:0,0:0:0:0:
300,214,19216,2,0,B|306:231|306:231|284:259|282:292,1,85.0000016212464,10|0,1:2|0:0,0:0:0:0:
101,367,19383,6,0,L|197:334,1,85.0000016212464,8|0,0:0|0:0,0:0:0:0:
300,214,19549,2,0,L|396:247,1,85.0000016212464,8|0,0:0|0:0,0:0:0:0:
469,316,19716,1,8,0:0:0:0:
469,316,19883,1,8,0:0:0:0:
407,22,20049,6,0,L|417:62,1,37.5000014305115,4|0,1:2|0:0,0:0:0:0:
426,69,20216,2,0,L|436:109,1,37.5000014305115,0|0,1:0|0:0,0:0:0:0:
370,312,20383,6,0,B|364:291|364:291|377:270|389:221,1,75.0000028610231,8|0,0:0|0:0,0:0:0:0:
469,204,20549,1,0,1:0:0:0:
360,325,20716,1,0,1:0:0:0:
231,64,20883,2,0,B|219:82|219:82|195:86|151:111,1,75.0000028610231,8|0,0:0|0:0,0:0:0:0:
27,0,21049,5,8,0:1:0:0:
92,18,21133,1,8,0:0:0:0:
156,36,21216,1,8,0:0:0:0:
220,54,21299,1,8,0:0:0:0:
285,73,21383,6,0,B|359:157|318:312|219:329|219:329|187:287|188:230|228:193,1,450.000017166138,14|0,1:2|0:0,0:0:0:0:
421,91,21716,2,0,B|405:105|405:105|374:109|343:132,1,75.0000028610231,8|0,1:2|0:0,0:0:0:0:
355,123,21883,1,0,1:0:0:0:
219,202,22049,1,0,1:0:0:0:
4,52,22216,1,8,0:0:0:0:
99,7,22383,2,0,B|96:27|96:27|111:53|111:91,1,75.0000028610231,8|0,0:0|0:0,0:0:0:0:
67,219,22549,2,0,L|55:135,1,75.0000028610231,0|0,1:0|0:0,0:0:0:0:
257,13,22716,6,0,B|272:34|272:34|230:290,2,279.999991455078,8|4|4,1:3|1:3|1:3,0:0:0:0:
77,229,23216,1,8,0:0:0:0:
243,121,23383,2,0,B|256:134|256:134|282:119|328:118,1,75.0000028610231,10|0,1:2|0:0,0:0:0:0:
363,62,23549,1,0,1:0:0:0:
512,225,23716,6,0,B|498:238|498:238|470:222|421:221,1,89.9999972534181,8|0,1:2|0:0,0:0:0:0:
164,95,23883,1,8,3:0:0:0:
164,95,23966,1,8,3:0:0:0:
164,95,24049,6,0,B|109:108|109:108|98:115|98:115|35:131,1,125,14|0,1:2|0:0,0:0:0:0:
362,294,24216,2,0,B|417:307|417:307|428:314|428:314|491:330,1,125,2|0,1:2|0:0,0:0:0:0:
253,114,24383,1,10,1:2:0:0:
188,384,24549,2,0,L|227:208,1,179.999994506836,2|8,0:0|1:2,0:0:0:0:
120,0,24883,2,0,B|132:9|132:9|131:45|151:80,1,89.9999972534181,8|0,0:0|0:0,0:0:0:0:
489,234,25049,6,0,L|311:183,1,179.999994506836,8|8,1:2|0:0,0:0:0:0:
0,347,25383,6,0,B|17:353|17:353|278:268,2,279.999991455078,8|4|4,1:3|1:3|1:3,0:0:0:0:
151,80,25883,2,0,B|165:97|165:97|198:99|239:126,1,89.9999972534181,8|0,0:0|0:0,0:0:0:0:
402,301,26049,5,8,0:0:0:0:
424,262,26132,1,8,0:0:0:0:
433,218,26215,1,8,0:0:0:0:
426,174,26298,1,8,0:0:0:0:
342,139,26383,5,8,0:0:0:0:
313,186,26466,1,8,0:0:0:0:
303,241,26549,1,8,0:0:0:0:
311,296,26632,1,8,0:0:0:0:
372,372,26716,6,0,B|398:351|428:342|428:342|436:222|501:60|501:60|445:37|409:2,1,450.000017166138,6|0,1:2|0:0,0:0:0:0:
279,56,27049,2,0,B|289:63|289:63|323:42|351:37,1,75.0000028610231,10|0,1:2|0:0,0:0:0:0:
495,138,27216,1,10,0:0:0:0:
123,19,27383,2,0,L|280:68,1,150.000005722046,8|0,1:2|1:0,0:0:0:0:
372,373,27716,2,0,L|317:215,1,150.000005722046,8|0,0:0|0:0,0:0:0:0:
43,0,28049,6,0,B|74:20|74:20|138:278,2,279.999991455078,8|4|4,1:3|1:3|1:3,0:0:0:0:
0,213,28549,2,0,B|25:215|25:215|48:197|83:188,1,89.9999972534181,8|0,0:0|0:0,0:0:0:0:
254,22,28716,5,8,0:0:0:0:
155,340,28883,1,0,1:0:0:0:
28,119,29049,5,8,0:0:0:0:
28,119,29133,1,8,0:0:0:0:
28,119,29216,1,8,0:0:0:0:
28,119,29299,1,8,0:0:0:0:
89,62,29383,6,0,B|121:76|139:100|139:100|156:82|201:77,1,125,6|0,1:2|0:0,0:0:0:0:
385,266,29549,2,0,B|345:261|328:243|328:243|310:267|278:281,1,125,2|0,1:2|0:0,0:0:0:0:
80,50,29716,1,10,1:2:0:0:
470,139,29883,2,0,L|286:97,1,179.999994506836,10|8,0:0|1:2,0:0:0:0:
491,145,30216,1,8,0:0:0:0:
223,24,30383,2,0,B|232:36|232:36|206:68|208:117,1,89.9999972534181,8|0,0:0|0:0,0:0:0:0:
193,123,30549,2,0,B|184:135|184:135|210:167|208:216,1,89.9999972534181,0|0,1:0|0:0,0:0:0:0:
441,372,30716,6,0,B|425:353|425:353|203:300,2,250,8|4|4,1:3|1:3|1:3,0:0:0:0:
294,98,31216,1,8,0:0:0:0:
90,257,31383,6,0,L|110:304,1,50,8|0,0:0|1:0,0:0:0:0:
4,35,31716,1,8,0:0:0:0:
58,26,31799,1,8,0:0:0:0:
105,54,31882,1,8,0:0:0:0:
122,107,31965,1,8,0:0:0:0:
101,158,32049,6,0,B|125:171|125:171|248:52|415:16|522:41,1,450.000017166138,6|0,1:2|0:0,0:0:0:0:
395,168,32383,2,0,B|434:16,1,100,8|0,0:0|0:0,0:0:0:0:
419,71,32549,1,8,0:0:0:0:
198,232,32716,2,0,L|307:274,1,100,8|0,1:2|0:0,0:0:0:0:
487,136,32883,6,0,P|494:127|412:80,1,150.000005722046,8|0,1:0|0:0,0:0:0:0:
258,357,33049,2,0,P|383:344|412:65,1,450.000017166138,8|0,1:0|0:0,0:0:0:0:
337,6,33383,6,0,B|345:16|345:16|320:117,2,100,8|4|4,1:3|1:3|1:3,0:0:0:0:
255,155,33883,1,8,0:0:0:0:
340,381,34049,5,10,1:2:0:0:
209,86,34216,1,0,1:0:0:0:
512,235,34383,5,8,1:2:0:0:
217,366,34549,1,0,3:0:0:0:
217,366,34633,1,8,3:0:0:0:
217,366,34716,6,0,B|175:337|194:291|194:291|230:278,1,125,14|0,1:2|0:0,0:0:0:0:
418,102,34883,2,0,B|460:131|441:177|441:177|405:190,1,125,2|0,1:2|0:0,0:0:0:0:
116,29,35049,1,10,0:0:0:0:
218,1,35216,2,0,B|228:18|228:18|217:41|202:108,1,89.9999972534181,10|0,0:0|0:0,0:0:0:0:
58,224,35383,6,0,L|229:277,1,179.999994506836,8|0,1:2|0:0,0:0:0:0:
380,6,35716,6,0,B|372:14|372:14|370:32|362:56,1,37.5000014305115,8|0,0:1|0:0,0:0:0:0:
418,102,35883,1,0,1:0:0:0:
131,363,36049,6,0,B|150:335|150:335|366:269,2,250,8|4|4,1:3|1:3|1:3,0:0:0:0:
289,170,36549,1,8,0:0:0:0:
508,375,36716,6,0,B|501:378|501:378|486:368|465:363,1,44.999998626709,10|8,1:2|0:0,0:0:0:0:
433,270,37049,5,8,1:2:0:0:
374,286,37133,1,8,0:0:0:0:
316,302,37216,1,8,0:0:0:0:
258,319,37299,1,8,0:0:0:0:
211,381,37383,6,0,B|229:349|229:349|215:252|231:126|303:23,1,375,10|0,1:2|0:0,0:0:0:0:
187,0,37716,6,0,B|204:21|204:21|202:68|243:127,1,125,10|0,1:2|0:0,0:0:0:0:
441,256,37883,1,10,0:0:0:0:
351,157,38049,2,0,B|363:182|363:182|339:221|344:279,1,104.999996795654,8|0,1:2|0:0,0:0:0:0:
343,256,38216,1,8,0:0:0:0:
43,200,38383,6,0,L|494:86,1,450.000017166138,8|0,1:0|0:0,0:0:0:0:
419,335,38716,6,0,B|373:343|373:343|291:287|308:169|369:196|351:83|290:40|290:40|226:57,1,450.000017166138,6|0,1:2|0:0,0:0:0:0:
157,9,39049,6,0,B|147:16|147:16|146:47|119:89,1,75.0000028610231,8|0,1:2|0:0,0:0:0:0:
127,75,39216,1,0,1:0:0:0:
267,384,39383,6,0,L|161:144,1,250,8|0,1:0|1:0,0:0:0:0:
359,31,39716,1,8,1:0:0:0:
348,92,39799,1,8,0:0:0:0:
337,154,39883,1,8,0:0:0:0:
326,215,39966,1,8,0:0:0:0:
401,285,40049,6,0,B|436:302|436:302|475:275|518:273,1,100,14|0,1:2|0:0,0:0:0:0:
447,107,40216,2,0,B|464:72|464:72|437:33|435:-10,1,100,10|0,1:2|0:0,0:0:0:0:
269,60,40383,2,0,B|234:43|234:43|195:70|152:72,1,100,10|0,1:2|0:0,0:0:0:0:
221,239,40550,2,0,B|204:274|204:274|231:313|233:356,1,100,10|0,1:2|0:0,0:0:0:0:
245,341,40716,5,8,1:2:0:0:
171,84,40883,1,8,1:2:0:0:
425,10,41049,1,8,1:2:0:0:
501,264,41216,1,8,1:2:0:0:
245,341,41383,5,8,1:3:0:0:
205,334,41466,1,8,0:0:0:0:
175,306,41549,1,8,0:0:0:0:
165,261,41633,1,8,0:0:0:0:
182,222,41716,1,8,0:0:0:0:
222,198,41799,1,8,0:0:0:0:
271,206,41883,1,8,0:0:0:0:
306,251,41966,1,8,0:0:0:0:
337,294,42049,1,8,0:0:0:0:
397,303,42133,1,8,0:0:0:0:
441,265,42216,1,8,0:0:0:0:
441,201,42299,1,8,0:0:0:0:
389,161,42383,1,8,0:0:0:0:
319,149,42466,1,8,0:0:0:0:
288,83,42549,1,8,0:0:0:0:
332,24,42633,1,8,0:0:0:0:
410,39,42716,5,12,1:1:0:0:
256,192,44716,12,0,47966,0:0:0:0:
58,300,48049,6,0,B|102:271|159:293|143:317|195:343|248:323,1,200,6|0,0:0|0:0,0:0:0:0:
300,251,48549,2,0,P|282:213|290:132,1,119.999996337891,2|0,0:0|0:0,0:0:0:0:
493,170,49049,2,0,L|381:184,1,100,2|0,0:0|0:0,0:0:0:0:
214,333,49383,6,0,P|200:259|171:190,1,150.000005722046,2|0,0:0|0:0,0:0:0:0:
253,0,49883,2,0,P|266:73|295:142,1,150.000005722046,2|0,0:0|0:0,0:0:0:0:
295,142,50383,1,2,0:0:0:0:
506,278,50716,6,0,P|457:247|347:227,2,150,2|2|2,0:0|0:0|0:0,0:0:0:0:
472,207,51883,1,0,0:0:0:0:
301,317,52049,6,0,P|257:326|154:369,1,150.000005722046,2|0,0:0|0:0,0:0:0:0:
53,267,52549,2,0,P|44:228|74:171,1,100,2|0,0:0|0:0,0:0:0:0:
127,231,53049,1,2,0:0:0:0:
241,0,53383,6,0,P|239:98|297:193,1,200,2|0,0:0|0:0,0:0:0:0:
422,52,53883,2,0,P|383:78|265:112,1,150.000005722046,2|0,0:0|0:0,0:0:0:0:
205,343,54383,2,0,L|241:239,1,100,2|0,0:0|0:0,0:0:0:0:
42,0,54716,6,0,P|57:68|84:205,1,200,2|0,0:0|0:0,0:0:0:0:
59,325,55216,2,0,P|25:295|125:284,1,225.000008583069,2|2,0:0|0:0,0:0:0:0:
335,346,56049,6,0,P|284:367|189:347,2,150,2|2|2,0:0|0:0|0:0,0:0:0:0:
506,236,57383,5,2,0:0:0:0:
260,190,57883,1,2,0:0:0:0:
14,144,58383,1,10,0:0:0:0:
18,153,58466,1,8,0:0:0:0:
21,162,58549,1,8,0:0:0:0:
24,171,58633,1,8,0:0:0:0:
87,220,58716,6,0,B|131:226|177:189|166:136|218:92|279:113,1,225.000008583069,14|0,0:0|0:0,0:0:0:0:
362,36,59049,2,0,P|345:57|338:83,1,50,0|0,1:0|0:0,0:0:0:0:
392,287,59216,2,0,B|351:164|351:164|322:151,2,150.000005722046,8|0|0,0:0|1:0|1:0,0:0:0:0:
449,22,59716,5,10,0:0:0:0:
326,241,59883,1,0,1:0:0:0:
444,369,60049,6,0,P|455:363|485:309,1,75.0000028610231,10|0,1:2|0:0,0:0:0:0:
332,155,60216,2,0,B|271:175|271:175|261:186|261:186|185:210,1,150.000005722046,10|0,0:0|1:0,0:0:0:0:
193,207,60549,1,2,1:2:0:0:
343,66,60716,1,8,0:0:0:0:
356,70,60883,1,0,1:0:0:0:
170,119,61049,1,10,0:0:0:0:
149,112,61133,1,8,0:0:0:0:
128,105,61216,1,8,0:0:0:0:
107,98,61299,1,8,0:0:0:0:
43,49,61383,6,0,B|66:66|66:66|52:125|94:184,2,150.000005722046,14|0|0,0:0|1:0|1:0,0:0:0:0:
173,284,61883,2,0,L|22:246,1,150.000005722046,10|0,0:0|0:0,0:0:0:0:
27,247,62216,1,0,1:0:0:0:
205,367,62383,2,0,P|281:336|291:202,1,225.000008583069,10|0,0:0|0:0,0:0:0:0:
246,88,62716,6,0,B|235:100|235:100|221:166,1,75.0000028610231,10|0,1:3|0:0,0:0:0:0:
408,277,62883,2,0,P|370:220|273:214,2,150.000005722046,8|0|2,0:0|1:0|1:2,0:0:0:0:
300,379,63383,5,8,0:0:0:0:
253,362,63466,1,8,0:0:0:0:
229,320,63549,1,8,0:0:0:0:
238,272,63633,1,8,0:0:0:0:
293,206,63716,5,10,0:0:0:0:
299,170,63800,1,8,0:0:0:0:
281,138,63883,1,8,0:0:0:0:
246,126,63966,1,8,0:0:0:0:
191,182,64049,6,0,B|239:177|268:155|268:155|318:166|318:166|351:140|408:138,1,225.000008583069,14|0,0:2|0:0,0:0:0:0:
492,51,64383,2,0,P|477:84|464:99,1,50,0|0,1:0|0:0,0:0:0:0:
490,317,64549,2,0,P|501:235|466:169,2,150.000005722046,10|0|0,0:0|1:0|1:0,0:0:0:0:
238,272,65049,2,0,L|391:256,1,150.000005722046,10|0,0:0|0:0,0:0:0:0:
139,355,65383,6,0,P|110:330|69:325,1,75.0000028610231,10|0,1:3|0:0,0:0:0:0:
181,124,65549,2,0,P|24:218|16:257,1,225.000008583069,8|0,0:0|0:0,0:0:0:0:
24,255,65883,1,2,1:2:0:0:
157,210,66049,2,0,P|101:162|98:90,1,150.000005722046,8|0,0:0|0:0,0:0:0:0:
241,18,66383,1,10,0:0:0:0:
238,32,66466,1,8,0:0:0:0:
235,46,66549,1,8,0:0:0:0:
232,60,66633,1,8,0:0:0:0:
181,124,66716,6,0,B|214:141|214:141|258:91|327:86,2,150.000005722046,14|0|0,0:0|1:0|1:0,0:0:0:0:
364,16,67216,2,0,P|332:136|309:318,1,300.000011444092,10|0,0:0|1:0,0:0:0:0:
232,60,67716,2,0,P|260:129|280:201,1,150.000005722046,8|0,0:0|0:0,0:0:0:0:
482,315,68049,6,0,B|470:321|470:321|447:301|409:295,1,75.0000028610231,14|0,1:3|0:0,0:0:0:0:
403,285,68216,6,0,L|135:333,1,269.999991760254,8|0,0:0|0:0,0:0:0:0:
12,225,68549,5,10,0:0:0:0:
51,246,68633,1,8,0:0:0:0:
90,267,68716,1,8,0:0:0:0:
198,195,68883,1,0,1:0:0:0:
482,315,69049,6,0,L|502:376,1,60,10|0,0:1|0:0,0:0:0:0:
323,360,69383,6,0,B|306:279|370:234|405:264|475:208|436:114,1,300,6|0,1:2|0:0,0:0:0:0:
397,0,69716,2,0,P|373:31|373:75,1,64.9999970245363,0|0,1:0|0:0,0:0:0:0:
477,217,69883,2,0,B|462:225|462:225|440:205|404:197,1,75.0000028610231,8|0,1:2|0:0,0:0:0:0:
247,28,70049,6,0,L|282:182,1,150.000005722046,0|0,1:0|0:0,0:0:0:0:
454,373,70383,2,0,B|470:351|470:351|460:301|489:219,1,150.000005722046,8|0,0:0|0:0,0:0:0:0:
406,11,70716,6,0,B|399:28|399:28|399:56|385:88,1,75.0000028610231,10|0,1:3|0:0,0:0:0:0:
259,196,70883,6,0,B|236:217|236:217|262:148,1,75.0000028610231,8|0,0:0|0:0,0:0:0:0:
472,66,71049,1,8,1:2:0:0:
477,80,71133,1,8,0:0:0:0:
482,93,71216,1,10,0:0:0:0:
487,107,71299,1,8,0:0:0:0:
417,144,71383,6,0,B|376:124|376:124|298:167|169:142,1,255.000004863739,8|0,1:2|0:0,0:0:0:0:
0,50,71716,5,10,1:2:0:0:
34,28,71799,1,8,0:0:0:0:
82,35,71882,1,8,0:0:0:0:
111,79,71965,1,8,0:0:0:0:
86,139,72049,6,0,B|144:180|200:172|200:172|235:215|235:215|296:211|355:256,1,300,6|8,1:2|0:0,0:0:0:0:
436,357,72383,2,0,P|416:344|407:302,1,64.9999970245363,0|0,1:0|0:0,0:0:0:0:
487,107,72549,2,0,B|493:123|493:123|477:140|466:179,1,75.0000028610231,8|0,0:0|0:0,0:0:0:0:
489,263,72716,1,0,1:0:0:0:
489,263,72883,1,0,1:0:0:0:
319,129,73049,2,0,B|304:146|304:146|231:147|182:203,1,150.000005722046,8|0,0:0|0:0,0:0:0:0:
419,10,73383,6,0,P|390:31|377:77,1,75.0000028610231,10|0,1:3|0:0,0:0:0:0:
331,290,73549,2,0,B|323:281|323:281|340:245|344:212,1,75.0000028610231,8|0,0:0|0:0,0:0:0:0:
149,20,73716,2,0,B|164:39|164:39|164:60|179:99,1,75.0000028610231,8|0,0:0|0:0,0:0:0:0:
190,103,73883,2,0,L|172:187,1,75.0000028610231,2|0,1:2|0:0,0:0:0:0:
134,357,74049,5,8,1:2:0:0:
96,353,74132,1,8,0:0:0:0:
65,334,74215,1,8,0:0:0:0:
44,303,74298,1,8,0:0:0:0:
61,224,74383,5,10,1:2:0:0:
114,228,74466,1,8,0:0:0:0:
159,255,74549,1,8,0:0:0:0:
189,300,74632,1,8,0:0:0:0:
134,357,74716,6,0,B|109:332|109:332|55:119|55:119|6:95,1,300,6|0,1:2|0:0,0:0:0:0:
8,111,75049,2,0,L|79:87,1,64.9999970245363,0|0,1:0|0:0,0:0:0:0:
248,6,75216,2,0,B|233:15|233:15|229:49|207:85,1,75.0000028610231,8|0,0:0|0:0,0:0:0:0:
159,141,75383,2,0,L|201:299,1,150.000005722046,0|0,1:0|0:0,0:0:0:0:
394,362,75716,2,0,B|386:335|386:335|415:299|418:211,1,150.000005722046,8|0,0:0|0:0,0:0:0:0:
326,65,76049,6,0,L|341:152,1,75.0000028610231,10|0,1:3|0:0,0:0:0:0:
417,219,76216,2,0,B|452:237|452:237|418:198,1,75.0000028610231,8|0,0:0|0:0,0:0:0:0:
238,72,76383,2,0,B|229:80|229:80|199:62|157:56,1,75.0000028610231,8|0,0:0|0:0,0:0:0:0:
95,86,76549,1,2,1:2:0:0:
381,2,76716,1,8,0:0:0:0:
371,14,77049,1,10,0:0:0:0:
364,51,77133,1,8,0:0:0:0:
357,87,77216,1,8,0:0:0:0:
350,123,77299,1,8,0:0:0:0:
422,142,77383,6,0,B|377:165|377:165|320:230|381:293|345:352|345:352|295:383,1,300,6|8,1:2|0:0,0:0:0:0:
142,303,77716,2,0,P|165:329|203:336,1,64.9999970245363,0|0,1:0|0:0,0:0:0:0:
242,103,77883,2,0,B|233:125|233:125|253:148|260:193,1,75.0000028610231,8|0,0:0|0:0,0:0:0:0:
206,242,78049,1,0,1:0:0:0:
206,242,78216,1,0,1:0:0:0:
17,71,78383,2,0,B|36:85|36:85|88:39|173:35,1,150.000005722046,8|0,0:0|0:0,0:0:0:0:
410,3,78716,6,0,B|399:16|399:16|414:62|414:62|408:83,1,85.0000016212464,10|0,1:2|0:0,0:0:0:0:
335,314,78883,2,0,L|312:232,1,85.0000016212464,8|0,0:0|0:0,0:0:0:0:
503,95,79049,1,8,0:0:0:0:
496,119,79133,1,8,0:0:0:0:
489,143,79216,2,0,L|512:225,1,85.0000016212464,2|0,1:2|3:0,0:0:0:0:
265,1,79383,1,8,0:0:0:0:
280,6,79716,5,8,0:0:0:0:
311,42,79799,1,8,0:0:0:0:
310,97,79882,1,8,0:0:0:0:
260,140,79965,1,8,0:0:0:0:
186,116,80049,6,0,B|215:128|215:128|320:29|471:22,1,300,14|0,1:2|0:0,0:0:0:0:
369,244,80383,2,0,B|356:231|356:231|346:192|320:159,1,75.0000028610231,8|0,0:0|0:0,0:0:0:0:
378,1,80549,1,8,0:0:0:0:
512,300,80716,2,0,L|233:231,1,269.999991760254,8|0,1:2|0:0,0:0:0:0:
115,156,81049,2,0,B|78:181|39:194|39:194|23:222,1,100,8|0,1:2|0:0,0:0:0:0:
163,365,81383,6,0,P|190:348|194:296,1,85.0000016212464,10|0,1:3|0:0,0:0:0:0:
14,37,81549,2,0,L|33:115,1,75.0000028610231,8|0,0:0|0:0,0:0:0:0:
23,123,81716,2,0,L|113:146,1,85.0000016212464,0|0,1:2|0:0,0:0:0:0:
231,54,81883,2,0,B|252:24|252:24|197:51,1,85.0000016212464,2|0,1:2|0:0,0:0:0:0:
82,310,82049,2,0,L|350:229,1,255.000004863739,8|8,1:2|0:0,0:0:0:0:
404,161,82383,1,10,0:0:0:0:
449,159,82466,1,8,0:0:0:0:
478,195,82549,1,8,0:0:0:0:
469,239,82632,1,8,0:0:0:0:
423,303,82716,6,0,B|416:233|450:194|450:194|425:125|425:125|459:84|444:13,1,300,6|8,1:2|0:0,0:0:0:0:
323,0,83049,2,0,B|335:12|335:12|337:39|359:72,1,75.0000028610231,8|0,1:2|0:0,0:0:0:0:
363,71,83216,1,8,0:0:0:0:
476,249,83383,2,0,B|442:266|442:266|363:196|242:182,1,255.000004863739,8|0,1:2|0:0,0:0:0:0:
124,31,83716,2,0,L|158:196,1,150.000005722046,8|0,1:2|0:0,0:0:0:0:
66,362,84049,6,0,P|42:352|37:291,1,85.0000016212464,10|0,1:3|0:0,0:0:0:0:
186,92,84216,2,0,L|164:175,1,75.0000028610231,8|0,0:0|0:0,0:0:0:0:
154,177,84383,2,0,L|71:199,1,75.0000028610231,8|0,0:0|0:0,0:0:0:0:
234,19,84549,1,2,1:2:0:0:
338,373,84716,2,0,L|261:112,1,255.000004863739,8|0,0:0|0:0,0:0:0:0:
329,53,85049,5,10,0:0:0:0:
369,50,85132,1,8,0:0:0:0:
409,72,85215,1,8,0:0:0:0:
432,123,85298,1,8,0:0:0:0:
407,184,85383,6,0,B|374:207|374:207|241:122|121:119,1,300,14|0,1:2|0:0,0:0:0:0:
8,2,85716,2,0,B|26:15|26:15|32:54|65:87,1,100,8|0,1:2|0:0,0:0:0:0:
319,42,85883,1,8,0:0:0:0:
170,365,86049,2,0,L|232:228,1,150.000005722046,8|0,1:2|0:0,0:0:0:0:
229,0,86383,2,0,B|219:12|219:12|217:50|201:77,1,75.0000028610231,8|0,1:2|0:0,0:0:0:0:
195,83,86549,2,0,L|228:151,1,75.0000028610231,0|0,1:0|0:0,0:0:0:0:
414,261,86716,6,0,B|405:280|405:280|368:281|327:321,1,85.0000016212464,10|0,1:3|0:0,0:0:0:0:
269,352,86883,2,0,B|239:324|239:324|297:352,1,85.0000016212464,8|0,0:0|0:0,0:0:0:0:
483,215,87049,1,8,0:0:0:0:
348,2,87216,2,0,B|358:8|358:8|365:47|387:89,1,85.0000016212464,2|0,1:2|0:0,0:0:0:0:
456,120,87383,2,0,L|179:64,1,255.000004863739,8|0,0:0|0:0,0:0:0:0:
93,0,87716,5,10,0:0:0:0:
101,41,87799,1,8,0:0:0:0:
110,82,87883,1,8,0:0:0:0:
118,123,87966,1,8,0:0:0:0:
79,196,88049,6,0,P|45:177|-14:171,1,85.0000016212464,12|0,1:2|0:0,0:0:0:0:
307,298,88216,2,0,P|341:317|400:323,1,85.0000016212464,8|0,1:2|0:0,0:0:0:0:
147,265,88383,6,0,P|108:265|53:289,1,85.0000016212464,8|0,1:2|0:0,0:0:0:0:
395,239,88550,2,0,P|433:238|488:214,1,85.0000016212464,8|0,1:2|0:0,0:0:0:0:
223,310,88716,6,0,P|189:329|154:378,1,85.0000016212464,8|0,1:2|0:0,0:0:0:0:
424,163,88883,2,0,P|457:143|492:94,1,85.0000016212464,8|0,1:2|0:0,0:0:0:0:
26,353,89049,6,0,B|45:329|45:329|53:221|122:94|122:94|140:85,1,300,8|0,1:0|0:0,0:0:0:0:
191,21,89383,5,6,1:2:0:0:
191,21,89549,1,0,1:0:0:0:
307,298,89716,1,8,0:0:0:0:
361,231,89883,2,0,B|372:199|372:199|346:229,1,64.9999970245363,2|0,1:2|0:0,0:0:0:0:
266,373,90049,5,0,1:0:0:0:
85,283,90216,2,0,B|101:283|101:283|124:265|167:255,1,75.0000028610231,8|0,0:0|0:0,0:0:0:0:
495,208,90383,6,0,L|108:143,1,375,10|8,1:0|0:0,0:0:0:0:
4,164,90716,6,0,B|38:174|38:174|139:84|282:89,1,300,6|0,1:2|0:0,0:0:0:0:
406,0,91049,2,0,B|390:14|390:14|391:45|373:74,1,85.0000016212464,8|0,0:0|0:0,0:0:0:0:
362,85,91216,2,0,L|386:156,1,75.0000028610231,0|0,1:0|0:0,0:0:0:0:
354,298,91383,2,0,B|331:325|331:325|343:259,1,75.0000028610231,0|0,1:0|0:0,0:0:0:0:
487,108,91549,2,0,L|461:212,1,85.0000016212464,8|0,0:0|0:0,0:0:0:0:
501,359,91716,6,0,L|200:273,1,300,8|0,1:0|0:0,0:0:0:0:
120,325,92049,6,0,B|86:337|86:337|114:306,1,75.0000028610231,2|0,1:2|0:0,0:0:0:0:
281,88,92216,2,0,L|262:181,1,85.0000016212464,8|0,0:0|0:0,0:0:0:0:
278,184,92383,2,0,L|371:165,1,75.0000028610231,0|0,1:0|0:0,0:0:0:0:
75,4,92549,2,0,B|84:19|84:19|81:50|97:87,1,85.0000016212464,10|0,0:0|0:0,0:0:0:0:
18,104,92716,2,0,L|274:174,1,255.000004863739,8|0,0:0|0:0,0:0:0:0:
405,0,93049,1,10,0:0:0:0:
390,31,93133,1,8,0:0:0:0:
375,61,93216,1,8,0:0:0:0:
360,91,93299,1,8,0:0:0:0:
420,142,93383,6,0,B|353:132|315:179|315:179|257:152|257:152|202:194|133:184,1,300,6|0,1:2|0:0,0:0:0:0:
198,9,93716,2,0,B|204:33|204:33|183:58|174:117,1,100,8|0,0:0|0:0,0:0:0:0:
86,269,93883,2,0,B|114:291|114:291|98:245,1,75.0000028610231,0|0,1:0|0:0,0:0:0:0:
43,188,94049,1,0,1:0:0:0:
277,312,94216,2,0,L|206:275,1,75.0000028610231,8|0,0:0|0:0,0:0:0:0:
344,384,94383,6,0,B|269:94,1,300,8|0,1:0|0:0,0:0:0:0:
369,2,94716,6,0,B|377:17|377:17|357:41|350:89,1,85.0000016212464,2|0,1:2|0:0,0:0:0:0:
447,180,94883,2,0,B|479:202|479:202|450:146,1,85.0000016212464,8|0,0:0|0:0,0:0:0:0:
444,155,95049,2,0,L|368:188,1,75.0000028610231,0|0,1:0|0:0,0:0:0:0:
127,294,95216,1,10,0:0:0:0:
242,384,95383,2,0,L|290:126,1,255.000004863739,8|0,0:0|0:0,0:0:0:0:
224,29,95716,1,10,0:0:0:0:
192,26,95799,1,8,0:0:0:0:
162,41,95882,1,8,0:0:0:0:
142,84,95965,1,8,0:0:0:0:
164,132,96049,6,0,B|241:156|301:117|284:62|361:22|437:54,1,300,6|0,1:2|0:0,0:0:0:0:
408,261,96383,2,0,B|395:247|395:247|391:206|367:173,1,85.0000016212464,8|0,0:0|0:0,0:0:0:0:
387,174,96549,2,0,L|461:196,1,75.0000028610231,0|0,1:0|0:0,0:0:0:0:
337,310,96716,2,0,L|265:288,1,75.0000028610231,0|0,1:0|0:0,0:0:0:0:
71,193,96883,2,0,B|49:230|49:230|106:199,1,85.0000016212464,8|0,0:0|0:0,0:0:0:0:
222,28,97049,6,0,L|161:332,1,300,8|0,1:0|0:0,0:0:0:0:
93,362,97383,6,0,B|75:366|75:366|51:341|12:339,1,85.0000016212464,2|0,1:2|0:0,0:0:0:0:
293,161,97549,2,0,L|374:184,1,85.0000016212464,8|0,0:0|0:0,0:0:0:0:
208,40,97716,1,0,1:0:0:0:
161,192,97883,2,0,B|189:224|189:224|170:175,1,85.0000016212464,10|0,0:0|0:0,0:0:0:0:
0,15,98049,2,0,L|51:275,1,255.000004863739,8|0,1:2|0:0,0:0:0:0:
4,381,98383,1,8,0:0:0:0:
43,366,98466,1,8,0:0:0:0:
82,352,98549,1,8,0:0:0:0:
122,337,98633,1,8,0:0:0:0:
199,349,98716,6,0,B|176:326|152:321|152:321|112:176|112:176|159:156|192:97,1,300,4|0,1:2|0:0,0:0:0:0:
118,6,99049,2,0,B|123:27|123:27|99:45|87:92,1,85.0000016212464,8|0,0:0|0:0,0:0:0:0:
205,220,99216,2,0,B|238:242|238:242|206:189,1,85.0000016212464,8|0,0:0|0:0,0:0:0:0:
15,116,99383,1,0,1:0:0:0:
221,24,99549,2,0,B|240:31|240:31|267:11|306:14,1,85.0000016212464,8|0,0:0|0:0,0:0:0:0:
475,172,99716,6,0,L|165:111,1,300,8|0,1:0|0:0,0:0:0:0:
389,21,100049,6,0,B|376:48|376:48|401:77|397:115,1,100,2|0,1:2|0:0,0:0:0:0:
314,363,100216,2,0,L|371:195,1,170.000003242493,8|0,0:0|0:0,0:0:0:0:
459,268,100549,2,0,B|482:302|482:302|434:275,1,85.0000016212464,2|0,1:2|0:0,0:0:0:0:
221,24,100716,2,0,B|245:42|245:42|248:116|290:176,1,170.000003242493,8|0,0:0|0:0,0:0:0:0:
193,274,101049,1,8,0:0:0:0:
162,278,101132,1,8,0:0:0:0:
128,263,101215,1,8,0:0:0:0:
108,223,101298,1,8,0:0:0:0:
125,173,101383,6,0,B|165:177|165:177|238:81|355:83|355:83|381:48,1,300,6|0,1:2|0:0,0:0:0:0:
469,9,101716,2,0,B|455:19|455:19|466:53|452:92,1,85.0000016212464,8|0,0:0|0:0,0:0:0:0:
324,352,101883,2,0,L|402:189,1,170.000003242493,8|0,0:0|1:0,0:0:0:0:
510,304,102216,2,0,L|416:334,1,85.0000016212464,8|0,0:0|0:0,0:0:0:0:
270,87,102383,2,0,L|222:390,1,300,8|0,1:0|0:0,0:0:0:0:
143,235,102716,6,0,B|161:249|161:249|164:279|192:321,1,85.0000016212464,8|0,1:3|0:0,0:0:0:0:
397,198,102883,2,0,B|423:168|423:168|366:191,1,85.0000016212464,8|0,0:0|0:0,0:0:0:0:
321,246,103049,1,0,1:0:0:0:
108,95,103216,2,0,L|124:3,1,85.0000016212464,2|0,1:2|0:0,0:0:0:0:
0,270,103383,2,0,L|243:154,1,255.000004863739,8|0,0:0|0:0,0:0:0:0:
299,13,103716,1,10,0:0:0:0:
294,29,103799,1,8,0:0:0:0:
289,45,103883,1,8,0:0:0:0:
284,61,103966,1,8,0:0:0:0:
206,57,104049,6,0,B|227:83|227:83|339:99|440:142|493:203,1,300,6|0,1:2|0:0,0:0:0:0:
469,75,104383,2,0,P|409:97|396:126,1,85.0000016212464,8|0,0:0|0:0,0:0:0:0:
491,332,104549,2,0,P|461:315|438:259,1,85.0000016212464,8|0,0:0|0:0,0:0:0:0:
429,259,104716,2,0,L|524:232,1,85.0000016212464,0|0,1:0|0:0,0:0:0:0:
320,315,104883,2,0,B|300:323|300:323|274:307|226:302,1,85.0000016212464,8|0,0:0|0:0,0:0:0:0:
66,71,105049,2,0,L|121:380,1,300,8|0,1:0|0:0,0:0:0:0:
32,336,105383,6,0,B|28:323|28:323|47:296|59:255,1,85.0000016212464,2|0,1:2|0:0,0:0:0:0:
156,84,105549,2,0,P|84:81|15:150,1,170.000003242493,8|0,0:0|0:0,0:0:0:0:
222,28,105883,2,0,P|233:40|305:59,1,85.0000016212464,2|0,1:2|0:0,0:0:0:0:
506,175,106049,6,0,B|492:185|492:185|464:161|407:140,1,100,8|0,0:0|0:0,0:0:0:0:
420,145,106216,1,0,1:0:0:0:
320,315,106383,1,10,0:0:0:0:
256,335,106466,1,8,0:0:0:0:
193,356,106549,1,8,0:0:0:0:
130,377,106632,1,8,0:0:0:0:
50,352,106716,6,0,B|65:311|111:293|111:293|148:147|148:147|118:133|98:105,1,300,6|0,1:2|0:0,0:0:0:0:
36,53,107049,2,0,B|14:20|14:20|65:48,1,85.0000016212464,8|0,0:0|0:0,0:0:0:0:
225,240,107216,2,0,B|199:250|199:250|172:233|133:234,1,85.0000016212464,8|0,0:0|0:0,0:0:0:0:
133,226,107383,2,0,L|41:259,1,85.0000016212464,0|0,1:0|0:0,0:0:0:0:
305,17,107549,2,0,P|279:43|269:92,1,85.0000016212464,8|0,0:0|0:0,0:0:0:0:
512,223,107716,2,0,L|200:151,1,300,8|0,1:0|0:0,0:0:0:0:
126,3,108049,6,0,B|141:13|141:13|143:48|178:88,1,100,6|0,1:2|0:0,0:0:0:0:
383,302,108216,2,0,L|214:235,1,170.000003242493,8|0,0:0|1:0,0:0:0:0:
411,81,108549,2,0,B|405:96|405:96|423:119|427:172,1,85.0000016212464,10|0,0:0|0:0,0:0:0:0:
307,368,108716,5,8,0:0:0:0:
291,290,108883,1,0,1:0:0:0:
69,154,109049,5,10,0:0:0:0:
53,232,109216,1,0,1:0:0:0:
57,239,109299,1,0,1:0:0:0:
61,246,109383,6,0,B|119:280|215:222|159:182|241:115|332:161,1,300,6|0,1:2|0:0,0:0:0:0:
376,215,109716,2,0,B|399:244|399:244|338:214,1,85.0000016212464,8|0,0:0|0:0,0:0:0:0:
119,90,109883,2,0,L|140:1,1,85.0000016212464,8|0,0:0|0:0,0:0:0:0:
264,248,110049,2,0,P|221:308|129:335,1,170.000003242493,8|0,0:0|1:0,0:0:0:0:
132,335,110383,2,0,P|155:290|145:248,1,85.0000016212464,8|0,0:0|0:0,0:0:0:0:
69,154,110549,1,0,1:0:0:0:
284,11,110716,5,14,1:2:0:0:
284,11,110799,1,8,0:0:0:0:
284,11,110883,1,8,0:0:0:0:
215,148,111049,1,8,0:0:0:0:
303,251,111216,1,10,0:0:0:0:
242,334,111383,1,8,0:0:0:0:
270,368,111549,1,8,0:0:0:0:
260,382,111716,6,0,L|310:68,1,300,8|0,1:0|0:0,0:0:0:0:
471,103,112049,6,0,B|434:115|434:115|316:26|161:3|68:28,1,405.000001544952,6|0,1:2|0:0,0:0:0:0:
23,81,112383,2,0,B|-2:117|-2:117|47:82,1,85.0000016212464,0|0,1:0|0:0,0:0:0:0:
245,0,112549,2,0,L|197:214,1,200,8|0,0:0|0:0,0:0:0:0:
201,195,112883,1,0,1:0:0:0:
493,347,113049,2,0,L|291:243,1,200,8|0,0:0|0:0,0:0:0:0:
0,384,113383,6,0,L|275:307,2,270.000001029968,12|8|0,1:3|1:2|1:0,0:0:0:0:
58,258,113883,6,0,B|71:271|71:271|116:269|159:298,1,100,10|0,1:2|0:0,0:0:0:0:
301,384,114049,2,0,L|262:151,1,200,8|0,0:0|0:0,0:0:0:0:
387,2,114383,1,8,0:0:0:0:
425,2,114466,1,8,0:0:0:0:
471,24,114549,1,8,0:0:0:0:
501,74,114632,1,8,0:0:0:0:
492,145,114716,6,0,B|404:205|299:135|325:78|201:9|116:98,1,405.000001544952,6|0,1:2|0:0,0:0:0:0:
52,108,115049,2,0,B|47:144|36:174|36:174|56:198,1,85.0000016212464,0|0,1:0|0:0,0:0:0:0:
286,337,115216,2,0,L|330:137,1,200,8|0,0:0|0:0,0:0:0:0:
216,24,115549,2,0,B|184:1|184:1|207:65,1,100,8|0,0:0|0:0,0:0:0:0:
433,258,115716,2,0,P|349:174|235:170,1,230.000004386902,8|0,0:0|1:0,0:0:0:0:
1,319,116049,6,0,L|500:111,1,540.000002059937,12|0,1:3|1:0,0:0:0:0:
488,102,116466,1,0,3:0:0:0:
477,93,116549,2,0,B|452:98|452:98|417:72|366:70,1,100,10|0,0:0|0:0,0:0:0:0:
179,276,116716,2,0,L|383:344,1,200,8|0,0:0|1:0,0:0:0:0:
307,38,117049,1,10,0:0:0:0:
239,59,117133,1,8,0:0:0:0:
172,80,117216,1,8,0:0:0:0:
105,101,117299,1,8,0:0:0:0:
27,63,117383,6,0,B|48:83|57:102|57:102|303:185|303:185|336:152|405:142,1,405.000001544952,6|0,1:2|0:0,0:0:0:0:
467,70,117716,2,0,B|483:31|483:31|440:63,1,85.0000016212464,8|0,0:0|0:0,0:0:0:0:
261,192,117883,2,0,L|323:392,1,200,8|0,0:0|0:0,0:0:0:0:
365,236,118216,2,0,L|336:328,1,75.0000028610231,8|0,1:0|0:0,0:0:0:0:
113,383,118383,2,0,B|105:370|89:364|89:364|60:259|60:259|88:250|117:215,1,200,8|0,0:0|0:0,0:0:0:0:
308,2,118716,6,0,L|262:281,2,270.000001029968,12|8|0,1:3|1:2|1:0,0:0:0:0:
21,140,119216,2,0,B|42:146|42:146|72:124|117:114,1,100,2|0,1:2|0:0,0:0:0:0:
442,209,119383,5,8,0:0:0:0:
364,186,119549,1,0,1:0:0:0:
176,367,119716,5,8,0:0:0:0:
138,367,119799,1,8,0:0:0:0:
92,345,119882,1,8,0:0:0:0:
62,295,119965,1,8,0:0:0:0:
71,224,120049,6,0,B|132:256|196:218|196:218|330:316|330:316|380:288|453:314,1,405.000001544952,6|0,1:2|0:0,0:0:0:0:
493,250,120383,2,0,B|508:212|508:212|455:250,1,85.0000016212464,0|0,1:0|0:0,0:0:0:0:
256,384,120549,2,0,B|272:367|272:367|287:298|336:198,1,200,8|0,0:0|0:0,0:0:0:0:
334,202,120883,1,0,1:0:0:0:
64,23,121049,2,0,P|66:125|161:112,1,200,8|0,0:0|0:0,0:0:0:0:
512,22,121383,6,0,L|8:215,1,540.000002059937,12|0,1:3|1:2,0:0:0:0:
54,241,121799,1,8,3:0:0:0:
101,268,121883,2,0,B|109:262|109:262|123:217|163:174,1,100,2|0,3:2|0:0,0:0:0:0:
456,135,122049,2,0,L|244:83,1,200,8|0,0:0|1:0,0:0:0:0:
95,349,122383,5,10,0:0:0:0:
160,324,122466,1,8,0:0:0:0:
225,299,122549,1,8,0:0:0:0:
291,274,122633,1,8,0:0:0:0:
406,313,122716,6,0,B|375:322|343:356|343:356|269:286|90:236|90:236|89:208|57:168,1,419.999987182618,14|0,1:2|0:0,0:0:0:0:
44,32,123049,2,0,B|29:44|29:44|26:83|5:122,1,100,8|0,1:2|0:0,0:0:0:0:
250,378,123216,2,0,B|235:366|235:366|232:327|211:288,1,100,8|0,0:0|0:0,0:0:0:0:
144,222,123383,1,8,1:2:0:0:
144,222,123549,1,0,1:0:0:0:
343,15,123716,6,0,L|318:120,1,100,8|0,1:1|0:0,0:0:0:0:
331,127,123883,2,0,L|243:164,1,85.0000016212464,0|0,1:0|0:0,0:0:0:0:
30,151,124049,6,0,L|361:232,2,300.000011444092,12|8|8,1:3|0:0|1:2,0:0:0:0:
0,221,124466,1,8,0:0:0:0:
57,267,124549,2,0,L|161:226,1,100,10|0,0:0|0:0,0:0:0:0:
486,101,124716,5,8,1:2:0:0:
486,101,124883,1,0,1:0:0:0:
335,374,125049,5,8,1:2:0:0:
375,383,125132,1,8,0:0:0:0:
432,358,125215,1,8,0:0:0:0:
454,281,125298,1,8,0:0:0:0:
394,200,125383,6,0,B|307:132|208:219|233:310|152:368|37:316,1,419.999987182618,6|0,1:2|0:0,0:0:0:0:
9,243,125716,2,0,B|-1:194|-1:194|38:247,1,100,8|0,1:2|0:0,0:0:0:0:
256,375,125883,2,0,B|239:362|239:362|234:259|167:154,1,230.000004386902,8|0,0:0|1:0,0:0:0:0:
280,1,126216,2,0,B|264:13|264:13|239:88,1,100,8|0,0:0|0:0,0:0:0:0:
131,332,126383,6,0,L|275:280,1,125,8|0,0:1|0:0,0:0:0:0:
262,296,126549,2,0,L|284:209,1,85.0000016212464,0|0,1:0|0:0,0:0:0:0:
5,10,126716,6,0,L|59:315,2,300.000011444092,12|8|0,1:3|0:0|1:0,0:0:0:0:
65,60,127133,1,8,0:0:0:0:
130,23,127216,2,0,P|154:20|209:45,1,85.0000016212464,10|0,0:0|0:0,0:0:0:0:
354,303,127383,5,8,1:2:0:0:
354,303,127549,1,0,1:0:0:0:
387,14,127716,5,8,1:2:0:0:
427,5,127799,1,8,0:0:0:0:
484,30,127882,1,8,0:0:0:0:
506,107,127965,1,8,0:0:0:0:
446,188,128049,6,0,B|405:210|405:210|312:138|151:102|25:156,1,419.999987182618,6|0,1:2|0:0,0:0:0:0:
12,213,128383,2,0,B|2:261|2:261|40:210,1,100,8|0,1:2|0:0,0:0:0:0:
287,64,128549,2,0,L|61:6,1,200,8|0,0:0|1:0,0:0:0:0:
133,98,128883,2,0,L|208:73,1,75.0000028610231,0|0,1:0|0:0,0:0:0:0:
432,2,129049,2,0,B|417:24|417:24|430:118|377:263,1,230.000004386902,8|0,1:1|1:0,0:0:0:0:
177,384,129383,6,0,L|113:71,2,300.000011444092,12|8|8,1:3|0:0|1:2,0:0:0:0:
245,342,129799,1,8,0:0:0:0:
314,375,129883,2,0,B|330:383|330:383|362:353|417:356,1,100,10|0,0:0|0:0,0:0:0:0:
497,227,130049,5,8,1:2:0:0:
471,153,130216,1,0,1:0:0:0:
213,15,130383,5,10,1:2:0:0:
197,93,130466,1,8,0:0:0:0:
181,171,130549,1,8,0:0:0:0:
165,250,130633,1,8,0:0:0:0:
100,322,130716,6,0,B|65:339|65:339|26:312|-17:310,1,100,14|0,1:2|0:0,0:0:0:0:
54,144,130883,2,0,B|37:109|37:109|64:70|66:27,1,100,10|0,1:2|0:0,0:0:0:0:
232,97,131050,2,0,B|267:80|267:80|306:107|349:109,1,100,10|0,1:2|0:0,0:0:0:0:
280,276,131217,2,0,B|297:311|297:311|270:350|268:393,1,100,10|0,1:2|0:0,0:0:0:0:
256,378,131383,5,8,1:2:0:0:
330,121,131550,1,8,1:2:0:0:
76,47,131716,1,8,1:2:0:0:
0,301,131883,1,8,1:2:0:0:
363,198,132049,5,12,1:3:0:0:
403,162,132132,1,8,0:0:0:0:
416,107,132215,1,8,0:0:0:0:
388,53,132299,1,8,0:0:0:0:
333,31,132382,1,8,0:0:0:0:
275,52,132465,1,8,0:0:0:0:
245,107,132549,1,10,0:0:0:0:
252,175,132632,1,8,0:0:0:0:
221,236,132715,1,8,0:0:0:0:
155,255,132799,1,8,0:0:0:0:
95,217,132882,1,8,0:0:0:0:
83,145,132965,1,8,0:0:0:0:
132,90,133049,5,8,0:1:0:0:
151,171,133133,1,8,1:3:0:0:
169,251,133216,1,4,1:3:0:0:
188,331,133299,1,4,1:3:0:0:
181,348,133383,5,4,0:0:0:0:
