osu file format v14

[General]
AudioFilename: audio.mp3
AudioLeadIn: 0
PreviewTime: 68049
Countdown: 0
SampleSet: Soft
StackLeniency: 0.7
Mode: 0
LetterboxInBreaks: 0
WidescreenStoryboard: 1

[Editor]
Bookmarks: 58383
DistanceSpacing: 1
BeatDivisor: 2
GridSize: 32
TimelineZoom: 1.9

[Metadata]
Title:RE Aoharu
TitleUnicode:RE Aoharu
Artist:Nor
ArtistUnicode:Nor
Creator:Shurelia
Version:Collab Normal
Source:ブルーアーカイブ -Blue Archive-
Tags:ブルアカ future bass electronic instrumental video game yostar gacha nat games theme 59 pv4 Reaching for the precious time captin1 anxient supav too Kyuuchie lit120 -Hakurei- nakazawa nozhomi tycani fuiba fuyu
BeatmapID:4008295
BeatmapSetID:1935191

[Difficulty]
HPDrainRate:4
CircleSize:3.5
OverallDifficulty:4.5
ApproachRate:5.3
SliderMultiplier:0.999999999999999
SliderTickRate:1

[Events]
//Background and Video events
0,0,"kivotos.jpg",0,0
//Break Periods
2,48249,56895
//Storyboard Layer 0 (Background)
//Storyboard Layer 1 (Fail)
//Storyboard Layer 2 (Pass)
//Storyboard Layer 3 (Foreground)
//Storyboard Layer 4 (Overlay)
//Storyboard Sound Samples

[TimingPoints]
50,333.333333333333,4,2,2,70,1,0
21383,-100,4,2,2,80,0,0
43966,-100,4,2,2,5,0,0
44049,-100,4,2,2,80,0,0
44716,-100,4,2,2,60,0,0
48049,-100,4,2,2,40,0,0
58716,-100,4,2,3,50,0,0
69049,-100,4,2,3,60,0,0
69383,-100,4,2,2,70,0,0
70716,-100,4,2,3,70,0,0
70883,-100,4,2,2,70,0,0
73383,-100,4,2,3,70,0,0
73549,-100,4,2,2,70,0,0
76049,-100,4,2,3,70,0,0
76216,-100,4,2,2,70,0,0
78716,-100,4,2,3,70,0,0
78883,-100,4,2,2,70,0,0
81383,-100,4,2,3,70,0,0
81549,-100,4,2,2,70,0,0
84049,-100,4,2,3,70,0,0
84216,-100,4,2,2,70,0,0
86716,-100,4,2,3,70,0,0
86883,-100,4,2,2,70,0,0
90383,-100,4,2,3,70,0,0
90716,-100,4,2,2,80,0,0
112049,-100,4,2,2,85,0,1
133383,-100,4,2,2,80,0,0
133466,-100,4,2,2,10,0,0
136049,-100,4,2,2,5,0,0

[Colours]
Combo1 : 0,0,255
Combo2 : 128,128,255
Combo3 : 18,124,255
Combo4 : 255,128,255

[HitObjects]
127,15,50,6,0,P|201:30|275:38,1,150,14|10,1:2|0:0,0:0:0:0:
423,14,1049,2,0,P|436:87|442:162,1,150,8|8,1:2|0:0,0:0:0:0:
432,312,2049,1,8,1:2:0:0:
432,312,2383,2,0,P|408:311|383:306,1,50,8|8,1:2|0:0,0:0:0:0:
345,272,2716,6,0,P|270:273|197:290,1,150,14|10,1:2|0:0,0:0:0:0:
74,376,3716,2,0,P|55:303|37:230,1,150,8|8,1:2|0:0,0:0:0:0:
4,83,4716,2,0,P|-1:58|0:33,1,50,8|8,1:2|0:0,0:0:0:0:
43,8,5049,2,0,P|67:4|92:3,1,50,8|8,1:2|0:0,0:0:0:0:
141,14,5383,6,0,P|147:89|148:164,1,150,14|10,1:2|0:0,0:0:0:0:
175,311,6383,2,0,P|250:317|325:318,1,150,8|8,1:2|0:0,0:0:0:0:
472,294,7383,1,8,1:2:0:0:
500,198,7716,1,8,1:2:0:0:
467,103,8049,6,0,L|472:53,2,50,10|2|2,1:2|0:0|1:2,0:0:0:0:
429,136,8549,2,0,P|356:115|283:99,1,150,10|8,0:0|1:2,0:0:0:0:
151,28,9549,2,0,P|76:31|1:40,1,150,8|8,0:0|1:2,0:0:0:0:
1,140,10383,1,8,0:1:0:0:
42,230,10716,6,0,P|38:254|36:279,2,50,14|2|10,1:2|0:0|1:2,0:0:0:0:
92,227,11216,2,0,P|162:244|186:312,1,150,8|8,0:0|1:2,0:0:0:0:
257,381,12049,2,0,P|306:373|355:363,1,99.9999999999999,8|8,1:2|1:2,0:0:0:0:
371,264,12716,2,0,P|323:276|274:286,1,99.9999999999999,8|8,1:2|1:2,0:0:0:0:
232,194,13383,6,0,P|230:169|220:146,2,50,14|2|10,1:2|3:2|1:2,0:0:0:0:
281,188,13883,2,0,P|355:175|427:152,1,150,10|8,0:0|1:2,0:0:0:0:
480,68,14716,2,0,P|434:48|384:42,1,99.9999999999999,8|8,1:2|1:2,0:0:0:0:
289,12,15383,2,0,P|244:32|196:47,1,99.9999999999999,8|8,1:2|1:2,0:0:0:0:
100,15,16049,6,0,P|75:20|46:23,2,50,6|0|10,1:2|0:0|1:2,0:0:0:0:
102,64,16549,2,0,P|81:135|69:209,1,150,10|8,0:0|1:2,0:0:0:0:
6,286,17383,2,0,P|10:335|23:384,1,99.9999999999999,8|8,1:2|1:2,0:0:0:0:
122,377,18049,2,0,P|172:370|222:366,1,99.9999999999999,8|8,1:2|0:0,0:0:0:0:
297,300,18716,6,0,L|287:252,2,50,14|10|10,1:2|1:2|1:2,0:0:0:0:
337,329,19216,2,0,P|411:329|486:319,1,150,10|8,1:2|0:0,0:0:0:0:
493,219,20049,2,0,L|507:172,2,50,4|0|8,1:2|1:0|0:0,0:0:0:0:
393,204,20716,2,0,L|385:155,1,50,0|8,1:0|0:0,0:0:0:0:
337,138,21049,1,8,0:1:0:0:
265,208,21383,6,0,P|256:230|252:255,1,50,14|0,1:2|0:0,0:0:0:0:
226,300,21716,1,8,1:2:0:0:
226,300,21883,2,0,P|177:299|127:304,1,99.9999999999999,0|8,1:0|0:0,0:0:0:0:
87,337,22383,1,8,0:0:0:0:
1,288,22716,2,0,P|6:238|22:190,1,99.9999999999999,8|4,1:3|1:3,0:0:0:0:
62,159,23216,1,8,0:0:0:0:
62,159,23383,2,0,B|108:134|158:155,1,99.9999999999999,10|8,1:2|1:2,0:0:0:0:
251,124,24049,6,0,P|258:101|262:76,1,50,14|2,1:2|1:2,0:0:0:0:
254,31,24383,1,10,1:2:0:0:
254,31,24549,2,0,P|303:20|353:23,1,99.9999999999999,2|8,0:0|0:0,0:0:0:0:
391,55,25049,1,8,1:2:0:0:
457,129,25383,2,0,P|440:176|428:224,1,99.9999999999999,8|4,1:3|1:3,0:0:0:0:
415,275,25883,1,8,0:0:0:0:
415,275,26049,2,0,B|359:290|317:267,1,99.9999999999999,8|8,0:0|0:0,0:0:0:0:
218,248,26716,6,0,P|189:264|179:279,1,50,6|0,1:2|0:0,0:0:0:0:
154,322,27049,1,10,1:2:0:0:
154,321,27216,2,0,P|105:319|70:285,1,99.9999999999999,10|0,0:0|1:0,0:0:0:0:
80,235,27716,1,8,0:0:0:0:
20,153,28049,2,0,P|37:105|44:56,1,99.9999999999999,8|4,1:3|1:3,0:0:0:0:
81,22,28549,1,8,0:0:0:0:
80,22,28716,2,0,P|128:34|178:39,1,99.9999999999999,8|8,0:0|0:0,0:0:0:0:
271,3,29383,6,0,P|296:1|321:2,1,50,6|2,1:2|1:2,0:0:0:0:
364,39,29716,1,10,1:2:0:0:
363,39,29883,2,0,P|363:88|371:138,1,99.9999999999999,10|8,0:0|0:0,0:0:0:0:
403,176,30383,1,8,0:0:0:0:
476,243,30716,2,0,P|470:292|459:341,1,99.9999999999999,8|4,1:3|1:3,0:0:0:0:
411,356,31216,1,8,0:0:0:0:
411,356,31383,2,0,P|363:340|314:331,1,99.9999999999999,8|8,0:0|0:0,0:0:0:0:
220,365,32049,6,0,P|197:373|173:378,1,50,6|0,1:2|0:0,0:0:0:0:
124,360,32383,1,8,0:0:0:0:
75,345,32549,1,8,0:0:0:0:
37,311,32716,2,0,P|42:261|42:211,1,99.9999999999999,8|8,1:2|1:0,0:0:0:0:
69,114,33383,2,0,P|118:124|168:128,1,99.9999999999999,8|4,1:3|1:3,0:0:0:0:
214,148,33883,1,8,0:0:0:0:
214,148,34049,2,0,P|221:171|225:196,1,50,10|0,1:2|0:0,0:0:0:0:
216,246,34383,2,0,P|219:270|225:294,1,50,8|0,1:2|3:0,0:0:0:0:
255,334,34716,6,0,P|279:339|304:341,1,50,14|2,1:2|1:2,0:0:0:0:
346,313,35049,1,10,0:0:0:0:
345,313,35216,2,0,P|395:311|441:330,1,99.9999999999999,10|0,0:0|0:0,0:0:0:0:
491,329,35716,1,8,0:1:0:0:
506,229,36049,2,0,P|489:183|479:134,1,99.9999999999999,8|4,1:3|1:3,0:0:0:0:
486,84,36549,1,8,0:0:0:0:
486,84,36716,2,0,P|437:72|390:54,1,99.9999999999999,10|8,1:2|1:2,0:0:0:0:
299,13,37383,6,0,P|274:11|250:18,1,50,10|0,1:2|0:0,0:0:0:0:
224,61,37716,1,10,1:2:0:0:
224,60,37883,2,0,P|174:57|125:47,1,99.9999999999999,10|8,0:0|0:0,0:0:0:0:
79,26,38383,2,0,P|62:45|51:67,1,50,8|0,1:0|0:0,0:0:0:0:
16,103,38716,2,0,P|29:152|33:202,1,99.9999999999999,6|8,1:2|1:2,0:0:0:0:
19,250,39216,1,0,1:0:0:0:
19,250,39383,2,0,P|55:283|104:287,1,99.9999999999999,8|8,1:0|1:0,0:0:0:0:
183,347,40049,6,0,P|228:326|276:312,1,99.9999999999999,14|10,1:2|1:2,0:0:0:0:
324,328,40549,1,10,1:2:0:0:
324,328,40716,2,0,P|347:336|371:342,1,50,8|8,1:2|1:2,0:0:0:0:
421,341,41049,2,0,P|429:318|435:294,1,50,8|8,1:2|1:2,0:0:0:0:
468,256,41383,2,0,P|465:206|455:157,1,99.9999999999999,8|8,1:3|0:0,0:0:0:0:
417,123,41883,2,0,P|368:124|318:115,1,99.9999999999999,8|8,0:0|0:0,0:0:0:0:
275,90,42383,1,8,0:0:0:0:
178,114,42716,5,12,1:1:0:0:
256,192,45383,12,6,48049,0:0:0:0:
502,380,58049,6,0,P|456:364|433:321,1,99.9999999999999,0|10,0:0|0:0,0:0:0:0:
360,251,58716,2,0,P|406:216|511:268,2,150,14|8|10,0:0|0:0|0:0,0:0:0:0:
332,347,60049,2,0,L|167:380,2,150,10|2|10,1:2|1:2|0:0,0:0:0:0:
376,257,61383,6,0,P|326:219|341:150,1,99.9999999999999,14|0,0:0|1:0,0:0:0:0:
361,154,61883,2,0,P|411:116|396:47,1,99.9999999999999,10|0,0:0|1:0,0:0:0:0:
388,39,62383,1,10,0:0:0:0:
292,10,62716,6,0,L|159:36,1,99.9999999999999,10|0,1:3|0:0,0:0:0:0:
147,9,63216,2,0,P|106:22|91:84,1,99.9999999999999,2|8,1:2|0:0,0:0:0:0:
124,106,63716,1,10,0:0:0:0:
57,180,64049,6,0,L|27:327,2,150,14|10|10,0:2|0:0|0:0,0:0:0:0:
156,196,65383,2,0,L|185:343,2,150,10|2|10,1:3|1:2|0:0,0:0:0:0:
234,133,66716,6,0,P|287:121|327:188,1,99.9999999999999,14|0,0:0|1:0,0:0:0:0:
348,188,67216,2,0,P|336:241|403:281,1,99.9999999999999,10|0,0:0|1:0,0:0:0:0:
411,282,67716,1,8,0:0:0:0:
479,209,68049,6,0,L|508:61,2,150,14|10|10,1:3|0:0|0:1,0:0:0:0:
458,307,69383,6,0,P|419:340|318:286,1,150,6|8,1:2|1:2,0:0:0:0:
298,276,70049,2,0,P|242:253|195:304,1,99.9999999999999,0|8,1:0|0:0,0:0:0:0:
131,330,70716,6,0,L|104:197,1,99.9999999999999,10|8,1:3|1:2,0:0:0:0:
65,211,71216,2,0,L|38:78,1,99.9999999999999,10|0,0:0|0:0,0:0:0:0:
82,79,71716,1,10,1:2:0:0:
178,51,72049,6,0,L|336:82,1,150,6|8,1:2|0:0,0:0:0:0:
363,47,72716,2,0,P|419:93|403:150,1,99.9999999999999,0|8,1:0|0:0,0:0:0:0:
487,189,73383,2,0,L|354:215,1,99.9999999999999,10|8,1:3|0:0,0:0:0:0:
360,251,73883,2,0,P|305:236|295:169,1,99.9999999999999,2|8,1:2|0:0,0:0:0:0:
306,153,74383,1,10,1:2:0:0:
206,153,74716,6,0,P|125:161|123:255,1,150,6|8,1:2|0:0,0:0:0:0:
72,255,75383,2,0,L|91:353,1,99.9999999999999,0|8,1:0|0:0,0:0:0:0:
191,384,76049,6,0,P|199:336|241:312,1,99.9999999999999,10|8,1:3|0:0,0:0:0:0:
254,263,76549,2,0,L|352:282,1,99.9999999999999,2|0,1:2|0:0,0:0:0:0:
384,320,77049,1,10,0:0:0:0:
471,270,77383,6,0,P|508:220|427:156,1,150,6|8,1:2|0:0,0:0:0:0:
430,119,78049,2,0,L|331:138,1,99.9999999999999,0|8,1:0|0:0,0:0:0:0:
251,198,78716,6,0,P|203:189|179:147,1,99.9999999999999,10|8,1:2|0:0,0:0:0:0:
216,114,79216,2,0,P|188:74|201:27,1,99.9999999999999,2|0,1:2|0:0,0:0:0:0:
241,0,79716,1,8,0:0:0:0:
334,35,80049,6,0,L|481:5,1,150,14|8,1:2|0:0,0:0:0:0:
499,51,80716,2,0,P|521:107|481:150,1,99.9999999999999,8|8,1:2|1:2,0:0:0:0:
414,180,81383,6,0,P|392:236|432:279,1,99.9999999999999,10|0,1:3|1:2,0:0:0:0:
448,291,81883,2,0,P|470:347|430:390,1,99.9999999999999,2|0,1:2|0:0,0:0:0:0:
407,356,82383,1,10,0:0:0:0:
310,329,82716,6,0,P|254:351|213:267,1,150,6|8,1:2|0:0,0:0:0:0:
165,259,83383,2,0,L|184:160,1,99.9999999999999,8|8,1:2|1:2,0:0:0:0:
283,168,84049,6,0,P|330:146|340:87,1,99.9999999999999,10|8,1:3|0:0,0:0:0:0:
303,73,84549,2,0,L|200:53,1,99.9999999999999,2|0,1:2|0:0,0:0:0:0:
174,13,85049,1,10,0:0:0:0:
75,19,85383,6,0,L|104:166,1,150,14|8,1:2|0:0,0:0:0:0:
61,191,86049,2,0,L|41:289,1,99.9999999999999,8|8,1:2|1:2,0:0:0:0:
100,369,86716,6,0,P|159:352|176:284,1,99.9999999999999,10|8,1:3|0:0,0:0:0:0:
159,274,87216,2,0,P|188:235|236:226,1,99.9999999999999,2|0,1:2|0:0,0:0:0:0:
271,261,87716,1,10,0:0:0:0:
327,343,88049,6,0,L|474:372,1,150,12|8,1:2|1:2,0:0:0:0:
447,329,88716,2,0,L|427:230,1,99.9999999999999,8|8,1:2|1:0,0:0:0:0:
480,149,89383,6,0,P|505:111|483:54,1,99.9999999999999,6|8,1:2|0:0,0:0:0:0:
447,36,89883,1,2,1:2:0:0:
406,64,90049,2,0,L|317:81,1,50,0|8,1:0|0:0,0:0:0:0:
311,53,90383,1,10,1:0:0:0:
220,9,90716,6,0,P|170:37|176:108,1,99.9999999999999,6|8,1:2|0:0,0:0:0:0:
203,102,91216,2,0,L|223:204,1,99.9999999999999,0|8,1:0|0:0,0:0:0:0:
263,229,91716,1,8,1:0:0:0:
213,315,92049,6,0,L|201:373,2,50,2|8|0,1:2|0:0|1:0,0:0:0:0:
179,277,92549,2,0,P|116:288|97:351,1,99.9999999999999,10|0,0:0|0:0,0:0:0:0:
60,347,93049,1,10,0:0:0:0:
18,255,93383,6,0,P|-6:191|47:152,1,99.9999999999999,6|8,1:2|0:0,0:0:0:0:
55,153,93883,2,0,L|153:133,1,99.9999999999999,0|8,1:0|0:0,0:0:0:0:
186,95,94383,1,8,1:0:0:0:
276,51,94716,6,0,P|291:31|295:7,2,50,2|8|0,1:2|0:0|1:0,0:0:0:0:
293,97,95216,2,0,P|268:148|301:202,1,99.9999999999999,10|0,0:0|0:0,0:0:0:0:
327,205,95716,1,10,0:0:0:0:
424,181,96049,6,0,L|443:279,1,99.9999999999999,6|8,1:2|0:0,0:0:0:0:
418,322,96549,2,0,L|320:341,1,99.9999999999999,0|8,1:0|0:0,0:0:0:0:
282,374,97049,1,8,1:0:0:0:
197,319,97383,6,0,P|182:339|178:363,2,50,2|8|0,1:2|0:0|1:0,0:0:0:0:
180,273,97883,2,0,P|205:222|172:168,1,99.9999999999999,10|0,0:0|0:0,0:0:0:0:
146,165,98383,1,8,0:0:0:0:
185,72,98716,6,0,L|283:52,1,99.9999999999999,4|8,1:2|0:0,0:0:0:0:
330,68,99216,2,0,P|362:117|341:162,1,99.9999999999999,8|8,0:0|0:0,0:0:0:0:
306,177,99716,1,8,1:0:0:0:
390,230,100049,6,0,P|359:268|370:315,1,99.9999999999999,2|0,1:2|1:2,0:0:0:0:
405,350,100549,1,2,1:2:0:0:
453,335,100716,2,0,P|484:297|473:250,1,99.9999999999999,8|8,0:0|0:0,0:0:0:0:
508,156,101383,6,0,L|488:58,1,99.9999999999999,6|8,1:2|0:0,0:0:0:0:
443,35,101883,2,0,P|384:18|347:59,1,99.9999999999999,8|8,0:0|0:0,0:0:0:0:
347,88,102383,1,8,1:0:0:0:
301,176,102716,6,0,P|329:201|369:202,2,50,8|8|0,1:3|0:0|1:0,0:0:0:0:
268,137,103216,2,0,P|195:160|188:201,1,99.9999999999999,2|0,1:2|0:0,0:0:0:0:
151,141,103716,1,10,0:0:0:0:
51,149,104049,6,0,P|27:213|90:255,1,150,6|8,1:2|0:0,0:0:0:0:
115,295,104716,2,0,L|213:315,1,99.9999999999999,0|8,0:0|1:0,0:0:0:0:
313,318,105383,6,0,P|306:342|289:359,2,50,2|8|0,1:2|0:0|0:0,0:0:0:0:
291,272,105883,2,0,P|275:221|330:180,1,99.9999999999999,2|0,1:2|1:0,0:0:0:0:
287,138,106383,1,10,0:0:0:0:
336,49,106716,6,0,P|387:33|428:88,1,99.9999999999999,6|8,1:2|0:0,0:0:0:0:
471,62,107216,2,0,L|451:160,1,99.9999999999999,8|8,0:0|0:0,0:0:0:0:
477,202,107716,1,8,1:0:0:0:
463,300,108049,6,0,P|480:319|511:325,2,50,6|8|0,1:2|0:0|1:0,0:0:0:0:
420,272,108549,2,0,P|372:262|333:290,1,99.9999999999999,10|0,0:0|0:0,0:0:0:0:
302,330,109049,1,10,0:0:0:0:
261,238,109383,6,0,L|241:140,1,99.9999999999999,6|8,1:2|0:0,0:0:0:0:
196,107,109883,1,8,0:0:0:0:
150,86,110049,2,0,L|130:184,1,99.9999999999999,8|8,0:0|0:0,0:0:0:0:
101,280,110716,6,0,P|63:261|65:219,1,50,14|8,1:2|0:0,0:0:0:0:
10,259,111049,2,0,P|-3:219|28:190,1,50,8|10,0:0|0:0,0:0:0:0:
27,172,111383,2,0,P|51:129|25:78,1,99.9999999999999,8|8,0:0|1:0,0:0:0:0:
109,28,112049,6,0,B|167:2|209:44|209:44|254:89|321:49,1,200,6|0,1:2|1:2,0:0:0:0:
328,27,112883,1,0,1:0:0:0:
377,31,113049,2,0,L|396:97,1,50,8|0,0:0|0:0,0:0:0:0:
431,109,113383,6,0,L|411:207,1,99.9999999999999,12|0,1:3|1:0,0:0:0:0:
367,231,113883,2,0,L|347:329,1,99.9999999999999,10|0,1:2|0:0,0:0:0:0:
311,364,114383,1,8,0:0:0:0:
221,318,114716,6,0,P|184:273|279:204,1,200,6|0,1:2|1:2,0:0:0:0:
313,173,115549,1,8,0:0:0:0:
306,123,115716,2,0,P|259:105|226:115,1,50,8|0,0:0|1:0,0:0:0:0:
224,70,116049,6,0,L|126:90,1,99.9999999999999,12|0,1:3|1:0,0:0:0:0:
78,75,116549,2,0,P|13:96|16:162,1,99.9999999999999,10|0,0:0|1:0,0:0:0:0:
37,157,117049,1,10,0:0:0:0:
34,256,117383,6,0,B|60:314|119:311|119:311|183:308|206:382,1,200,6|0,1:2|0:0,0:0:0:0:
242,342,118216,1,8,1:2:0:0:
273,302,118383,2,0,P|288:264|268:224,1,50,8|0,0:0|0:0,0:0:0:0:
258,214,118716,6,0,P|222:165|266:105,1,99.9999999999999,12|0,1:3|1:0,0:0:0:0:
279,121,119216,2,0,P|288:61|362:50,1,99.9999999999999,2|0,1:2|1:0,0:0:0:0:
358,12,119716,1,8,0:0:0:0:
456,27,120049,6,0,L|436:125,1,99.9999999999999,6|0,1:2|1:0,0:0:0:0:
398,158,120549,1,8,0:0:0:0:
417,204,120716,2,0,L|437:302,1,99.9999999999999,0|8,1:2|0:0,0:0:0:0:
362,368,121383,6,0,P|317:351|304:304,1,99.9999999999999,12|0,1:3|1:2,0:0:0:0:
268,268,121883,2,0,P|280:213|224:177,1,99.9999999999999,2|0,3:2|1:0,0:0:0:0:
203,180,122383,1,10,0:0:0:0:
120,235,122716,6,0,P|57:209|124:128,1,200,14|8,1:2|1:2,0:0:0:0:
142,84,123549,1,0,1:0:0:0:
170,42,123716,2,0,P|210:22|241:37,1,50,8|0,1:1|1:0,0:0:0:0:
261,35,124049,2,0,P|282:79|263:124,1,99.9999999999999,12|8,1:3|1:2,0:0:0:0:
224,155,124549,2,0,P|206:203|244:255,1,99.9999999999999,10|0,0:0|1:0,0:0:0:0:
275,231,125049,1,8,1:2:0:0:
310,324,125383,6,0,P|382:349|421:243,1,200,6|0,1:2|1:0,0:0:0:0:
452,211,126216,1,8,0:0:0:0:
415,177,126383,2,0,P|402:135|423:106,1,50,8|0,0:1|1:0,0:0:0:0:
417,82,126716,6,0,P|393:35|317:57,1,99.9999999999999,12|0,1:3|1:0,0:0:0:0:
313,63,127216,2,0,P|289:110|213:88,1,99.9999999999999,10|0,0:0|1:0,0:0:0:0:
202,91,127716,1,8,1:2:0:0:
158,1,128049,6,0,P|111:-10|66:52,1,99.9999999999999,6|8,1:2|1:2,0:0:0:0:
50,64,128549,1,8,0:0:0:0:
28,109,128716,2,0,L|48:207,1,99.9999999999999,0|8,1:0|1:1,0:0:0:0:
91,296,129383,6,0,P|138:307|183:245,1,99.9999999999999,12|8,1:3|1:2,0:0:0:0:
207,238,129883,2,0,L|187:140,1,99.9999999999999,10|0,0:0|1:0,0:0:0:0:
220,102,130383,1,10,1:2:0:0:
303,47,130716,2,0,P|365:38|386:120,1,150,14|10,1:2|1:2,0:0:0:0:
360,148,131383,2,0,P|331:183|350:239,1,99.9999999999999,8|8,1:2|1:2,0:0:0:0:
313,327,132049,6,0,P|288:365|293:394,2,50,12|8|8,1:3|0:0|0:0,0:0:0:0:
361,316,132549,2,0,P|401:333|407:405,1,99.9999999999999,10|8,0:0|0:0,0:0:0:0:
462,366,133049,1,8,0:1:0:0:
489,269,133383,1,4,0:0:0:0:
