osu file format v14

[General]
AudioFilename: audio.mp3
AudioLeadIn: 0
PreviewTime: 68049
Countdown: 0
SampleSet: Soft
StackLeniency: 0.4
Mode: 0
LetterboxInBreaks: 0
WidescreenStoryboard: 1

[Editor]
Bookmarks: 21383,48049,80049,112049,133383
DistanceSpacing: 1.1
BeatDivisor: 4
GridSize: 32
TimelineZoom: 1.699999

[Metadata]
Title:RE Aoharu
TitleUnicode:RE Aoharu
Artist:Nor
ArtistUnicode:Nor
Creator:Shurelia
Version:Collab Hard
Source:ブルーアーカイブ -Blue Archive-
Tags:ブルアカ future bass electronic instrumental video game yostar gacha nat games theme 59 pv4 Reaching for the precious time captin1 anxient supav too Kyuuchie lit120 -Hakurei- nakazawa nozhomi tycani fuiba fuyu
BeatmapID:4030038
BeatmapSetID:1935191

[Difficulty]
HPDrainRate:4.5
CircleSize:3.6
OverallDifficulty:6
ApproachRate:8
SliderMultiplier:1.38
SliderTickRate:1

[Events]
//Background and Video events
0,0,"kivotos.jpg",0,0
//Break Periods
//Storyboard Layer 0 (Background)
//Storyboard Layer 1 (Fail)
//Storyboard Layer 2 (Pass)
//Storyboard Layer 3 (Foreground)
//Storyboard Layer 4 (Overlay)
//Storyboard Sound Samples

[TimingPoints]
50,333.333333333333,4,2,2,70,1,0
50,-166.666666666667,4,2,2,70,0,0
10383,-125,4,2,2,70,0,0
18716,-111.111111111111,4,2,2,70,0,0
21383,-100,4,2,2,80,0,0
32049,-90.9090909090909,4,2,2,80,0,0
40049,-83.3333333333333,4,2,2,80,0,0
42716,-333.333333333333,4,2,2,80,0,0
43966,-333.333333333333,4,2,2,5,0,0
44049,-333.333333333333,4,2,2,80,0,0
44716,-333.333333333333,4,2,2,60,0,0
48049,-200,4,2,2,40,0,0
58383,-166.666666666667,4,2,2,40,0,0
58716,-166.666666666667,4,2,3,50,0,0
68049,-142.857142857143,4,2,3,50,0,0
69049,-142.857142857143,4,2,3,60,0,0
69383,-125,4,2,2,70,0,0
70716,-125,4,2,3,70,0,0
70883,-125,4,2,2,70,0,0
73383,-125,4,2,3,70,0,0
73549,-125,4,2,2,70,0,0
76049,-125,4,2,3,70,0,0
76216,-125,4,2,2,70,0,0
78716,-125,4,2,3,70,0,0
78883,-125,4,2,2,70,0,0
80049,-111.111111111111,4,2,2,70,0,0
81383,-111.111111111111,4,2,3,70,0,0
81549,-111.111111111111,4,2,2,70,0,0
84049,-111.111111111111,4,2,3,70,0,0
84216,-111.111111111111,4,2,2,70,0,0
86716,-111.111111111111,4,2,3,70,0,0
86883,-111.111111111111,4,2,2,70,0,0
88049,-99.9999999999999,4,2,2,70,0,0
90383,-99.9999999999999,4,2,3,70,0,0
90716,-90.9090909090909,4,2,2,80,0,0
112049,-90.9090909090909,4,2,2,85,0,0
130716,-83.3333333333333,4,2,2,85,0,0
133383,-83.3333333333333,4,2,2,80,0,0
133466,-83.3333333333333,4,2,2,10,0,0

[Colours]
Combo1 : 250,180,240
Combo2 : 120,200,230
Combo3 : 255,230,130
Combo4 : 160,230,150

[HitObjects]
33,344,50,6,0,L|43:386,2,41.3999987365723,14|2|2,1:2|0:0|1:2,0:0:0:0:
105,290,549,2,0,P|142:315|194:306,1,82.7999974731446,10|0,0:0|0:0,0:0:0:0:
247,252,1049,1,8,1:2:0:0:
377,380,1383,1,0,1:0:0:0:
377,380,1549,2,0,P|386:336|397:280,1,82.7999974731446,8|0,0:0|3:0,0:0:0:0:
464,241,2049,1,8,1:2:0:0:
380,78,2383,2,0,P|359:74|339:72,1,41.3999987365723,8|8,1:2|0:0,0:0:0:0:
260,39,2716,6,0,P|258:12|273:-13,2,41.3999987365723,14|2|2,1:2|3:2|1:2,0:0:0:0:
197,105,3216,2,0,P|207:144|223:203,1,82.7999974731446,10|0,0:0|3:0,0:0:0:0:
282,249,3716,1,8,1:2:0:0:
155,380,4049,1,0,1:0:0:0:
155,380,4216,2,0,P|110:369|58:360,1,82.7999974731446,8|0,0:0|3:0,0:0:0:0:
1,306,4716,2,0,P|6:284|11:257,1,41.3999987365723,8|8,1:2|0:0,0:0:0:0:
74,201,5049,2,0,P|69:179|64:152,1,41.3999987365723,8|8,1:2|0:0,0:0:0:0:
39,72,5383,6,0,P|12:79|-12:86,2,41.3999987365723,14|0|2,1:2|0:0|1:2,0:0:0:0:
99,3,5883,2,0,P|141:12|195:24,1,82.7999974731446,10|0,0:0|0:0,0:0:0:0:
244,85,6383,1,8,1:2:0:0:
409,4,6716,1,0,1:0:0:0:
409,4,6883,2,0,P|463:9|483:38,1,82.7999974731446,8|0,0:0|3:0,0:0:0:0:
508,115,7383,1,8,1:2:0:0:
389,253,7716,2,0,P|365:249|332:242,1,41.3999987365723,8|8,1:2|0:0,0:0:0:0:
268,290,8049,6,0,P|267:316|281:344,2,41.3999987365723,10|2|2,1:2|0:0|1:2,0:0:0:0:
203,224,8549,2,0,P|167:231|108:249,1,82.7999974731446,10|0,0:0|3:0,0:0:0:0:
58,309,9049,1,8,1:2:0:0:
228,384,9383,1,0,1:0:0:0:
228,384,9549,2,0,P|268:375|322:363,1,82.7999974731446,8|0,0:0|3:0,0:0:0:0:
398,383,10049,1,8,1:2:0:0:
510,246,10383,2,0,B|503:210|503:210|504:207|504:207|494:156,1,82.8,8|8,0:1|0:0,0:0:0:0:
458,141,10716,6,0,P|426:149|396:153,2,55.2,14|2|10,1:2|0:0|1:2,0:0:0:0:
467,53,11216,2,0,P|413:62|345:72,1,110.4,8|0,0:0|0:0,0:0:0:0:
292,10,11716,2,0,P|253:55|272:120,1,110.4,8|8,1:2|1:2,0:0:0:0:
308,181,12216,1,8,0:0:0:0:
308,181,12383,1,8,1:2:0:0:
234,341,12716,2,0,P|181:329|127:317,1,110.4,8|8,1:2|1:2,0:0:0:0:
46,338,13216,5,8,0:0:0:0:
46,338,13299,1,8,0:0:0:0:
46,338,13383,2,0,P|23:366|26:396,2,55.2,14|2|10,1:2|3:2|1:2,0:0:0:0:
0,261,13883,2,0,P|11:200|22:132,1,110.4,10|0,0:0|0:0,0:0:0:0:
106,143,14383,2,0,P|96:197|87:251,1,110.4,8|8,1:2|1:2,0:0:0:0:
140,322,14883,1,8,0:0:0:0:
140,322,15049,1,8,1:2:0:0:
315,303,15383,2,0,L|358:312,3,27.6,8|8|8|8,1:2|0:0|0:0|0:0,0:0:0:0:
379,332,15716,2,0,L|422:323,3,27.6,8|8|8|8,1:2|0:0|0:0|0:0,0:0:0:0:
449,335,16049,6,0,P|466:364|461:395,2,55.2,6|0|10,1:2|0:0|1:2,0:0:0:0:
493,258,16549,2,0,P|440:245|370:233,1,110.4,10|0,0:0|0:0,0:0:0:0:
330,165,17049,2,0,P|353:127|427:132,1,110.4,8|8,1:2|1:2,0:0:0:0:
488,180,17549,1,8,0:0:0:0:
488,180,17716,1,8,1:2:0:0:
510,4,18049,2,0,P|457:17|387:29,1,110.4,8|8,1:2|0:0,0:0:0:0:
333,79,18549,5,8,0:0:0:0:
333,79,18633,1,8,0:0:0:0:
333,79,18716,2,0,P|293:69|259:61,1,62.0999981048585,14|10,1:2|1:2,0:0:0:0:
208,4,19049,2,0,P|168:14|134:22,1,62.0999981048585,10|10,1:2|1:2,0:0:0:0:
81,74,19383,1,8,0:0:0:0:
81,74,19549,1,8,0:0:0:0:
138,139,19716,1,8,0:0:0:0:
67,190,19883,1,8,0:0:0:0:
116,260,20049,6,0,P|152:252|194:244,2,62.0999981048585,4|0|8,1:2|1:0|0:0,0:0:0:0:
63,329,20549,2,0,P|27:321|-15:313,2,62.0999981048585,0|0|8,1:0|1:0|0:0,0:0:0:0:
130,383,21049,1,8,0:1:0:0:
202,332,21216,1,8,0:0:0:0:
202,332,21299,1,8,0:0:0:0:
202,332,21383,6,0,P|266:308|335:303,1,138,14|8,1:2|1:2,0:0:0:0:
426,335,21883,2,0,L|457:200,1,138,0|8,1:0|0:0,0:0:0:0:
447,105,22382,1,8,0:0:0:0:
447,105,22549,1,0,1:0:0:0:
353,133,22716,2,0,P|335:104|326:71,1,69,8|4,1:3|1:3,0:0:0:0:
240,24,23049,2,0,P|212:46|188:70,1,69,4|8,1:3|0:0,0:0:0:0:
91,59,23383,1,10,1:2:0:0:
91,59,23549,1,0,0:0:0:0:
45,144,23716,1,8,1:2:0:0:
45,144,23883,1,8,3:0:0:0:
139,158,24049,6,0,P|169:220|198:283,1,138,14|10,1:2|1:2,0:0:0:0:
255,361,24549,2,0,P|288:302|274:236,1,138,2|8,0:0|0:0,0:0:0:0:
258,141,25048,1,8,1:2:0:0:
258,141,25215,1,8,0:0:0:0:
304,55,25382,2,0,P|337:67|371:71,1,69,8|4,1:3|1:3,0:0:0:0:
448,12,25715,2,0,P|462:43|462:77,1,69,4|8,1:3|0:0,0:0:0:0:
400,153,26049,1,8,0:0:0:0:
400,153,26215,1,8,0:0:0:0:
489,190,26382,1,8,0:0:0:0:
411,248,26549,1,8,0:0:0:0:
411,248,26633,1,8,0:0:0:0:
411,248,26716,6,0,P|356:288|309:338,1,138,6|10,1:2|1:2,0:0:0:0:
219,375,27216,2,0,P|150:370|81:363,1,138,10|0,0:0|1:0,0:0:0:0:
25,285,27715,1,8,0:0:0:0:
25,285,27882,1,0,0:0:0:0:
77,204,28049,2,0,P|73:169|67:135,1,69,8|4,1:3|1:3,0:0:0:0:
0,73,28382,2,0,L|52:28,1,69,4|8,1:3|0:0,0:0:0:0:
140,70,28716,1,8,0:0:0:0:
140,70,28882,1,0,0:0:0:0:
216,10,29049,1,8,0:0:0:0:
216,10,29216,1,8,0:0:0:0:
292,69,29383,6,0,B|304:56|304:56|422:38,1,138,6|10,1:2|1:2,0:0:0:0:
493,103,29883,2,0,P|466:165|457:234,1,138,10|8,0:0|0:0,0:0:0:0:
498,321,30382,1,8,0:0:0:0:
498,321,30549,1,0,1:0:0:0:
420,380,30716,2,0,P|387:377|360:356,1,69,8|4,1:3|1:3,0:0:0:0:
266,331,31049,2,0,P|260:297|262:262,1,69,4|8,1:3|0:0,0:0:0:0:
303,174,31383,1,8,0:0:0:0:
303,174,31549,1,0,0:0:0:0:
229,110,31716,1,8,0:0:0:0:
273,24,31883,1,8,0:0:0:0:
273,24,31966,1,8,0:0:0:0:
273,24,32049,6,0,B|246:13|246:13|126:42,1,151.800004632568,6|8,1:2|0:0,0:0:0:0:
21,29,32549,1,8,0:0:0:0:
21,29,32716,2,0,L|28:104,1,75.9000023162842,8|8,1:2|1:0,0:0:0:0:
121,218,33049,2,0,L|128:142,1,75.9000023162842,8|0,1:0|0:0,0:0:0:0:
8,210,33383,2,0,P|26:284|39:359,1,151.800004632568,8|4,1:3|1:3,0:0:0:0:
38,359,34049,2,0,P|75:349|105:326,1,75.9000023162842,10|0,1:2|1:0,0:0:0:0:
193,299,34383,1,8,1:2:0:0:
264,355,34549,1,0,3:0:0:0:
342,309,34716,6,0,P|417:294|492:286,1,151.800004632568,14|10,1:2|0:0,0:0:0:0:
498,195,35216,1,10,0:0:0:0:
498,195,35383,2,0,L|501:119,1,75.9000023162842,8|0,1:2|0:0,0:0:0:0:
413,13,35716,2,0,L|409:88,1,75.9000023162842,8|0,0:1|1:0,0:0:0:0:
356,162,36050,2,0,B|339:176|339:176|210:158,1,151.800004632568,8|4,1:3|1:3,0:0:0:0:
211,159,36716,2,0,L|202:83,1,75.9000023162842,10|0,1:2|0:0,0:0:0:0:
134,22,37050,1,8,1:2:0:0:
51,60,37216,1,8,0:0:0:0:
51,60,37299,1,8,0:0:0:0:
51,60,37383,6,0,P|36:133|53:207,1,151.800004632568,10|10,1:2|1:2,0:0:0:0:
141,232,37883,1,10,0:0:0:0:
141,232,38050,2,0,L|129:307,1,75.9000023162842,8|8,1:2|0:0,0:0:0:0:
229,381,38383,2,0,L|239:305,1,75.9000023162842,8|0,1:0|0:0,0:0:0:0:
340,262,38717,2,0,P|353:189|310:128,1,151.800004632568,6|8,1:2|1:2,0:0:0:0:
310,128,39383,2,0,P|347:121|384:112,1,75.9000023162842,8|0,1:0|1:0,0:0:0:0:
457,57,39717,1,8,1:0:0:0:
373,21,39883,1,8,0:0:0:0:
475,150,40049,6,0,P|484:190|488:231,2,82.7999974731446,14|10|10,1:2|1:2|1:2,0:0:0:0:
392,205,40549,1,10,1:2:0:0:
391,205,40716,2,0,P|389:246|389:287,2,82.7999974731446,8|8|8,1:2|1:2|1:2,0:0:0:0:
301,333,41216,1,8,1:2:0:0:
301,333,41383,6,0,L|259:328,5,41.3999987365723,8|8|8|8|8|8,1:3|0:0|0:0|0:0|0:0|0:0,0:0:0:0:
218,288,41883,6,0,L|168:298,5,41.3999987365723,8|8|8|8|8|8,0:0|0:0|0:0|0:0|0:0|0:0,0:0:0:0:
141,330,42383,6,0,L|90:323,3,41.3999987365723,8|8|8|8,0:0|0:0|0:0|0:0,0:0:0:0:
49,259,42716,5,12,1:1:0:0:
256,192,45383,12,0,47549,0:0:0:0:
195,101,48049,6,0,P|207:57|222:2,2,103.5,6|2|2,0:0|0:0|0:0,0:0:0:0:
64,224,49383,2,0,P|76:268|91:323,2,103.5,2|2|2,0:0|0:0|0:0,0:0:0:0:
2,55,50716,1,2,0:0:0:0:
168,194,51216,1,2,0:0:0:0:
350,106,51716,1,2,0:0:0:0:
491,215,52049,2,0,P|513:173|492:115,1,103.5,2|2,0:0|0:0,0:0:0:0:
255,3,53049,1,2,0:0:0:0:
158,154,53383,6,0,P|108:144|46:134,2,103.5,2|2|2,0:0|0:0|0:0,0:0:0:0:
312,245,54716,2,0,P|362:235|424:225,2,103.5,2|2|2,0:0|0:0|0:0,0:0:0:0:
197,382,56049,1,2,0:0:0:0:
106,224,56549,1,2,0:0:0:0:
261,77,57049,1,2,0:0:0:0:
96,5,57383,2,0,P|30:8|10:49,1,103.5,2|2,0:0|0:0,0:0:0:0:
1,123,58049,1,0,0:0:0:0:
138,242,58383,2,0,P|134:268|129:295,1,41.3999987365723,10|8,0:0|0:0,0:0:0:0:
159,369,58716,6,0,P|194:343|245:353,1,82.7999974731446,14|0,0:0|1:0,0:0:0:0:
314,382,59216,2,0,P|356:373|408:362,1,82.7999974731446,8|0,0:0|1:0,0:0:0:0:
484,383,59716,1,10,0:0:0:0:
508,206,60049,1,10,1:2:0:0:
508,206,60216,2,0,P|498:163|489:109,1,82.7999974731446,10|2,0:0|1:2,0:0:0:0:
498,33,60716,1,8,0:0:0:0:
318,3,61049,2,0,P|322:24|329:52,1,41.3999987365723,10|8,0:0|0:0,0:0:0:0:
268,113,61383,6,0,P|224:102|175:92,1,82.7999974731446,14|0,0:0|1:0,0:0:0:0:
145,175,61883,2,0,P|185:183|225:193,1,82.7999974731446,10|0,0:0|1:0,0:0:0:0:
291,257,62383,1,10,0:0:0:0:
452,169,62716,1,10,1:3:0:0:
452,169,62883,2,0,P|481:211|471:256,1,82.7999974731446,8|2,0:0|1:2,0:0:0:0:
505,327,63383,2,0,L|454:338,1,41.3999987365723,8|8,0:0|0:0,0:0:0:0:
386,383,63716,2,0,L|335:372,1,41.3999987365723,10|8,0:0|0:0,0:0:0:0:
254,382,64049,6,0,P|227:345|237:300,1,82.7999974731446,14|0,0:2|1:0,0:0:0:0:
285,237,64549,2,0,P|303:198|281:155,1,82.7999974731446,10|0,0:0|1:0,0:0:0:0:
222,100,65049,1,10,0:0:0:0:
377,4,65383,1,10,1:3:0:0:
377,4,65549,2,0,P|420:13|462:19,1,82.7999974731446,8|2,0:0|1:2,0:0:0:0:
510,93,66049,1,8,0:0:0:0:
406,243,66383,2,0,P|385:239|365:235,1,41.3999987365723,10|8,0:0|0:0,0:0:0:0:
287,187,66716,6,0,P|244:194|189:206,1,82.7999974731446,14|0,0:0|1:0,0:0:0:0:
127,154,67216,2,0,P|98:193|107:234,1,82.7999974731446,10|0,0:0|1:0,0:0:0:0:
167,287,67716,1,8,0:0:0:0:
0,384,68049,5,14,1:3:0:0:
0,384,68216,2,0,P|5:363|13:316,1,48.299998526001,8|0,0:0|0:0,0:0:0:0:
8,248,68549,1,10,0:0:0:0:
8,248,68633,1,8,0:0:0:0:
8,248,68716,2,0,P|13:227|21:180,1,48.299998526001,8|0,0:0|1:0,0:0:0:0:
1,105,69049,1,10,0:1:0:0:
146,3,69383,6,0,P|175:28|252:28,1,110.4,6|0,1:2|1:0,0:0:0:0:
327,2,69883,1,8,1:2:0:0:
327,2,70049,2,0,P|333:32|342:76,1,55.2,0|0,1:0|0:0,0:0:0:0:
405,114,70383,2,0,P|399:144|390:188,1,55.2,8|0,0:0|0:0,0:0:0:0:
419,252,70716,2,0,P|473:248|517:302,1,110.4,10|8,1:3|1:2,0:0:0:0:
511,372,71216,2,0,P|459:358|391:345,1,110.4,10|0,0:0|0:0,0:0:0:0:
332,294,71716,1,10,1:2:0:0:
271,358,71883,5,8,0:0:0:0:
271,358,71966,1,8,0:0:0:0:
271,358,72049,2,0,P|244:320|259:242,1,110.4,6|0,1:2|1:0,0:0:0:0:
313,199,72549,1,8,0:0:0:0:
313,199,72716,2,0,P|306:169|299:131,1,55.2,0|0,1:0|1:0,0:0:0:0:
227,97,73049,2,0,P|234:67|241:29,1,55.2,8|0,0:0|0:0,0:0:0:0:
159,2,73383,2,0,P|120:36|50:17,1,110.4,10|8,1:3|0:0,0:0:0:0:
5,94,73883,1,2,1:2:0:0:
5,94,74049,2,0,L|13:135,3,27.6,8|8|8|8,1:2|0:0|0:0|0:0,0:0:0:0:
43,150,74383,2,0,L|35:191,3,27.6,10|8|8|8,1:2|0:0|0:0|0:0,0:0:0:0:
6,207,74716,6,0,P|19:255|40:330,1,110.4,6|0,1:2|1:0,0:0:0:0:
91,381,75216,1,8,0:0:0:0:
91,381,75383,2,0,P|116:364|154:369,1,55.2,0|0,1:0|0:0,0:0:0:0:
226,382,75716,2,0,P|231:352|238:322,1,55.2,8|0,0:0|0:0,0:0:0:0:
309,278,76049,2,0,P|251:238|201:248,1,110.4,10|8,1:3|0:0,0:0:0:0:
130,269,76549,2,0,P|122:226|104:152,1,110.4,2|0,1:2|0:0,0:0:0:0:
46,95,77049,1,10,0:0:0:0:
113,37,77216,5,8,0:0:0:0:
113,37,77299,1,8,0:0:0:0:
113,37,77383,2,0,P|166:48|238:64,1,110.4,6|0,1:2|1:0,0:0:0:0:
311,44,77883,1,8,0:0:0:0:
311,44,78049,2,0,P|329:74|326:98,1,55.2,0|0,1:0|1:0,0:0:0:0:
289,173,78383,2,0,P|276:202|290:232,1,55.2,8|0,0:0|0:0,0:0:0:0:
362,261,78716,2,0,B|414:246|468:233,1,110.4,10|8,1:2|0:0,0:0:0:0:
509,316,79216,2,0,P|454:323|401:339,1,110.4,2|0,1:2|0:0,0:0:0:0:
327,383,79716,1,8,0:0:0:0:
263,320,79883,1,8,0:0:0:0:
263,320,79966,1,8,0:0:0:0:
262,319,80049,6,0,P|201:311|142:328,1,124.199996209717,14|8,1:2|0:0,0:0:0:0:
67,373,80549,1,8,0:0:0:0:
20,298,80716,2,0,P|21:267|13:237,1,62.0999981048585,8|0,1:2|0:0,0:0:0:0:
105,256,81049,2,0,P|106:225|98:195,1,62.0999981048585,8|0,1:2|0:0,0:0:0:0:
26,144,81383,2,0,P|39:117|51:88,2,62.0999981048585,10|8|0,1:3|0:0|1:2,0:0:0:0:
152,122,81883,2,0,P|144:92|140:61,2,62.0999981048585,2|8|0,1:2|1:2|0:0,0:0:0:0:
229,160,82383,1,10,0:0:0:0:
291,93,82549,1,8,0:0:0:0:
291,93,82633,1,8,0:0:0:0:
291,93,82716,6,0,P|352:83|414:85,1,124.199996209717,6|8,1:2|1:2,0:0:0:0:
479,150,83216,1,8,0:0:0:0:
430,221,83383,2,0,P|434:252|441:282,1,62.0999981048585,8|0,1:2|0:0,0:0:0:0:
346,216,83716,2,0,P|332:245|313:269,1,62.0999981048585,8|0,1:2|0:0,0:0:0:0:
235,309,84050,2,0,P|205:299|175:291,2,62.0999981048585,10|8|8,1:3|0:0|0:0,0:0:0:0:
332,372,84550,2,0,P|362:363|391:355,2,62.0999981048585,2|8|0,1:2|0:0|0:0,0:0:0:0:
498,384,85050,1,10,0:0:0:0:
475,305,85216,1,8,0:0:0:0:
475,305,85300,1,8,0:0:0:0:
474,304,85383,6,0,P|460:244|457:182,1,124.199996209717,14|8,1:2|1:2,0:0:0:0:
499,106,85883,1,8,0:0:0:0:
433,53,86050,2,0,P|401:53|371:51,1,62.0999981048585,8|0,1:2|0:0,0:0:0:0:
253,49,86383,2,0,P|279:67|299:91,1,62.0999981048585,8|0,1:2|1:0,0:0:0:0:
228,142,86717,2,0,P|197:150|167:156,2,62.0999981048585,10|8|8,1:3|0:0|0:0,0:0:0:0:
167,64,87217,2,0,P|137:55|107:47,2,62.0999981048585,2|8|0,1:2|0:0|0:0,0:0:0:0:
91,132,87717,1,10,0:0:0:0:
12,95,87883,1,8,0:0:0:0:
12,95,87967,1,8,0:0:0:0:
12,95,88049,6,0,P|19:163|25:232,1,138,12|8,1:2|1:2,0:0:0:0:
31,328,88549,1,8,1:2:0:0:
115,374,88716,1,8,1:2:0:0:
197,322,88883,1,8,1:2:0:0:
197,322,89049,1,8,1:0:0:0:
292,335,89216,1,0,0:0:0:0:
381,300,89383,2,0,P|413:315|446:324,2,69,6|0|8,1:2|1:0|0:0,0:0:0:0:
300,248,89883,1,2,1:2:0:0:
300,248,90049,2,0,P|266:240|233:229,2,69,0|8|10,1:0|0:0|1:0,0:0:0:0:
390,208,90549,1,0,0:0:0:0:
390,208,90633,1,8,0:0:0:0:
389,208,90716,6,0,P|386:132|376:57,1,151.800004632568,6|8,1:2|0:0,0:0:0:0:
300,6,91216,1,0,1:0:0:0:
300,6,91383,1,0,1:0:0:0:
266,90,91549,1,8,0:0:0:0:
266,90,91716,2,0,P|228:86|190:80,1,75.9000023162842,8|0,1:0|0:0,0:0:0:0:
104,145,92049,2,0,P|171:124|209:184,1,151.800004632568,2|0,1:2|1:0,0:0:0:0:
135,307,92549,2,0,P|128:270|131:232,1,75.9000023162842,10|8,0:0|0:0,0:0:0:0:
269,258,92882,1,0,0:0:0:0:
268,257,93049,2,0,P|276:295|277:332,1,75.9000023162842,10|8,0:0|0:0,0:0:0:0:
239,357,93299,1,8,0:0:0:0:
239,357,93383,6,0,P|163:362|90:382,1,151.800004632568,6|8,1:2|0:0,0:0:0:0:
5,349,93883,1,0,1:0:0:0:
5,349,94050,1,0,1:0:0:0:
33,262,94216,1,8,0:0:0:0:
33,262,94383,2,0,L|27:186,1,75.9000023162842,8|0,1:0|0:0,0:0:0:0:
15,95,94716,2,0,P|89:75|164:65,1,151.800004632568,2|0,1:2|1:0,0:0:0:0:
237,7,95216,2,0,P|275:6|310:19,1,75.9000023162842,10|8,0:0|0:0,0:0:0:0:
376,82,95549,1,0,0:0:0:0:
376,82,95716,2,0,P|413:79|450:72,1,75.9000023162842,10|8,0:0|0:0,0:0:0:0:
488,99,95966,1,8,0:0:0:0:
487,98,96049,6,0,P|498:174|491:249,1,151.800004632568,6|8,1:2|0:0,0:0:0:0:
466,340,96549,1,0,1:0:0:0:
466,340,96716,1,0,1:0:0:0:
394,284,96882,1,8,0:0:0:0:
394,283,97049,2,0,P|358:295|320:303,1,75.9000023162842,8|0,1:0|0:0,0:0:0:0:
241,349,97382,2,0,P|219:276|183:209,1,151.800004632568,2|0,1:2|1:0,0:0:0:0:
64,265,97882,2,0,P|97:285|132:300,1,75.9000023162842,10|8,0:0|1:2,0:0:0:0:
102,175,98215,1,0,0:0:0:0:
102,175,98382,2,0,P|103:137|114:100,1,75.9000023162842,8|8,0:0|0:0,0:0:0:0:
140,63,98632,1,8,0:0:0:0:
139,62,98716,6,0,P|212:85|288:89,1,151.800004632568,4|8,1:2|0:0,0:0:0:0:
378,77,99216,1,8,0:0:0:0:
378,77,99383,1,0,1:0:0:0:
344,161,99549,1,8,0:0:0:0:
343,161,99716,2,0,P|332:197|327:234,1,75.9000023162842,8|0,1:0|0:0,0:0:0:0:
346,322,100049,2,0,P|421:323|479:277,1,151.800004632568,2|0,1:2|1:2,0:0:0:0:
504,189,100549,2,0,B|505:202|500:155|498:117,1,75.9000023162842,2|8,1:2|0:0,0:0:0:0:
492,26,100882,1,0,1:2:0:0:
491,26,101049,2,0,P|459:45|424:60,1,75.9000023162842,8|8,0:0|0:0,0:0:0:0:
382,44,101299,1,8,0:0:0:0:
382,44,101383,6,0,P|309:24|233:26,1,151.800004632568,6|8,1:2|0:0,0:0:0:0:
142,23,101883,1,8,0:0:0:0:
142,23,102050,1,0,1:0:0:0:
51,29,102216,1,8,0:0:0:0:
51,28,102383,2,0,P|48:66|45:104,1,75.9000023162842,8|0,1:0|0:0,0:0:0:0:
119,156,102716,2,0,P|120:232|116:308,1,151.800004632568,8|0,1:3|1:0,0:0:0:0:
187,365,103216,2,0,P|223:353|260:344,1,75.9000023162842,2|8,1:2|0:0,0:0:0:0:
350,359,103549,1,0,0:0:0:0:
428,311,103716,2,0,P|424:274|405:242,1,75.9000023162842,10|8,0:0|0:0,0:0:0:0:
362,227,103966,1,8,0:0:0:0:
362,226,104049,6,0,P|289:218|258:152,1,151.800004632568,6|8,1:2|0:0,0:0:0:0:
311,78,104549,1,8,0:0:0:0:
311,78,104716,1,0,1:0:0:0:
401,86,104882,1,8,0:0:0:0:
401,86,105049,2,0,P|411:122|418:159,1,75.9000023162842,8|0,1:0|0:0,0:0:0:0:
496,206,105382,2,0,P|477:279|468:354,1,151.800004632568,2|0,1:2|0:0,0:0:0:0:
377,362,105882,2,0,B|390:363|341:358|305:356,1,75.9000023162842,2|8,1:2|0:0,0:0:0:0:
214,348,106215,1,0,1:0:0:0:
128,378,106382,2,0,P|122:340|119:302,1,75.9000023162842,10|8,0:0|0:0,0:0:0:0:
80,290,106632,1,8,0:0:0:0:
79,290,106716,6,0,P|81:214|73:138,1,151.800004632568,6|8,1:2|0:0,0:0:0:0:
6,77,107216,1,8,0:0:0:0:
6,77,107383,1,0,1:0:0:0:
88,40,107549,1,8,0:0:0:0:
88,40,107716,2,0,P|126:48|163:51,1,75.9000023162842,8|0,1:0|0:0,0:0:0:0:
254,57,108049,2,0,P|261:133|265:209,1,151.800004632568,6|0,1:2|1:0,0:0:0:0:
265,300,108549,2,0,P|296:321|329:339,1,75.9000023162842,10|8,0:0|0:0,0:0:0:0:
418,360,108882,1,0,1:0:0:0:
501,323,109049,2,0,P|497:285|499:247,1,75.9000023162842,10|0,0:0|1:0,0:0:0:0:
468,213,109299,1,0,1:0:0:0:
468,213,109383,6,0,P|474:175|479:138,1,75.9000023162842,6|0,1:2|0:0,0:0:0:0:
472,47,109716,1,8,0:0:0:0:
401,104,109883,1,8,0:0:0:0:
354,25,110049,1,8,0:0:0:0:
183,89,110383,1,8,0:0:0:0:
13,22,110716,1,14,1:2:0:0:
13,22,110799,1,8,3:2:0:0:
13,22,110883,1,8,0:0:0:0:
58,99,111049,2,0,P|44:135|37:172,1,75.9000023162842,8|10,0:0|0:0,0:0:0:0:
129,178,111383,2,0,P|110:212|101:248,1,75.9000023162842,8|8,0:0|0:0,0:0:0:0:
209,338,111716,2,0,P|199:282|204:226,1,113.850003474426,8|0,1:0|0:0,0:0:0:0:
241,200,112049,6,0,P|308:216|385:249,1,151.800004632568,6|0,1:2|1:0,0:0:0:0:
471,215,112549,1,8,0:0:0:0:
471,215,112716,1,0,1:2:0:0:
412,145,112883,1,0,1:0:0:0:
484,91,113049,2,0,P|476:50|469:15,1,75.9000023162842,8|0,0:0|0:0,0:0:0:0:
378,4,113383,6,0,P|346:30|293:21,1,75.9000023162842,12|8,1:3|1:2,0:0:0:0:
225,2,113716,1,0,1:0:0:0:
225,2,113799,1,8,3:2:0:0:
225,2,113883,2,0,P|218:39|208:87,1,75.9000023162842,10|8,1:2|0:0,0:0:0:0:
167,157,114216,1,0,0:0:0:0:
83,119,114383,2,0,L|36:131,3,37.9500011581421,8|8|8|8,0:0|0:0|0:0|0:0,0:0:0:0:
3,144,114716,6,0,P|-7:182|8:217,1,75.9000023162842,6|0,1:2|0:0,0:0:0:0:
2,305,115049,1,0,1:0:0:0:
2,305,115216,2,0,P|77:318|154:341,1,151.800004632568,8|8,0:0|0:0,0:0:0:0:
230,380,115716,1,8,0:0:0:0:
292,313,115883,1,0,1:0:0:0:
217,260,116049,6,0,L|200:181,1,75.9000023162842,12|0,1:3|0:0,0:0:0:0:
144,113,116383,1,0,1:0:0:0:
144,113,116466,1,0,0:0:0:0:
144,113,116549,2,0,P|152:73|161:34,1,75.9000023162842,10|8,0:0|0:0,0:0:0:0:
244,2,116883,1,0,1:0:0:0:
244,2,116966,1,0,0:0:0:0:
244,2,117049,2,0,L|256:46,3,37.9500011581421,10|8|8|8,0:0|0:0|0:0|0:0,0:0:0:0:
283,74,117383,6,0,P|357:89|416:26,1,151.800004632568,6|8,1:2|0:0,0:0:0:0:
500,77,117883,1,8,0:0:0:0:
500,77,118049,1,0,0:0:0:0:
441,146,118216,1,8,1:2:0:0:
507,209,118383,2,0,P|497:250|489:298,1,75.9000023162842,8|0,0:0|0:0,0:0:0:0:
474,372,118716,6,0,P|427:344|388:352,1,75.9000023162842,12|8,1:3|1:2,0:0:0:0:
328,323,119049,1,0,1:0:0:0:
328,323,119133,1,8,3:2:0:0:
328,323,119216,2,0,P|287:346|246:340,1,75.9000023162842,2|8,1:2|0:0,0:0:0:0:
177,304,119549,1,0,1:0:0:0:
115,371,119716,2,0,L|64:362,3,37.9500011581421,8|8|8|8,0:0|0:0|0:0|0:0,0:0:0:0:
33,376,120049,6,0,P|2:343|15:303,1,75.9000023162842,6|0,1:2|0:0,0:0:0:0:
26,229,120383,1,0,1:0:0:0:
26,229,120549,2,0,P|13:157|-3:65,1,151.800004632568,8|0,0:0|1:0,0:0:0:0:
54,7,121049,1,8,0:0:0:0:
122,66,121216,1,0,0:0:0:0:
200,19,121383,6,0,P|242:28|296:39,1,75.9000023162842,12|0,1:3|0:0,0:0:0:0:
360,3,121716,1,0,1:2:0:0:
360,3,121799,1,8,3:2:0:0:
360,3,121883,2,0,P|386:41|372:85,1,75.9000023162842,2|8,3:2|0:0,0:0:0:0:
324,138,122216,1,0,1:0:0:0:
393,197,122383,2,0,L|441:189,3,37.9500011581421,10|8|8|8,0:0|0:0|0:0|0:0,0:0:0:0:
474,200,122716,6,0,P|519:130|484:52,1,151.800004632568,14|8,1:2|1:2,0:0:0:0:
436,4,123216,1,8,0:0:0:0:
436,4,123383,1,8,1:2:0:0:
381,76,123549,1,0,1:0:0:0:
296,40,123716,2,0,P|255:48|212:57,1,75.9000023162842,8|0,1:1|1:0,0:0:0:0:
145,4,124049,6,0,P|128:41|136:81,1,75.9000023162842,12|8,1:3|0:0,0:0:0:0:
144,174,124383,1,8,1:2:0:0:
144,174,124466,1,8,0:0:0:0:
144,174,124549,2,0,P|103:166|60:157,1,75.9000023162842,10|8,0:0|1:2,0:0:0:0:
0,219,124883,1,0,1:0:0:0:
64,282,125049,2,0,L|74:329,3,37.9500011581421,8|8|8|8,1:2|0:0|0:0|0:0,0:0:0:0:
93,360,125383,6,0,P|141:382|174:371,1,75.9000023162842,6|0,1:2|0:0,0:0:0:0:
252,382,125716,1,8,1:2:0:0:
252,382,125883,2,0,P|238:310|220:229,1,151.800004632568,8|8,0:0|0:0,0:0:0:0:
150,174,126383,1,8,0:1:0:0:
201,99,126549,1,0,1:0:0:0:
280,143,126716,6,0,P|324:149|371:158,1,75.9000023162842,12|8,1:3|0:0,0:0:0:0:
440,209,127049,1,0,1:0:0:0:
440,209,127133,1,8,0:0:0:0:
440,209,127216,2,0,P|466:178|460:136,1,75.9000023162842,10|8,0:0|1:2,0:0:0:0:
509,65,127549,1,0,1:0:0:0:
443,0,127716,2,0,L|397:10,3,37.9500011581421,8|8|8|8,1:2|0:0|0:0|0:0,0:0:0:0:
360,1,128049,6,0,P|306:58|332:136,1,151.800004632568,6|8,1:2|1:2,0:0:0:0:
385,188,128549,1,8,0:0:0:0:
385,188,128716,1,0,1:0:0:0:
338,266,128883,1,0,1:0:0:0:
257,224,129049,2,0,P|217:233|165:243,1,75.9000023162842,8|0,1:1|1:0,0:0:0:0:
123,310,129383,6,0,P|84:304|39:298,1,75.9000023162842,12|8,1:3|0:0,0:0:0:0:
0,221,129716,1,8,1:2:0:0:
0,221,129799,1,8,0:0:0:0:
0,221,129883,2,0,P|32:190|76:197,1,75.9000023162842,10|8,0:0|1:2,0:0:0:0:
143,230,130216,1,0,1:0:0:0:
223,186,130383,2,0,P|219:166|212:133,3,37.9500011581421,10|8|8|8,1:2|0:0|0:0|0:0,0:0:0:0:
174,116,130716,6,0,P|179:81|189:29,1,82.7999974731446,14|10,1:2|1:2,0:0:0:0:
276,4,131049,1,10,1:2:0:0:
276,4,131216,1,10,1:2:0:0:
338,70,131383,1,8,1:2:0:0:
413,19,131549,1,8,1:2:0:0:
470,89,131716,1,8,1:2:0:0:
398,145,131883,1,8,1:2:0:0:
462,209,132049,6,0,L|447:264,3,41.3999987365723,12|8|8|8,1:3|0:0|0:0|0:0,0:0:0:0:
421,284,132383,2,0,L|436:339,3,41.3999987365723,8|8|10|8,0:0|0:0|0:0|0:0,0:0:0:0:
415,366,132716,1,8,0:0:0:0:
403,364,132799,1,8,0:0:0:0:
391,362,132882,1,8,0:0:0:0:
378,360,132966,1,8,0:0:0:0:
366,358,133049,2,0,P|300:370|230:383,1,124.199996209717,8|4,0:1|1:3,0:0:0:0:
197,380,133383,5,4,0:0:0:0:
