osu file format v14

[General]
AudioFilename: audio.mp3
AudioLeadIn: 0
PreviewTime: 68049
Countdown: 0
SampleSet: Soft
StackLeniency: 0.4
Mode: 0
LetterboxInBreaks: 0
WidescreenStoryboard: 1

[Editor]
DistanceSpacing: 1
BeatDivisor: 4
GridSize: 4
TimelineZoom: 2.599999

[Metadata]
Title:RE Aoharu
TitleUnicode:RE Aoharu
Artist:Nor
ArtistUnicode:Nor
Creator:Shurelia
Version:Abydos
Source:ブルーアーカイブ -Blue Archive-
Tags:ブルアカ future bass electronic instrumental video game yostar gacha nat games theme 59 pv4 Reaching for the precious time captin1 anxient supav too Kyuuchie lit120 -Hakurei- nakazawa nozhomi tycani fuiba fuyu
BeatmapID:4026057
BeatmapSetID:1935191

[Difficulty]
HPDrainRate:6
CircleSize:4.6
OverallDifficulty:8.9
ApproachRate:9.3
SliderMultiplier:2
SliderTickRate:1

[Events]
//Background and Video events
0,0,"abydos.jpg",0,0
//Break Periods
//Storyboard Layer 0 (Background)
//Storyboard Layer 1 (Fail)
//Storyboard Layer 2 (Pass)
//Storyboard Layer 3 (Foreground)
//Storyboard Layer 4 (Overlay)
//Storyboard Sound Samples

[TimingPoints]
50,333.333333333333,4,2,2,70,1,0
50,-125,4,2,2,70,0,0
10383,-40,4,2,2,70,0,0
10549,-125,4,2,2,70,0,0
10716,-100,4,2,2,70,0,0
20049,-100,4,2,2,70,0,0
21049,-50,4,2,2,70,0,0
21216,-66.6666666666667,4,2,2,70,0,0
21383,-83.3333333333333,4,2,2,80,0,0
42716,-135.135135135135,4,2,2,80,0,0
43966,-135.135135135135,4,2,2,5,0,0
44049,-135.135135135135,4,2,2,80,0,0
44716,-135.135135135135,4,2,2,60,0,0
48049,-333.333333333333,4,2,2,40,0,0
57383,-333.333333333334,4,2,2,40,0,0
58716,-166.666666666667,4,2,3,50,0,0
68049,-125,4,2,3,50,0,0
69049,-125,4,2,3,60,0,0
69383,-100,4,2,2,70,0,0
69549,-66.6666666666667,4,2,2,70,0,0
69883,-76.9230769230769,4,2,2,70,0,0
70216,-90.9090909090909,4,2,2,70,0,0
70549,-100,4,2,2,70,0,0
70716,-100,4,2,3,70,0,0
70883,-100,4,2,2,70,0,0
73383,-100,4,2,3,70,0,0
73549,-100,4,2,2,70,0,0
74883,-66.6666666666667,4,2,2,70,0,0
75216,-76.9230769230769,4,2,2,70,0,0
75549,-90.9090909090909,4,2,2,70,0,0
75883,-100,4,2,2,70,0,0
76049,-100,4,2,3,70,0,0
76216,-100,4,2,2,70,0,0
78716,-100,4,2,3,70,0,0
78883,-100,4,2,2,70,0,0
80049,-83.3333333333333,4,2,2,70,0,0
81383,-83.3333333333333,4,2,3,70,0,0
81549,-83.3333333333333,4,2,2,70,0,0
84049,-83.3333333333333,4,2,3,70,0,0
84216,-83.3333333333333,4,2,2,70,0,0
86716,-83.3333333333333,4,2,3,70,0,0
86883,-83.3333333333333,4,2,2,70,0,0
89383,-83.3333333333333,4,2,2,70,0,0
90383,-50,4,2,3,70,0,0
90716,-71.4285714285714,4,2,2,80,0,0
111716,-50,4,2,2,80,0,0
112049,-62.5,4,2,2,85,0,0
133383,-62.5,4,2,2,80,0,0
133466,-50,4,2,2,10,0,0
134716,-50,4,2,2,10,0,0

[Colours]
Combo1 : 250,180,240
Combo2 : 120,200,230
Combo3 : 255,230,130
Combo4 : 160,230,150

[HitObjects]
468,57,50,5,14,1:2:0:0:
302,92,216,1,2,0:0:0:0:
425,151,383,1,2,1:2:0:0:
331,175,549,1,10,0:0:0:0:
377,224,716,2,0,L|372:341,1,80,0|0,1:0|0:0,0:0:0:0:
386,72,1049,1,8,1:2:0:0:
386,72,1383,5,0,1:0:0:0:
237,147,1549,2,0,P|191:152|146:136,1,80,8|0,0:0|1:0,0:0:0:0:
42,242,1883,1,0,3:0:0:0:
57,239,1966,1,0,3:0:0:0:
73,236,2049,1,8,1:2:0:0:
89,233,2133,1,0,0:0:0:0:
105,230,2216,1,0,3:0:0:0:
204,81,2383,1,8,1:2:0:0:
271,276,2549,1,8,0:0:0:0:
271,276,2633,1,8,0:0:0:0:
271,276,2716,5,14,1:2:0:0:
105,230,2883,1,2,3:2:0:0:
244,193,3049,1,2,1:2:0:0:
152,146,3216,1,10,0:0:0:0:
218,111,3383,2,0,L|210:21,1,80,0|0,1:0|3:0,0:0:0:0:
236,271,3716,1,8,1:2:0:0:
236,271,4050,5,0,1:0:0:0:
432,207,4216,2,0,P|409:175|375:155,1,80,8|0,0:0|1:0,0:0:0:0:
346,303,4549,2,0,P|381:302|401:287,1,40,0|0,3:0|3:0,0:0:0:0:
485,333,4716,1,8,1:2:0:0:
473,321,4799,1,8,0:0:0:0:
464,307,4883,1,8,0:0:0:0:
460,291,4966,1,8,0:0:0:0:
462,275,5049,1,8,1:2:0:0:
503,127,5216,1,8,0:0:0:0:
503,127,5299,1,8,0:0:0:0:
503,127,5383,5,14,1:2:0:0:
353,38,5549,1,0,0:0:0:0:
386,172,5716,1,2,1:2:0:0:
291,119,5883,1,10,0:0:0:0:
310,196,6049,2,0,L|220:188,1,80,0|0,1:0|0:0,0:0:0:0:
413,87,6382,1,8,1:2:0:0:
413,87,6716,5,0,1:0:0:0:
211,126,6883,2,0,L|301:118,1,80,8|0,0:0|1:0,0:0:0:0:
370,233,7216,1,0,3:0:0:0:
355,231,7299,1,0,3:0:0:0:
339,229,7383,1,8,1:2:0:0:
323,228,7466,1,0,0:0:0:0:
307,226,7549,2,0,L|328:316,1,80,0|8,3:0|1:2,0:0:0:0:
172,357,7883,1,8,0:0:0:0:
176,341,7966,1,8,0:0:0:0:
180,325,8049,5,10,1:2:0:0:
89,274,8216,1,2,0:0:0:0:
66,148,8383,1,2,1:2:0:0:
186,62,8549,1,10,0:0:0:0:
348,178,8716,2,0,P|302:163|245:170,1,80,0|0,1:0|3:0,0:0:0:0:
296,306,9049,1,8,1:2:0:0:
296,306,9383,5,0,1:0:0:0:
115,244,9549,2,0,P|161:229|218:236,1,80,8|0,0:0|1:0,0:0:0:0:
360,318,9883,1,0,3:0:0:0:
344,315,9966,1,0,0:0:0:0:
328,312,10050,1,8,1:2:0:0:
312,309,10133,1,0,0:0:0:0:
296,306,10216,1,0,0:0:0:0:
248,119,10383,6,0,L|239:372,1,250,8|8,0:1|0:0,0:0:0:0:
166,343,10633,1,8,0:0:0:0:
166,343,10716,5,14,1:2:0:0:
312,205,10883,1,2,0:0:0:0:
180,115,11049,1,10,1:2:0:0:
284,68,11216,2,0,P|237:67|179:33,1,100,8|8,0:0|1:2,0:0:0:0:
372,104,11549,1,0,0:0:0:0:
372,104,11716,2,0,P|419:103|477:69,1,100,8|0,1:2|0:0,0:0:0:0:
294,161,12049,5,8,1:2:0:0:
294,161,12216,2,0,P|247:160|189:126,1,100,8|8,0:0|1:2,0:0:0:0:
375,218,12549,1,0,3:0:0:0:
375,218,12633,1,0,0:0:0:0:
375,218,12716,2,0,P|422:217|480:183,1,100,8|0,1:2|3:0,0:0:0:0:
313,355,13049,1,8,1:2:0:0:
310,323,13133,1,8,0:0:0:0:
307,295,13216,1,8,0:0:0:0:
305,267,13299,1,8,0:0:0:0:
302,235,13383,5,14,1:2:0:0:
114,165,13550,1,2,3:2:0:0:
233,263,13716,1,10,1:2:0:0:
302,167,13883,2,0,P|348:149|401:160,1,100,10|8,0:0|1:2,0:0:0:0:
228,163,14216,1,0,0:0:0:0:
228,163,14383,2,0,P|247:117|293:88,1,100,8|0,1:2|0:0,0:0:0:0:
171,216,14716,5,8,1:2:0:0:
171,216,14800,1,0,3:0:0:0:
171,216,14883,2,0,P|153:170|164:117,1,100,8|8,0:0|1:2,0:0:0:0:
350,224,15216,1,0,3:0:0:0:
193,307,15383,1,8,1:2:0:0:
178,299,15466,1,8,0:0:0:0:
140,324,15549,1,8,0:0:0:0:
128,335,15633,1,8,0:0:0:0:
96,310,15716,1,8,1:2:0:0:
66,88,15883,1,8,0:0:0:0:
61,112,15966,1,8,0:0:0:0:
56,136,16049,5,6,1:2:0:0:
220,249,16216,1,0,0:0:0:0:
44,205,16382,1,10,1:2:0:0:
130,136,16549,2,0,L|152:246,1,100,10|8,0:0|1:2,0:0:0:0:
230,75,16882,1,0,0:0:0:0:
230,75,17049,2,0,L|208:185,1,100,8|0,1:2|0:0,0:0:0:0:
318,40,17382,5,8,1:2:0:0:
318,40,17466,1,0,3:0:0:0:
318,40,17549,2,0,L|340:150,1,100,8|8,0:0|1:2,0:0:0:0:
452,67,17882,1,0,3:0:0:0:
500,231,18049,2,0,P|450:208|397:202,1,100,8|0,1:2|0:0,0:0:0:0:
230,347,18382,1,8,0:0:0:0:
256,332,18466,1,8,0:0:0:0:
276,310,18549,1,8,0:0:0:0:
290,283,18632,1,8,0:0:0:0:
300,248,18716,5,14,1:2:0:0:
158,35,18883,1,10,1:2:0:0:
158,35,19049,1,10,1:2:0:0:
426,147,19216,1,10,1:2:0:0:
116,215,19383,1,8,0:0:0:0:
116,215,19549,1,8,0:0:0:0:
428,355,19716,1,8,0:0:0:0:
325,51,19883,1,8,0:0:0:0:
145,283,20049,6,0,P|166:270|181:251,1,50,4|0,1:2|0:0,0:0:0:0:
181,251,20216,2,0,P|166:270|145:283,1,50,0|0,1:0|0:0,0:0:0:0:
116,215,20383,1,8,0:0:0:0:
367,283,20549,6,0,P|346:270|331:251,1,50,0|0,1:0|0:0,0:0:0:0:
331,251,20716,2,0,P|346:270|367:283,1,50,0|0,1:0|0:0,0:0:0:0:
396,215,20883,1,8,0:0:0:0:
256,49,21049,6,0,B|256:266,1,200,8|8,0:1|0:0,0:0:0:0:
256,315,21299,1,8,0:0:0:0:
256,323,21383,5,14,1:2:0:0:
422,350,21550,1,0,0:0:0:0:
485,214,21716,1,8,1:2:0:0:
383,130,21883,1,0,1:0:0:0:
277,170,22049,1,0,1:0:0:0:
202,240,22216,1,8,0:0:0:0:
113,251,22383,1,8,0:0:0:0:
44,216,22549,1,0,1:0:0:0:
129,61,22716,6,0,P|106:119|122:196,1,119.999996337891,8|4,1:3|1:3,0:0:0:0:
166,248,23050,1,4,1:3:0:0:
202,166,23216,1,8,0:0:0:0:
357,272,23383,2,0,P|306:243|241:243,1,119.999996337891,10|0,1:2|0:0,0:0:0:0:
424,344,23717,1,8,1:2:0:0:
426,312,23800,1,8,3:0:0:0:
429,280,23883,1,8,3:0:0:0:
432,248,23966,1,8,3:0:0:0:
435,216,24050,5,14,1:2:0:0:
457,62,24216,1,2,1:2:0:0:
361,134,24383,1,10,1:2:0:0:
259,140,24549,1,2,0:0:0:0:
82,43,24716,6,0,B|143:64|143:64|170:112,1,119.999996337891,8|8,1:2|0:0,0:0:0:0:
140,204,25050,1,8,1:2:0:0:
77,133,25216,1,8,0:0:0:0:
318,163,25383,6,0,B|257:184|257:184|229:232,1,119.999996337891,8|4,1:3|1:3,0:0:0:0:
260,324,25717,1,4,1:3:0:0:
323,253,25883,1,8,0:0:0:0:
79,194,26050,5,8,0:0:0:0:
200,362,26217,1,8,0:0:0:0:
212,328,26300,1,8,0:0:0:0:
212,291,26384,1,8,0:0:0:0:
174,74,26549,1,8,0:0:0:0:
162,108,26632,1,8,0:0:0:0:
162,145,26716,5,6,1:2:0:0:
281,264,26883,1,0,0:0:0:0:
429,247,27049,1,10,1:2:0:0:
500,135,27216,1,10,0:0:0:0:
425,49,27383,1,8,1:2:0:0:
327,81,27549,1,0,1:0:0:0:
298,166,27716,1,8,0:0:0:0:
320,240,27882,1,0,0:0:0:0:
510,293,28049,6,0,P|458:276|388:296,1,119.999996337891,8|4,1:3|1:3,0:0:0:0:
330,362,28383,1,4,1:3:0:0:
424,384,28549,1,8,0:0:0:0:
320,240,28716,2,0,P|217:287|74:262,1,239.999992675781,8|8,0:0|0:0,0:0:0:0:
220,144,29216,1,8,0:0:0:0:
201,175,29299,1,8,0:0:0:0:
170,194,29383,5,6,1:2:0:0:
86,161,29550,1,2,1:2:0:0:
63,56,29716,1,10,1:2:0:0:
187,9,29883,1,10,0:0:0:0:
332,123,30049,2,0,P|278:149|220:144,1,119.999996337891,8|8,1:2|0:0,0:0:0:0:
137,95,30383,5,8,0:0:0:0:
219,48,30549,1,0,1:0:0:0:
290,217,30716,2,0,P|349:198|399:151,1,119.999996337891,8|4,1:3|1:3,0:0:0:0:
421,68,31050,1,4,1:3:0:0:
327,90,31217,1,8,0:0:0:0:
497,255,31383,2,0,L|484:12,1,239.999992675781,8|8,0:0|0:0,0:0:0:0:
271,107,31883,1,8,0:0:0:0:
271,107,31966,1,8,0:0:0:0:
271,107,32049,6,0,P|317:97|344:68,1,59.9999981689454,6|0,1:2|0:0,0:0:0:0:
364,8,32217,1,0,0:0:0:0:
406,163,32383,1,8,0:0:0:0:
281,30,32549,1,8,0:0:0:0:
216,211,32716,6,0,P|170:201|143:172,1,59.9999981689454,8|0,1:2|0:0,0:0:0:0:
104,125,32883,1,8,1:0:0:0:
119,292,33049,1,8,1:0:0:0:
209,136,33216,1,0,0:0:0:0:
294,316,33383,6,0,P|340:306|367:277,1,59.9999981689454,8|8,1:3|3:2,0:0:0:0:
387,221,33549,1,4,1:3:0:0:
367,384,33716,1,4,1:3:0:0:
241,248,33883,1,8,0:0:0:0:
489,323,34049,6,0,L|429:313,1,59.9999981689454,10|0,1:2|0:0,0:0:0:0:
349,298,34216,1,0,1:0:0:0:
471,161,34383,2,0,L|411:170,1,59.9999981689454,8|0,1:2|0:0,0:0:0:0:
310,191,34549,1,0,3:0:0:0:
310,191,34633,1,8,3:2:0:0:
310,191,34716,6,0,L|250:200,1,59.9999981689454,14|0,1:2|0:0,0:0:0:0:
166,216,34883,1,2,1:2:0:0:
179,60,35049,1,10,0:0:0:0:
251,200,35216,1,10,0:0:0:0:
52,154,35383,6,0,P|80:144|103:125,1,59.9999981689454,8|0,1:2|0:0,0:0:0:0:
96,46,35549,1,0,0:0:0:0:
166,216,35716,1,8,0:1:0:0:
257,77,35883,1,0,1:0:0:0:
413,226,36049,6,0,P|384:216|361:197,1,59.9999981689454,8|8,1:3|3:2,0:0:0:0:
369,118,36215,1,4,1:3:0:0:
299,288,36382,1,4,1:3:0:0:
208,149,36549,1,8,0:0:0:0:
64,333,36716,6,0,P|92:323|115:304,1,59.9999981689454,10|0,1:2|0:0,0:0:0:0:
164,235,36883,1,0,0:0:0:0:
117,25,37049,2,0,P|136:47|147:75,1,59.9999981689454,8|8,1:2|0:0,0:0:0:0:
173,176,37216,1,8,0:0:0:0:
173,176,37299,1,8,0:0:0:0:
173,176,37383,6,0,P|173:205|163:234,1,59.9999981689454,10|0,1:2|0:0,0:0:0:0:
116,304,37549,1,0,0:0:0:0:
263,202,37716,1,10,1:2:0:0:
94,142,37883,1,10,0:0:0:0:
242,311,38049,6,0,L|304:303,1,59.9999981689454,8|0,1:2|0:0,0:0:0:0:
386,288,38216,1,8,0:0:0:0:
203,209,38383,2,0,L|263:202,1,59.9999981689454,8|0,1:0|0:0,0:0:0:0:
496,175,38633,1,8,3:2:0:0:
496,175,38716,6,0,L|436:182,1,59.9999981689454,6|0,1:2|0:0,0:0:0:0:
351,191,38883,1,0,0:0:0:0:
464,79,39049,1,8,1:2:0:0:
465,260,39216,1,0,1:0:0:0:
337,90,39383,6,0,L|277:97,1,59.9999981689454,8|0,1:0|0:0,0:0:0:0:
194,110,39549,1,0,1:0:0:0:
13,228,39716,2,0,L|72:220,1,59.9999981689454,8|0,1:0|0:0,0:0:0:0:
163,216,39883,1,8,0:0:0:0:
163,216,39966,1,8,0:0:0:0:
163,216,40049,5,14,1:2:0:0:
45,115,40216,1,10,1:2:0:0:
78,293,40383,1,10,1:2:0:0:
194,110,40549,1,10,1:2:0:0:
13,228,40716,1,8,1:2:0:0:
282,280,40883,1,8,1:2:0:0:
115,52,41049,1,8,1:2:0:0:
185,341,41216,1,8,1:2:0:0:
381,132,41383,5,8,1:3:0:0:
364,139,41466,1,8,0:0:0:0:
346,139,41549,1,8,0:0:0:0:
324,130,41633,1,8,0:0:0:0:
305,108,41716,1,8,0:0:0:0:
302,73,41799,1,8,0:0:0:0:
294,32,41883,1,8,0:0:0:0:
257,11,41966,1,8,0:0:0:0:
210,16,42049,5,8,0:0:0:0:
177,52,42133,1,8,0:0:0:0:
175,107,42216,1,8,0:0:0:0:
219,148,42299,1,8,0:0:0:0:
279,151,42383,1,8,0:0:0:0:
316,98,42466,1,8,0:0:0:0:
384,77,42549,1,8,0:0:0:0:
444,119,42633,1,8,0:0:0:0:
431,192,42716,6,0,B|368:192|368:192|384:192|384:192|368:304|256:320|256:320|256:360|256:360|256:304|256:304|256:320|256:320|144:304|128:192|128:192|80:192|80:192|144:192|144:192|128:192|128:192|144:80|256:64|256:64|256:16|256:16|256:80|256:80|256:64|256:64|356:84|376:176,1,1184.00002890625,12|0,1:1|0:0,0:0:0:0:
256,192,45466,12,0,47799,0:0:0:0:
400,96,48049,5,6,0:0:0:0:
384,128,48549,1,2,0:0:0:0:
192,80,49049,1,2,0:0:0:0:
368,160,49383,5,2,0:0:0:0:
352,192,49883,1,2,0:0:0:0:
256,160,50383,1,2,0:0:0:0:
336,224,50716,5,2,0:0:0:0:
320,256,51216,1,2,0:0:0:0:
144,160,51716,1,2,0:0:0:0:
304,288,52049,5,2,0:0:0:0:
288,320,52549,1,2,0:0:0:0:
192,288,53049,1,2,0:0:0:0:
80,64,53383,5,2,0:0:0:0:
96,96,53883,1,2,0:0:0:0:
288,48,54383,1,2,0:0:0:0:
112,128,54717,5,2,0:0:0:0:
128,160,55217,1,2,0:0:0:0:
224,128,55717,1,2,0:0:0:0:
144,192,56050,5,2,0:0:0:0:
160,224,56550,1,2,0:0:0:0:
336,128,57050,1,2,0:0:0:0:
176,256,57383,5,2,0:0:0:0:
192,288,57883,1,2,0:0:0:0:
208,320,58049,2,0,L|254:315,1,44.999998626709
327,297,58383,2,0,L|344:300,3,14.9999995422363,10|8|8|8,0:0|0:0|0:0|0:0,0:0:0:0:
257,195,58716,6,0,L|252:314,1,119.999996337891,14|0,0:0|1:0,0:0:0:0:
344,169,59216,2,0,L|342:232,1,59.9999981689454,8|0,0:0|1:0,0:0:0:0:
430,141,59549,1,0,1:0:0:0:
430,141,59716,2,0,L|428:204,1,59.9999981689454,10|0,0:0|1:0,0:0:0:0:
485,376,60049,1,10,1:2:0:0:
422,333,60216,2,0,L|423:273,1,59.9999981689454,10|0,0:0|1:0,0:0:0:0:
348,134,60549,1,2,1:2:0:0:
348,134,60716,2,0,L|346:193,1,59.9999981689454,8|0,0:0|1:0,0:0:0:0:
263,104,61049,2,0,L|261:163,1,59.9999981689454,10|8,0:0|0:0,0:0:0:0:
259,243,61299,1,8,0:0:0:0:
259,243,61383,6,0,P|202:209|136:191,1,119.999996337891,14|0,0:0|1:0,0:0:0:0:
146,101,61883,2,0,P|116:105|91:121,1,59.9999981689454,10|0,0:0|0:0,0:0:0:0:
28,61,62216,1,0,1:0:0:0:
28,61,62383,2,0,P|10:85|4:114,1,59.9999981689454,10|0,0:0|0:0,0:0:0:0:
78,255,62716,1,10,1:3:0:0:
204,273,62883,2,0,P|175:282|146:278,1,59.9999981689454,8|0,0:0|1:0,0:0:0:0:
22,191,63216,1,2,1:2:0:0:
68,368,63383,5,8,0:0:0:0:
68,360,63466,1,8,0:0:0:0:
69,352,63549,1,8,0:0:0:0:
70,344,63633,1,8,0:0:0:0:
70,336,63716,1,10,0:0:0:0:
88,160,63883,5,8,0:0:0:0:
89,148,63966,1,8,0:0:0:0:
90,136,64049,6,0,L|224:168,1,119.999996337891,14|0,0:2|1:0,0:0:0:0:
317,81,64549,2,0,L|252:97,1,59.9999981689454,10|0,0:0|1:0,0:0:0:0:
334,197,64883,1,0,1:0:0:0:
334,197,65049,2,0,L|269:181,1,59.9999981689454,10|0,0:0|0:0,0:0:0:0:
147,150,65383,1,10,1:3:0:0:
165,250,65549,2,0,L|230:234,1,59.9999981689454,8|0,0:0|0:0,0:0:0:0:
347,305,65883,1,2,1:2:0:0:
347,305,66049,2,0,L|282:289,1,59.9999981689454,8|0,0:0|0:0,0:0:0:0:
214,366,66383,2,0,L|218:298,1,59.9999981689454,10|8,0:0|0:0,0:0:0:0:
227,239,66633,1,8,0:0:0:0:
227,239,66716,6,0,L|236:113,1,119.999996337891,14|0,0:0|1:0,0:0:0:0:
300,40,67216,2,0,P|323:62|350:73,1,59.9999981689454,10|0,0:0|0:0,0:0:0:0:
456,122,67549,1,0,1:0:0:0:
456,122,67716,2,0,P|425:130|402:148,1,59.9999981689454,8|0,0:0|0:0,0:0:0:0:
253,165,68049,6,0,P|283:242|291:323,1,160,14|0,1:3|0:0,0:0:0:0:
142,364,68549,1,10,0:0:0:0:
154,341,68633,1,8,0:0:0:0:
159,314,68716,1,8,0:0:0:0:
95,194,68883,1,0,1:0:0:0:
19,329,69049,5,10,0:1:0:0:
198,233,69216,1,8,3:2:0:0:
198,233,69299,1,8,3:2:0:0:
198,233,69383,5,6,1:2:0:0:
355,378,69549,2,0,P|277:346|225:272,1,150.000005722046,0|0,0:0|1:0,0:0:0:0:
300,158,69883,2,0,P|302:222|331:280,1,129.999994049073,8|0,1:2|1:0,0:0:0:0:
476,261,70216,2,0,P|425:239|386:200,1,110.000003356934,0|8,0:0|0:0,0:0:0:0:
334,81,70549,1,0,0:0:0:0:
220,209,70716,6,0,P|267:195|300:158,1,100,10|8,1:3|0:0,0:0:0:0:
219,55,71049,1,8,1:2:0:0:
134,174,71216,1,10,0:0:0:0:
119,172,71299,1,8,0:0:0:0:
103,169,71383,1,8,1:2:0:0:
24,64,71549,1,0,0:0:0:0:
64,236,71716,1,10,1:2:0:0:
91,240,71799,1,8,0:0:0:0:
119,245,71883,1,8,0:0:0:0:
146,250,71966,1,8,0:0:0:0:
178,256,72049,6,0,L|151:43,1,200,6|0,1:2|1:0,0:0:0:0:
285,128,72549,2,0,L|272:227,1,100,8|0,0:0|1:0,0:0:0:0:
252,356,72883,1,0,1:0:0:0:
355,278,73049,2,0,L|400:189,1,100,8|0,0:0|0:0,0:0:0:0:
490,40,73382,6,0,B|448:67|448:67|395:53,1,100,10|8,1:3|0:0,0:0:0:0:
274,17,73715,1,8,0:0:0:0:
310,159,73883,1,2,1:2:0:0:
301,182,73965,1,8,3:2:0:0:
284,201,74049,1,8,1:2:0:0:
259,208,74133,1,8,0:0:0:0:
234,209,74215,1,8,0:0:0:0:
210,200,74299,1,8,0:0:0:0:
188,187,74383,1,10,1:2:0:0:
148,166,74465,1,8,0:0:0:0:
102,167,74549,1,8,0:0:0:0:
68,196,74632,1,8,0:0:0:0:
60,240,74716,5,6,1:2:0:0:
218,361,74883,2,0,P|181:281|117:293,1,150.000005722046,0|0,0:0|1:0,0:0:0:0:
205,146,75216,2,0,P|125:183|130:239,1,129.999994049073,8|0,0:0|1:0,0:0:0:0:
2,107,75549,2,0,P|13:168|68:190,1,110.000003356934,0|8,0:0|0:0,0:0:0:0:
135,103,75883,1,0,0:0:0:0:
263,228,76049,6,0,P|217:208|152:204,1,100,10|8,1:3|0:0,0:0:0:0:
74,278,76382,1,8,0:0:0:0:
228,337,76549,1,2,1:2:0:0:
243,335,76632,1,8,0:0:0:0:
259,334,76716,1,8,0:0:0:0:
195,145,76882,1,0,0:0:0:0:
326,243,77049,1,10,0:0:0:0:
298,240,77132,1,8,0:0:0:0:
270,238,77216,1,8,0:0:0:0:
242,235,77299,1,8,0:0:0:0:
214,233,77383,6,0,P|282:142|231:66,1,200,6|0,1:2|1:0,0:0:0:0:
370,11,77883,2,0,P|374:59|408:100,1,100,8|0,0:0|1:0,0:0:0:0:
511,156,78215,1,0,1:0:0:0:
396,217,78383,2,0,P|346:208|279:206,1,100,8|0,0:0|0:0,0:0:0:0:
156,301,78716,6,0,P|206:292|273:290,1,100,10|8,1:2|0:0,0:0:0:0:
365,337,79049,1,8,0:0:0:0:
302,183,79216,1,2,1:2:0:0:
308,162,79299,1,8,3:2:0:0:
314,141,79383,1,8,0:0:0:0:
265,30,79549,1,0,0:0:0:0:
384,156,79716,1,8,0:0:0:0:
388,183,79799,1,8,0:0:0:0:
393,211,79883,1,8,0:0:0:0:
398,238,79966,1,8,0:0:0:0:
403,266,80049,5,14,1:2:0:0:
260,312,80215,2,0,L|393:343,1,119.999996337891,0|8,0:0|0:0,0:0:0:0:
300,199,80549,2,0,L|167:230,1,119.999996337891,8|8,0:0|1:2,0:0:0:0:
96,93,80883,2,0,L|229:124,1,119.999996337891,0|8,0:0|1:2,0:0:0:0:
124,270,81216,1,0,0:0:0:0:
14,127,81383,6,0,P|66:154|96:205,1,119.999996337891,10|8,1:3|0:0,0:0:0:0:
99,361,81716,1,0,1:2:0:0:
242,275,81883,1,2,1:2:0:0:
216,272,81966,1,8,3:2:0:0:
193,285,82049,1,8,1:2:0:0:
39,314,82216,1,0,0:0:0:0:
177,198,82383,1,10,0:0:0:0:
185,163,82466,1,8,0:0:0:0:
180,127,82549,1,8,0:0:0:0:
160,96,82633,1,8,0:0:0:0:
124,91,82716,6,0,P|145:143|145:226,1,119.999996337891,6|0,1:2|0:0,0:0:0:0:
274,34,83049,2,0,P|253:86|253:169,1,119.999996337891,8|8,1:2|0:0,0:0:0:0:
327,196,83299,1,8,3:2:0:0:
327,196,83383,2,0,P|363:161|434:135,1,119.999996337891,8|0,1:2|0:0,0:0:0:0:
475,336,83716,1,8,1:2:0:0:
310,269,83883,1,0,0:0:0:0:
496,134,84050,6,0,L|483:282,1,119.999996337891,10|8,1:3|0:0,0:0:0:0:
357,357,84383,1,8,0:0:0:0:
319,149,84550,1,2,1:2:0:0:
323,172,84633,1,8,3:2:0:0:
327,196,84716,1,8,0:0:0:0:
475,336,84883,1,0,0:0:0:0:
275,289,85049,1,10,0:0:0:0:
243,291,85133,1,8,0:0:0:0:
211,294,85216,1,8,0:0:0:0:
179,297,85300,1,8,0:0:0:0:
147,300,85383,5,14,1:2:0:0:
81,130,85549,2,0,P|80:189|55:245,1,119.999996337891,0|8,0:0|1:2,0:0:0:0:
266,186,85883,2,0,P|206:191|154:221,1,119.999996337891,8|8,0:0|1:2,0:0:0:0:
330,351,86216,2,0,P|278:320|243:272,1,119.999996337891,0|8,0:0|1:2,0:0:0:0:
227,110,86550,1,0,1:0:0:0:
160,341,86717,6,0,L|154:221,1,119.999996337891,10|8,1:3|0:0,0:0:0:0:
147,64,87050,1,8,0:0:0:0:
280,139,87217,1,2,1:2:0:0:
257,142,87299,1,8,3:2:0:0:
234,146,87383,1,8,0:0:0:0:
82,260,87550,1,0,0:0:0:0:
8,76,87716,1,10,0:0:0:0:
43,82,87800,1,8,0:0:0:0:
78,88,87883,1,8,0:0:0:0:
114,94,87967,1,8,0:0:0:0:
149,101,88049,5,12,1:2:0:0:
299,240,88216,1,8,1:2:0:0:
349,30,88383,1,8,1:2:0:0:
186,188,88549,1,8,1:2:0:0:
420,133,88716,1,8,1:2:0:0:
192,24,88883,1,8,1:2:0:0:
382,213,89049,1,8,1:0:0:0:
100,276,89216,1,0,0:0:0:0:
328,124,89383,6,0,L|249:115,1,59.9999981689454,6|0,1:2|0:0,0:0:0:0:
212,168,89549,1,0,1:0:0:0:
310,48,89716,1,8,0:0:0:0:
382,213,89883,6,0,L|461:204,1,59.9999981689454,2|0,1:2|0:0,0:0:0:0:
498,257,90049,1,0,1:0:0:0:
400,137,90216,1,8,0:0:0:0:
269,345,90383,6,0,B|178:248|347:171|256:68,1,300,10|8,1:0|0:0,0:0:0:0:
96,79,90716,6,0,P|155:129|232:128,1,139.999995727539,6|0,1:2|0:0,0:0:0:0:
390,17,91049,1,8,0:0:0:0:
352,187,91216,1,0,1:0:0:0:
255,67,91383,1,0,1:0:0:0:
388,100,91549,1,8,0:0:0:0:
283,141,91716,1,8,1:0:0:0:
258,216,91883,1,0,0:0:0:0:
477,242,92049,6,0,P|419:203|352:187,1,139.999995727539,2|8,1:2|0:0,0:0:0:0:
214,259,92383,1,0,1:0:0:0:
268,54,92549,2,0,P|228:111|212:179,1,139.999995727539,10|8,0:0|0:0,0:0:0:0:
303,304,92883,1,0,0:0:0:0:
128,262,93049,2,0,P|92:263|57:273,1,69.9999978637696,10|8,0:0|0:0,0:0:0:0:
76,358,93216,2,0,P|112:357|147:347,1,69.9999978637696,8|8,0:0|0:0,0:0:0:0:
209,222,93383,6,0,B|208:270|194:294|194:294|218:311|236:364,1,139.999995727539,6|0,1:2|0:0,0:0:0:0:
8,319,93716,5,8,0:0:0:0:
144,169,93883,1,0,1:0:0:0:
209,222,94049,1,0,1:0:0:0:
367,105,94216,5,8,0:0:0:0:
468,273,94383,1,8,1:0:0:0:
403,326,94549,1,0,0:0:0:0:
285,136,94716,6,0,P|308:201|313:271,1,139.999995727539,2|8,1:2|0:0,0:0:0:0:
159,292,95050,1,0,1:0:0:0:
133,105,95216,2,0,P|75:144|29:198,1,139.999995727539,10|8,0:0|0:0,0:0:0:0:
159,292,95549,1,0,0:0:0:0:
216,90,95716,1,10,0:0:0:0:
383,232,95883,1,8,0:0:0:0:
383,232,95966,1,8,0:0:0:0:
383,232,96049,6,0,L|229:224,1,139.999995727539,6|0,1:2|0:0,0:0:0:0:
108,46,96382,1,8,0:0:0:0:
14,227,96549,1,0,1:0:0:0:
161,145,96716,1,0,1:0:0:0:
184,290,96882,1,8,0:0:0:0:
88,207,97049,1,8,1:0:0:0:
85,129,97216,1,0,0:0:0:0:
260,61,97383,6,0,P|225:119|161:145,1,139.999995727539,2|8,1:2|0:0,0:0:0:0:
41,46,97716,1,0,1:0:0:0:
159,221,97883,2,0,L|144:360,1,139.999995727539,10|8,0:0|1:2,0:0:0:0:
59,229,98217,1,0,0:0:0:0:
255,158,98383,2,0,L|240:297,1,139.999995727539,8|8,0:0|0:0,0:0:0:0:
299,363,98633,1,8,0:0:0:0:
298,362,98716,6,0,P|366:367|406:313,1,139.999995727539,4|0,1:2|0:0,0:0:0:0:
463,126,99049,5,8,0:0:0:0:
306,213,99216,1,8,0:0:0:0:
382,170,99383,1,0,1:0:0:0:
225,83,99549,5,8,0:0:0:0:
382,170,99716,1,8,1:0:0:0:
306,127,99883,1,0,0:0:0:0:
136,239,100049,6,0,P|221:211|271:161,1,139.999995727539,2|8,1:2|0:0,0:0:0:0:
341,48,100383,1,0,1:2:0:0:
510,173,100549,2,0,P|425:145|375:95,1,139.999995727539,2|8,1:2|0:0,0:0:0:0:
395,267,100883,1,0,1:2:0:0:
507,106,101049,2,0,P|474:98|446:78,1,69.9999978637696,8|8,0:0|0:0,0:0:0:0:
384,30,101216,1,8,0:0:0:0:
384,30,101299,1,8,0:0:0:0:
384,30,101383,6,0,P|347:91|260:125,1,139.999995727539,6|0,1:2|0:0,0:0:0:0:
94,41,101716,1,8,0:0:0:0:
142,209,101883,1,8,0:0:0:0:
205,68,102050,1,0,1:0:0:0:
79,129,102216,1,8,0:0:0:0:
43,222,102383,1,8,1:0:0:0:
68,299,102550,1,0,0:0:0:0:
264,213,102716,6,0,L|124:221,1,139.999995727539,8|8,1:3|0:0,0:0:0:0:
240,118,103050,1,0,1:0:0:0:
286,298,103216,2,0,L|426:306,1,139.999995727539,2|8,1:2|0:0,0:0:0:0:
335,179,103550,1,0,0:0:0:0:
219,270,103716,2,0,P|223:335|297:369,1,139.999995727539,10|8,0:0|0:0,0:0:0:0:
358,327,103966,1,8,0:0:0:0:
358,327,104049,6,0,P|354:262|279:227,1,139.999995727539,6|0,1:2|0:0,0:0:0:0:
146,334,104382,5,8,0:0:0:0:
189,142,104549,1,8,0:0:0:0:
172,224,104716,1,0,1:0:0:0:
71,72,104883,5,8,0:0:0:0:
114,264,105050,1,8,1:0:0:0:
97,182,105217,1,0,0:0:0:0:
282,98,105383,6,0,B|210:81|210:81|151:112,1,139.999995727539,2|8,1:2|0:0,0:0:0:0:
229,245,105716,1,0,0:0:0:0:
349,115,105883,2,0,B|421:132|421:132|479:100,1,139.999995727539,2|8,1:2|0:0,0:0:0:0:
430,248,106217,1,0,1:0:0:0:
282,98,106383,2,0,L|294:187,1,69.9999978637696,10|8,0:0|0:0,0:0:0:0:
229,245,106549,1,8,0:0:0:0:
229,245,106633,1,8,0:0:0:0:
229,245,106716,6,0,L|249:397,1,139.999995727539,6|0,1:2|0:0,0:0:0:0:
433,322,107049,1,8,0:0:0:0:
468,157,107216,1,8,0:0:0:0:
361,45,107383,1,0,1:0:0:0:
230,80,107549,1,8,0:0:0:0:
219,190,107716,1,8,1:0:0:0:
291,239,107883,1,0,0:0:0:0:
468,157,108049,6,0,P|380:158|325:202,1,139.999995727539,6|8,1:2|0:0,0:0:0:0:
302,336,108383,1,0,1:0:0:0:
104,315,108549,2,0,P|192:314|247:270,1,139.999995727539,10|8,0:0|0:0,0:0:0:0:
265,134,108883,1,0,1:0:0:0:
430,250,109049,2,0,L|291:239,1,139.999995727539,10|0,0:0|1:0,0:0:0:0:
213,200,109299,1,0,1:0:0:0:
213,200,109383,6,0,L|73:211,1,139.999995727539,6|0,1:2|0:0,0:0:0:0:
24,42,109716,1,8,0:0:0:0:
161,73,109883,6,0,P|158:107|140:137,1,69.9999978637696,8|0,0:0|0:0,0:0:0:0:
84,85,110049,2,0,P|57:107|23:115,1,69.9999978637696,8|0,0:0|0:0,0:0:0:0:
24,42,110216,1,0,1:0:0:0:
109,208,110383,2,0,L|194:201,1,69.9999978637696,8|0,0:0|0:0,0:0:0:0:
255,202,110549,1,0,1:0:0:0:
391,52,110716,5,14,1:2:0:0:
427,64,110799,1,8,3:2:0:0:
456,76,110883,1,8,0:0:0:0:
359,165,111049,1,8,0:0:0:0:
363,263,111216,1,10,0:0:0:0:
417,335,111383,1,8,0:0:0:0:
494,343,111549,1,8,0:0:0:0:
490,155,111716,6,0,B|431:167|416:210|416:210|371:173|316:196,1,200,8|0,1:0|0:0,0:0:0:0:
246,270,111966,1,0,0:0:0:0:
246,270,112049,5,6,1:2:0:0:
295,16,112216,1,0,0:0:0:0:
98,114,112383,1,0,1:0:0:0:
252,197,112549,1,8,0:0:0:0:
185,51,112716,1,0,1:2:0:0:
156,192,112883,1,0,1:0:0:0:
251,108,113049,1,8,0:0:0:0:
163,120,113216,1,0,0:0:0:0:
247,295,113383,6,0,P|175:260|95:252,1,160,12|8,1:3|1:2,0:0:0:0:
5,53,113716,1,0,1:0:0:0:
5,53,113799,1,8,3:2:0:0:
5,53,113883,2,0,P|30:127|137:134,1,160,10|8,1:2|0:0,0:0:0:0:
233,29,114216,1,0,0:0:0:0:
217,263,114383,1,8,0:0:0:0:
244,214,114466,1,8,0:0:0:0:
289,181,114549,1,8,0:0:0:0:
345,173,114633,1,8,0:0:0:0:
399,186,114716,6,0,L|391:371,1,160,6|0,1:2|0:0,0:0:0:0:
402,360,114966,1,8,3:2:0:0:
411,373,115050,1,0,1:0:0:0:
244,214,115216,1,8,0:0:0:0:
457,133,115383,1,0,1:2:0:0:
399,186,115550,1,8,0:0:0:0:
224,29,115716,1,8,0:0:0:0:
324,216,115883,1,0,1:0:0:0:
508,28,116050,5,12,1:3:0:0:
336,113,116216,1,0,0:0:0:0:
480,301,116383,1,0,1:0:0:0:
480,301,116466,1,0,0:0:0:0:
480,301,116550,1,10,0:0:0:0:
423,197,116716,1,8,0:0:0:0:
307,312,116883,2,0,L|199:305,1,80,0|0,1:0|0:0,0:0:0:0:
159,340,117050,1,10,0:0:0:0:
97,324,117133,1,8,0:0:0:0:
54,276,117216,1,8,0:0:0:0:
37,214,117299,1,8,0:0:0:0:
52,151,117383,5,6,1:2:0:0:
265,11,117549,1,0,0:0:0:0:
226,234,117717,1,8,0:0:0:0:
146,60,117883,1,8,0:0:0:0:
313,117,118050,1,0,0:0:0:0:
377,253,118217,1,8,1:2:0:0:
321,366,118383,1,8,0:0:0:0:
207,376,118550,1,0,0:0:0:0:
82,199,118716,6,0,P|164:222|197:300,1,160,12|8,1:3|1:2,0:0:0:0:
359,126,119050,1,0,1:0:0:0:
359,126,119133,1,8,3:2:0:0:
359,126,119216,2,0,P|277:149|244:227,1,160,2|8,1:2|0:0,0:0:0:0:
261,339,119550,1,0,1:0:0:0:
457,277,119716,1,8,0:0:0:0:
451,217,119800,1,8,0:0:0:0:
446,157,119883,1,8,0:0:0:0:
441,97,119967,1,8,0:0:0:0:
436,37,120049,5,6,1:2:0:0:
327,66,120216,1,0,0:0:0:0:
446,157,120383,1,0,1:0:0:0:
292,208,120549,1,8,0:0:0:0:
436,37,120716,1,0,1:2:0:0:
327,66,120883,1,0,1:0:0:0:
388,265,121049,1,8,0:0:0:0:
292,208,121216,1,0,0:0:0:0:
80,350,121383,6,0,L|255:326,1,160,12|0,1:3|0:0,0:0:0:0:
238,122,121716,1,0,1:2:0:0:
238,122,121799,1,8,3:2:0:0:
238,122,121883,2,0,L|413:146,1,160,2|8,3:2|0:0,0:0:0:0:
155,29,122216,2,0,L|51:43,1,80,0|0,1:0|0:0,0:0:0:0:
26,114,122383,1,10,0:0:0:0:
35,177,122466,1,8,0:0:0:0:
81,220,122549,1,8,0:0:0:0:
145,224,122633,1,8,0:0:0:0:
206,207,122716,6,0,P|214:273|341:300,1,160,14|0,1:2|0:0,0:0:0:0:
448,158,123049,1,8,1:2:0:0:
289,316,123216,1,8,0:0:0:0:
448,158,123383,2,0,B|377:184|377:184|254:124,1,160,8|0,1:2|1:0,0:0:0:0:
74,47,123716,2,0,B|145:21|145:21|220:57,1,160,8|0,1:1|1:0,0:0:0:0:
216,305,124049,5,12,1:3:0:0:
143,145,124216,1,8,0:0:0:0:
378,183,124383,1,8,1:2:0:0:
378,183,124466,1,8,0:0:0:0:
378,183,124550,1,10,0:0:0:0:
243,43,124716,2,0,P|260:120|263:200,1,160,8|0,1:2|1:0,0:0:0:0:
31,355,125050,1,8,1:2:0:0:
55,291,125133,1,8,0:0:0:0:
112,254,125216,1,8,0:0:0:0:
180,250,125300,1,8,0:0:0:0:
237,285,125383,6,0,B|220:368|220:368|146:299,1,160,6|0,1:2|0:0,0:0:0:0:
110,99,125716,1,8,1:2:0:0:
237,285,125883,1,8,0:0:0:0:
22,184,126050,2,0,P|106:189|187:155,1,160,0|8,1:0|0:0,0:0:0:0:
418,87,126383,2,0,P|334:92|253:58,1,160,8|0,0:1|1:0,0:0:0:0:
278,279,126716,5,12,1:3:0:0:
218,113,126883,1,8,0:0:0:0:
440,206,127050,1,0,1:0:0:0:
440,206,127133,1,8,0:0:0:0:
440,206,127217,1,10,0:0:0:0:
318,22,127383,2,0,P|343:103|338:179,1,160,8|0,1:2|1:0,0:0:0:0:
485,361,127717,1,8,1:2:0:0:
434,316,127800,1,8,0:0:0:0:
369,295,127883,1,8,0:0:0:0:
300,303,127967,1,8,0:0:0:0:
242,339,128050,6,0,P|173:338|159:253,1,160,6|0,1:2|0:0,0:0:0:0:
347,117,128383,1,8,1:2:0:0:
115,178,128550,1,8,0:0:0:0:
400,219,128717,2,0,P|319:198|199:195,1,160,0|0,1:0|1:0,0:0:0:0:
10,117,129049,2,0,P|89:110|166:90,1,160,8|0,1:1|1:0,0:0:0:0:
276,296,129383,5,12,1:3:0:0:
347,117,129550,1,8,0:0:0:0:
150,247,129717,1,8,1:2:0:0:
150,247,129800,1,8,0:0:0:0:
150,247,129884,1,10,0:0:0:0:
246,16,130050,2,0,L|264:174,1,160,8|0,1:2|1:0,0:0:0:0:
431,349,130383,5,10,1:2:0:0:
473,296,130466,1,8,0:0:0:0:
480,228,130549,1,8,0:0:0:0:
451,165,130633,1,8,0:0:0:0:
390,133,130716,5,14,1:2:0:0:
255,247,130883,1,10,1:2:0:0:
286,31,131049,1,10,1:2:0:0:
375,254,131216,1,10,1:2:0:0:
141,114,131383,1,8,1:2:0:0:
441,19,131549,1,8,1:2:0:0:
311,349,131716,1,8,1:2:0:0:
73,34,131883,1,8,1:2:0:0:
56,350,132049,5,12,1:3:0:0:
77,326,132133,1,8,0:0:0:0:
93,289,132216,1,8,0:0:0:0:
101,245,132299,1,8,0:0:0:0:
102,196,132383,1,8,0:0:0:0:
88,145,132466,1,8,0:0:0:0:
61,96,132549,5,10,0:0:0:0:
65,156,132633,1,8,0:0:0:0:
119,188,132716,1,8,0:0:0:0:
185,200,132799,1,8,0:0:0:0:
257,191,132883,1,8,0:0:0:0:
324,156,132966,1,8,0:0:0:0:
381,102,133049,6,0,P|347:173|338:252,1,160,8|4,0:1|1:3,0:0:0:0:
376,329,133299,1,4,1:3:0:0:
391,336,133383,1,4,0:0:0:0:
256,192,133466,12,0,136383,0:0:0:0:
