osu file format v14

[General]
AudioFilename: audio.mp3
AudioLeadIn: 0
PreviewTime: 21351
Countdown: 0
SampleSet: Soft
StackLeniency: 0.3
Mode: 0
LetterboxInBreaks: 0
WidescreenStoryboard: 0

[Editor]
DistanceSpacing: 0.8
BeatDivisor: 4
GridSize: 4
TimelineZoom: 1.2

[Metadata]
Title:FEEEEVER TIME
TitleUnicode:FEEEEVER TIME
Artist:Nor
ArtistUnicode:Nor
Creator:Matsuyuki Ame
Version:Swimsuit Symposium
Source:ブルーアーカイブ -Blue Archive-
Tags:rk657 anxient gazimal newton- Amateurre tntlealu lealu tnt [tntlealu] [_tntlealu_] graphical midorijeon theme 91 ブルアカ buruaka buru aka nat games nexon yostar ost video game soundtrack instrumental electronic fever feever feeever
BeatmapID:4347692
BeatmapSetID:2076534

[Difficulty]
HPDrainRate:5
CircleSize:4.2
OverallDifficulty:9.4
ApproachRate:9.6
SliderMultiplier:2
SliderTickRate:1

[Events]
//Background and Video events
0,0,"bg.jpg",0,0
//Break Periods
//Storyboard Layer 0 (Background)
//Storyboard Layer 1 (Fail)
//Storyboard Layer 2 (Pass)
//Storyboard Layer 3 (Foreground)
//Storyboard Layer 4 (Overlay)
//Storyboard Sound Samples

[TimingPoints]
102,333.333333333333,4,2,1,80,1,0
102,-125,4,2,1,80,0,0
1935,-142.857142857143,4,2,1,80,0,0
2768,-125,4,2,1,80,0,0
4101,-100,4,2,1,80,0,0
5101,-62.5,4,2,1,80,0,0
5435,-111.111111111111,4,2,1,80,0,0
6435,-90.9090909090908,4,2,1,80,0,0
6768,-111.111111111111,4,2,1,80,0,0
7768,-90.9090909090908,4,2,1,80,0,0
8101,-100,4,2,1,80,0,0
9435,-57.1428571428571,4,2,1,80,0,0
9601,-57.1428571428571,4,2,2,80,0,0
9768,-57.1428571428571,4,2,1,80,0,0
9935,-57.1428571428571,4,2,2,80,0,0
10101,-45.4545454545455,4,2,1,80,0,0
10435,-62.5,4,2,2,80,0,0
10601,-62.5,4,2,3,80,0,0
10768,-66.6666666666667,4,2,3,95,0,0
10935,-66.6666666666667,4,2,1,95,0,0
11101,-90.9090909090909,4,2,3,95,0,0
11268,-90.9090909090909,4,2,4,95,0,0
11601,-90.9090909090909,4,2,1,95,0,0
11768,-90.9090909090909,4,2,3,95,0,0
11935,-76.9230769230769,4,2,1,95,0,0
12101,-76.9230769230769,4,2,6,95,0,0
12268,-90.9090909090909,4,2,6,95,0,0
12435,-90.9090909090909,4,2,3,95,0,0
12601,-76.9230769230769,4,2,1,95,0,0
12768,-76.9230769230769,4,2,4,95,0,0
12935,-76.9230769230769,4,2,1,95,0,0
13101,-90.9090909090909,4,2,3,95,0,0
13268,-90.9090909090909,4,2,1,95,0,0
13435,-90.9090909090909,4,2,3,95,0,0
13601,-90.9090909090909,4,2,1,95,0,0
13768,-90.9090909090909,4,2,3,95,0,0
13935,-90.9090909090909,4,2,4,95,0,0
14268,-90.9090909090909,4,2,1,95,0,0
14435,-90.9090909090909,4,2,3,95,0,0
14601,-90.9090909090909,4,2,4,95,0,0
14768,-66.6666666666667,4,2,4,95,0,0
14935,-66.6666666666667,4,2,5,95,0,0
15268,-66.6666666666667,4,2,6,95,0,0
15351,-66.6666666666667,4,2,1,95,0,0
15435,-66.6666666666667,4,2,3,95,0,0
15518,-66.6666666666667,4,2,1,95,0,0
15768,-50,4,2,1,95,0,0
16101,-66.6666666666667,4,2,3,95,0,0
16268,-66.6666666666667,4,2,1,95,0,0
16435,-90.9090909090909,4,2,7,95,0,0
16601,-90.9090909090909,4,2,4,95,0,0
16935,-90.9090909090909,4,2,1,95,0,0
17101,-90.9090909090909,4,2,7,95,0,0
17268,-76.9230769230769,4,2,1,95,0,0
17435,-76.9230769230769,4,2,6,95,0,0
17768,-76.9230769230769,4,2,7,95,0,0
17935,-76.9230769230769,4,2,1,95,0,0
18101,-76.9230769230769,4,2,4,95,0,0
18268,-76.9230769230769,4,2,1,95,0,0
18435,-90.9090909090909,4,2,7,95,0,0
18601,-90.9090909090909,4,2,1,95,0,0
18685,-90.9090909090909,4,2,4,95,0,0
18935,-90.9090909090909,4,2,1,95,0,0
19101,-90.9090909090909,4,2,7,95,0,0
19268,-90.9090909090909,4,2,4,95,0,0
19435,-76.9230769230769,4,2,4,95,0,0
19601,-76.9230769230769,4,2,1,95,0,0
19768,-90.9090909090909,4,2,7,95,0,0
19935,-90.9090909090909,4,2,1,95,0,0
20101,-90.9090909090909,4,2,3,95,0,0
20268,-90.9090909090909,4,2,1,95,0,0
20435,-90.9090909090909,4,2,3,95,0,0
20601,-90.9090909090909,4,2,1,95,0,0
20768,-47.6190476190476,4,2,3,95,0,0
20935,-47.6190476190476,4,2,1,95,0,0
21101,-47.6190476190476,4,2,8,95,0,0
21268,-47.6190476190476,4,2,1,95,0,0
21435,-83.3333333333333,4,2,9,85,0,0
21601,-83.3333333333333,4,2,1,85,0,0
21768,-83.3333333333333,4,2,9,85,0,0
21935,-83.3333333333333,4,2,1,85,0,0
22101,-83.3333333333333,4,2,9,85,0,0
22268,-83.3333333333333,4,2,1,85,0,0
22435,-83.3333333333333,4,2,9,85,0,0
22601,-83.3333333333333,4,2,1,85,0,0
22768,-83.3333333333333,4,2,9,85,0,0
22935,-83.3333333333333,4,2,1,85,0,0
23101,-83.3333333333333,4,2,9,85,0,0
23268,-83.3333333333333,4,2,1,85,0,0
23435,-83.3333333333333,4,2,9,85,0,0
23601,-83.3333333333333,4,2,1,85,0,0
23768,-83.3333333333333,4,2,9,85,0,0
23935,-83.3333333333333,4,2,1,85,0,0
24101,-83.3333333333333,4,2,9,85,0,0
24268,-83.3333333333333,4,2,1,85,0,0
24435,-83.3333333333333,4,2,9,85,0,0
24601,-83.3333333333333,4,2,1,85,0,0
24768,-83.3333333333333,4,2,9,85,0,0
24935,-83.3333333333333,4,2,1,85,0,0
25101,-83.3333333333333,4,2,9,85,0,0
25268,-83.3333333333333,4,2,1,85,0,0
25435,-66.6666666666667,4,2,9,85,0,0
25601,-66.6666666666667,4,2,6,85,0,0
25685,-66.6666666666667,4,2,1,85,0,0
25768,-66.6666666666667,4,2,9,85,0,0
25935,-66.6666666666667,4,2,6,85,0,0
26018,-66.6666666666667,4,2,1,85,0,0
26101,-66.6666666666667,4,2,10,85,0,0
26768,-83.3333333333333,4,2,10,85,0,0
26935,-83.3333333333333,4,2,1,85,0,0
27101,-83.3333333333333,4,2,9,85,0,0
27268,-83.3333333333333,4,2,1,85,0,0
27435,-83.3333333333333,4,2,9,85,0,0
27601,-83.3333333333333,4,2,1,85,0,0
27768,-83.3333333333333,4,2,9,85,0,0
27935,-83.3333333333333,4,2,1,85,0,0
28101,-83.3333333333333,4,2,9,85,0,0
28268,-83.3333333333333,4,2,1,85,0,0
28435,-83.3333333333333,4,2,9,85,0,0
28601,-83.3333333333333,4,2,1,85,0,0
28768,-83.3333333333333,4,2,9,85,0,0
28935,-83.3333333333333,4,2,1,85,0,0
29101,-83.3333333333333,4,2,9,85,0,0
29268,-83.3333333333333,4,2,1,85,0,0
29435,-83.3333333333333,4,2,9,85,0,0
29601,-83.3333333333333,4,2,1,85,0,0
29768,-83.3333333333333,4,2,9,85,0,0
29935,-83.3333333333333,4,2,1,85,0,0
30101,-83.3333333333333,4,2,9,85,0,0
30268,-83.3333333333333,4,2,1,85,0,0
30435,-83.3333333333333,4,2,9,85,0,0
30601,-83.3333333333333,4,2,1,85,0,0
30768,-83.3333333333333,4,2,9,85,0,0
30935,-83.3333333333333,4,2,11,85,0,0
31101,-57.1428571428571,4,2,9,85,0,0
31268,-57.1428571428571,4,2,11,85,0,0
31435,-166.666666666667,4,2,9,85,0,0
31601,-166.666666666667,4,2,1,85,0,0
31768,-41.6666666666667,4,2,2,85,0,0
31935,-41.6666666666667,4,2,1,85,0,0
32101,-66.6666666666667,4,2,12,90,0,1
32268,-66.6666666666667,4,2,1,90,0,1
32435,-66.6666666666667,4,2,13,90,0,1
32601,-66.6666666666667,4,2,4,90,0,1
32768,-57.1428571428571,4,2,9,90,0,1
32851,-57.1428571428571,4,2,1,90,0,1
33101,-57.1428571428571,4,2,13,90,0,1
33268,-57.1428571428571,4,2,4,90,0,1
33435,-66.6666666666667,4,2,9,90,0,1
33601,-66.6666666666667,4,2,1,90,0,1
33768,-66.6666666666667,4,2,13,90,0,1
33935,-66.6666666666667,4,2,4,90,0,1
34101,-57.1428571428571,4,2,9,90,0,1
34185,-57.1428571428571,4,2,1,90,0,1
34435,-50,4,2,13,90,0,1
34601,-50,4,2,4,90,0,1
34768,-66.6666666666667,4,2,9,90,0,1
34935,-66.6666666666667,4,2,1,90,0,1
35101,-66.6666666666667,4,2,13,90,0,1
35268,-66.6666666666667,4,2,4,90,0,1
35435,-57.1428571428571,4,2,9,90,0,1
35518,-57.1428571428571,4,2,1,90,0,1
35768,-57.1428571428571,4,2,13,90,0,1
35935,-57.1428571428571,4,2,4,90,0,1
36101,-57.1428571428571,4,2,9,90,0,1
36268,-57.1428571428571,4,2,6,90,0,1
36351,-57.1428571428571,4,2,1,90,0,1
36435,-57.1428571428571,4,2,13,90,0,1
36601,-57.1428571428571,4,2,14,90,0,1
36685,-57.1428571428571,4,2,4,90,0,1
36768,-57.1428571428571,4,2,9,90,0,1
36851,-57.1428571428571,4,2,15,90,0,1
37101,-57.1428571428571,4,2,13,90,0,1
37268,-57.1428571428571,4,2,15,90,0,1
37435,-57.1428571428571,4,2,12,90,0,1
37601,-57.1428571428571,4,2,1,90,0,1
37768,-76.9230769230769,4,2,13,90,0,1
37935,-76.9230769230769,4,2,4,90,0,1
38101,-66.6666666666667,4,2,9,90,0,1
38185,-66.6666666666667,4,2,1,90,0,1
38435,-57.1428571428571,4,2,13,90,0,1
38601,-57.1428571428571,4,2,4,90,0,1
38768,-57.1428571428571,4,2,9,90,0,1
38935,-57.1428571428571,4,2,1,90,0,1
39101,-57.1428571428571,4,2,13,90,0,1
39268,-57.1428571428571,4,2,4,90,0,1
39435,-57.1428571428571,4,2,9,90,0,1
39518,-57.1428571428571,4,2,1,90,0,1
39768,-50,4,2,13,90,0,1
39935,-50,4,2,4,90,0,1
40101,-66.6666666666667,4,2,9,90,0,1
40268,-66.6666666666667,4,2,1,90,0,1
40435,-66.6666666666667,4,2,13,90,0,1
40601,-66.6666666666667,4,2,4,90,0,1
40768,-57.1428571428571,4,2,9,90,0,1
40851,-57.1428571428571,4,2,1,90,0,1
41101,-57.1428571428571,4,2,13,90,0,1
41268,-57.1428571428571,4,2,4,90,0,1
41435,-57.1428571428571,4,2,9,90,0,1
41601,-57.1428571428571,4,2,1,90,0,1
41768,-50,4,2,13,90,0,1
41935,-50,4,2,4,90,0,1
42101,-66.6666666666667,4,2,9,90,0,1
42185,-66.6666666666667,4,2,1,90,0,1
42435,-41.6666666666667,4,2,2,90,0,1
42768,-125,4,2,7,80,0,0
42935,-125,4,2,6,80,0,0
45351,-125,4,2,1,80,0,0
45435,-125,4,2,6,80,0,0
46935,-125,4,2,5,80,0,0
47018,-125,4,2,1,80,0,0
47101,-125,4,2,5,80,0,0
47351,-125,4,2,1,80,0,0
47435,-125,4,2,3,80,0,0
47768,-71.4285714285714,4,2,3,80,0,0
48101,-125,4,2,3,80,0,0
48268,-125,4,2,6,80,0,0
50685,-125,4,2,1,80,0,0
50768,-125,4,2,6,80,0,0
52101,-125,4,2,3,80,0,0
52268,-125,4,2,1,80,0,0
52351,-125,4,2,3,80,0,0
52435,-66.6666666666667,4,2,3,80,0,0
52601,-66.6666666666667,4,2,1,80,0,0
52768,-166.666666666667,4,2,3,80,0,0
52935,-166.666666666667,4,2,1,80,0,0
53101,-45.4545454545455,4,2,2,80,0,0
53268,-45.4545454545455,4,2,1,80,0,0
53435,-100,4,2,16,85,0,0
53601,-100,4,2,1,85,0,0
53768,-100,4,2,9,85,0,0
53935,-100,4,2,1,85,0,0
54101,-100,4,2,9,85,0,0
54268,-100,4,2,1,85,0,0
54435,-100,4,2,9,85,0,0
54601,-100,4,2,1,85,0,0
54768,-100,4,2,9,85,0,0
54935,-100,4,2,1,85,0,0
55101,-100,4,2,9,85,0,0
55268,-125,4,2,1,85,0,0
55435,-125,4,2,9,85,0,0
55601,-125,4,2,1,85,0,0
55768,-125,4,2,9,85,0,0
55935,-125,4,2,1,85,0,0
56101,-100,4,2,9,85,0,0
56268,-100,4,2,1,85,0,0
56435,-100,4,2,9,85,0,0
56601,-100,4,2,1,85,0,0
56768,-100,4,2,9,85,0,0
56935,-100,4,2,1,85,0,0
57101,-100,4,2,9,85,0,0
57268,-100,4,2,1,85,0,0
57435,-100,4,2,9,85,0,0
57601,-100,4,2,5,85,0,0
57685,-100,4,2,1,85,0,0
57768,-100,4,2,9,85,0,0
57935,-100,4,2,5,85,0,0
58018,-100,4,2,1,85,0,0
58101,-100,4,2,9,85,0,0
58435,-62.5,4,2,9,85,0,0
58768,-100,4,2,16,85,0,0
58935,-100,4,2,1,85,0,0
59101,-100,4,2,9,85,0,0
59268,-100,4,2,1,85,0,0
59435,-100,4,2,9,85,0,0
59601,-100,4,2,1,85,0,0
59768,-100,4,2,9,85,0,0
59935,-100,4,2,1,85,0,0
60101,-100,4,2,9,85,0,0
60268,-100,4,2,1,85,0,0
60435,-100,4,2,9,85,0,0
60601,-125,4,2,1,85,0,0
60768,-125,4,2,9,85,0,0
60935,-125,4,2,1,85,0,0
61101,-125,4,2,9,85,0,0
61268,-125,4,2,1,85,0,0
61435,-100,4,2,9,85,0,0
61601,-100,4,2,1,85,0,0
61768,-100,4,2,9,85,0,0
61935,-100,4,2,1,85,0,0
62101,-100,4,2,9,85,0,0
62268,-100,4,2,1,85,0,0
62435,-100,4,2,9,85,0,0
62601,-100,4,2,1,85,0,0
62768,-100,4,2,9,85,0,0
62935,-100,4,2,11,85,0,0
63018,-100,4,2,12,85,0,0
63101,-90.9090909090909,4,2,12,85,0,0
63268,-90.9090909090909,4,2,11,85,0,0
63435,-40,4,2,12,85,0,0
63768,-41.6666666666667,4,2,2,85,0,0
63935,-41.6666666666667,4,2,1,85,0,0
64101,-83.3333333333333,4,2,9,85,0,0
64268,-83.3333333333333,4,2,1,85,0,0
64435,-83.3333333333333,4,2,9,85,0,0
64601,-83.3333333333333,4,2,1,85,0,0
64768,-83.3333333333333,4,2,9,85,0,0
64935,-83.3333333333333,4,2,1,85,0,0
65101,-83.3333333333333,4,2,9,85,0,0
65268,-83.3333333333333,4,2,1,85,0,0
65435,-83.3333333333333,4,2,9,85,0,0
65601,-83.3333333333333,4,2,1,85,0,0
65768,-83.3333333333333,4,2,9,85,0,0
65935,-83.3333333333333,4,2,1,85,0,0
66101,-83.3333333333333,4,2,9,85,0,0
66268,-83.3333333333333,4,2,1,85,0,0
66435,-83.3333333333333,4,2,9,85,0,0
66601,-83.3333333333333,4,2,1,85,0,0
66768,-83.3333333333333,4,2,9,85,0,0
66935,-83.3333333333333,4,2,1,85,0,0
67101,-83.3333333333333,4,2,9,85,0,0
67268,-83.3333333333333,4,2,1,85,0,0
67435,-83.3333333333333,4,2,9,85,0,0
67601,-83.3333333333333,4,2,1,85,0,0
67768,-83.3333333333333,4,2,9,85,0,0
67935,-83.3333333333333,4,2,1,85,0,0
68101,-66.6666666666667,4,2,9,85,0,0
68268,-66.6666666666667,4,2,5,85,0,0
68351,-66.6666666666667,4,2,1,85,0,0
68435,-66.6666666666667,4,2,9,85,0,0
68601,-66.6666666666667,4,2,5,85,0,0
68685,-66.6666666666667,4,2,1,85,0,0
68768,-66.6666666666667,4,2,10,85,0,0
69435,-83.3333333333333,4,2,10,85,0,0
69601,-83.3333333333333,4,2,1,85,0,0
69768,-83.3333333333333,4,2,9,85,0,0
69935,-83.3333333333333,4,2,1,85,0,0
70101,-83.3333333333333,4,2,9,85,0,0
70268,-83.3333333333333,4,2,1,85,0,0
70435,-83.3333333333333,4,2,9,85,0,0
70601,-83.3333333333333,4,2,1,85,0,0
70768,-83.3333333333333,4,2,9,85,0,0
70935,-83.3333333333333,4,2,1,85,0,0
71101,-83.3333333333333,4,2,9,85,0,0
71268,-83.3333333333333,4,2,1,85,0,0
71435,-83.3333333333333,4,2,9,85,0,0
71601,-83.3333333333333,4,2,1,85,0,0
71768,-83.3333333333333,4,2,9,85,0,0
71935,-83.3333333333333,4,2,1,85,0,0
72101,-83.3333333333333,4,2,9,85,0,0
72268,-83.3333333333333,4,2,1,85,0,0
72435,-83.3333333333333,4,2,9,85,0,0
72601,-83.3333333333333,4,2,1,85,0,0
72768,-83.3333333333333,4,2,9,85,0,0
72935,-83.3333333333333,4,2,1,85,0,0
73101,-83.3333333333333,4,2,9,85,0,0
73268,-83.3333333333333,4,2,1,85,0,0
73435,-83.3333333333333,4,2,9,85,0,0
73601,-83.3333333333333,4,2,11,85,0,0
73685,-83.3333333333333,4,2,9,85,0,0
73768,-57.1428571428571,4,2,9,85,0,0
73935,-57.1428571428571,4,2,11,85,0,0
74101,-166.666666666667,4,2,9,85,0,0
74435,-41.6666666666667,4,2,2,85,0,0
74601,-41.6666666666667,4,2,1,85,0,0
74768,-66.6666666666667,4,2,12,90,0,1
74935,-66.6666666666667,4,2,1,90,0,1
75101,-66.6666666666667,4,2,13,90,0,1
75268,-66.6666666666667,4,2,4,90,0,1
75435,-57.1428571428571,4,2,9,90,0,1
75518,-57.1428571428571,4,2,1,90,0,1
75768,-57.1428571428571,4,2,13,90,0,1
75935,-57.1428571428571,4,2,4,90,0,1
76101,-66.6666666666667,4,2,9,90,0,1
76268,-66.6666666666667,4,2,1,90,0,1
76435,-66.6666666666667,4,2,13,90,0,1
76601,-66.6666666666667,4,2,4,90,0,1
76768,-57.1428571428571,4,2,9,90,0,1
76851,-57.1428571428571,4,2,1,90,0,1
77101,-45.4545454545455,4,2,13,90,0,1
77268,-45.4545454545455,4,2,4,90,0,1
77435,-66.6666666666667,4,2,9,90,0,1
77601,-66.6666666666667,4,2,1,90,0,1
77768,-66.6666666666667,4,2,13,90,0,1
77935,-66.6666666666667,4,2,4,90,0,1
78101,-57.1428571428571,4,2,9,90,0,1
78185,-57.1428571428571,4,2,1,90,0,1
78435,-57.1428571428571,4,2,13,90,0,1
78601,-57.1428571428571,4,2,4,90,0,1
78768,-57.1428571428571,4,2,9,90,0,1
78935,-57.1428571428571,4,2,6,90,0,1
79018,-57.1428571428571,4,2,1,90,0,1
79101,-57.1428571428571,4,2,13,90,0,1
79268,-57.1428571428571,4,2,14,90,0,1
79351,-57.1428571428571,4,2,4,90,0,1
79435,-57.1428571428571,4,2,9,90,0,1
79518,-57.1428571428571,4,2,15,90,0,1
79768,-57.1428571428571,4,2,13,90,0,1
79935,-57.1428571428571,4,2,15,90,0,1
80101,-57.1428571428571,4,2,12,90,0,1
80268,-57.1428571428571,4,2,1,90,0,1
80435,-76.9230769230769,4,2,13,90,0,1
80601,-76.9230769230769,4,2,4,90,0,1
80768,-66.6666666666667,4,2,9,90,0,1
80851,-66.6666666666667,4,2,1,90,0,1
81101,-57.1428571428571,4,2,13,90,0,1
81268,-57.1428571428571,4,2,4,90,0,1
81435,-57.1428571428571,4,2,9,90,0,1
81601,-57.1428571428571,4,2,1,90,0,1
81768,-57.1428571428571,4,2,13,90,0,1
81935,-57.1428571428571,4,2,4,90,0,1
82101,-57.1428571428571,4,2,9,90,0,1
82185,-57.1428571428571,4,2,1,90,0,1
82435,-50,4,2,13,90,0,1
82601,-50,4,2,4,90,0,1
82768,-66.6666666666667,4,2,9,90,0,1
82935,-66.6666666666667,4,2,1,90,0,1
83101,-66.6666666666667,4,2,13,90,0,1
83268,-66.6666666666667,4,2,4,90,0,1
83435,-66.6666666666667,4,2,9,90,0,1
83518,-66.6666666666667,4,2,1,90,0,1
83768,-66.6666666666667,4,2,13,90,0,1
83935,-66.6666666666667,4,2,4,90,0,1
84101,-66.6666666666667,4,2,9,90,0,1
84268,-66.6666666666667,4,2,1,90,0,1
84435,-50,4,2,13,90,0,1
84601,-50,4,2,4,90,0,1
84768,-66.6666666666667,4,2,9,90,0,1
84851,-66.6666666666667,4,2,1,90,0,1
85101,-41.6666666666667,4,2,2,90,0,1
85268,-41.6666666666667,4,2,1,90,0,1
85435,-76.9230769230769,4,2,1,90,0,0
86601,-76.9230769230769,4,2,1,5,0,0

[Colours]
Combo1 : 254,171,171
Combo2 : 245,133,50
Combo3 : 255,232,136
Combo4 : 250,78,78

[HitObjects]
110,300,102,5,14,2:1:0:0:
110,300,268,1,2,2:3:0:0:
49,137,435,1,10,2:1:0:0:
49,137,601,1,2,2:3:0:0:
238,230,768,5,10,2:1:0:0:
203,137,935,1,2,2:2:0:0:
241,237,1101,1,10,2:1:0:0:
398,187,1268,6,0,L|305:169,1,80,2|8,2:2|2:1,0:0:0:0:
203,315,1601,2,0,L|296:333,1,80,2|8,2:2|2:1,0:0:0:0:
498,297,1935,2,0,B|360:330|360:330|389:260,1,209.999993591309,2|8,2:2|2:1,0:0:0:0:
473,49,2601,5,2,2:2:0:0:
480,79,2685,1,2,2:3:0:0:
488,113,2768,1,10,2:1:0:0:
351,12,2935,1,2,2:3:0:0:
398,187,3101,5,10,2:1:0:0:
398,187,3268,1,2,2:3:0:0:
247,127,3435,5,10,2:1:0:0:
393,97,3601,1,2,2:2:0:0:
241,128,3768,2,0,L|148:111,1,80,10|2,2:1|2:3,0:0:0:0:
0,92,4101,5,10,2:1:0:0:
96,3,4268,2,0,P|84:44|83:70,1,50,2|2,2:2|2:3,0:0:0:0:
172,227,4435,5,10,2:1:0:0:
84,138,4601,2,0,P|79:162|71:186,1,50,2|2,2:2|2:3,0:0:0:0:
0,263,4768,1,10,2:1:0:0:
151,371,4935,5,2,2:3:0:0:
147,363,5018,1,0,0:0:0:0:
78,327,5101,2,0,B|177:357|222:266|222:266|178:253|163:209,1,240,10|0,2:1|0:0,0:0:0:0:
252,150,5435,6,0,P|243:178|235:216,1,44.999998626709,14|0,2:1|0:0,0:0:0:0:
296,258,5601,2,0,P|287:286|279:324,1,44.999998626709,2|0,2:3|0:0,0:0:0:0:
390,228,5768,6,0,P|381:256|373:294,1,44.999998626709,10|0,2:1|0:0,0:0:0:0:
282,316,5935,2,0,P|274:337|269:359,1,44.999998626709,2|0,2:3|0:0,0:0:0:0:
359,348,6101,5,10,2:1:0:0:
359,348,6268,1,2,2:2:0:0:
327,168,6435,2,0,L|294:-4,1,165.000005035401,10|0,2:1|0:0,0:0:0:0:
222,3,6768,5,8,2:1:0:0:
225,20,6851,1,0,0:0:0:0:
228,38,6934,1,2,2:2:0:0:
231,56,7017,1,0,0:0:0:0:
234,73,7101,2,0,L|243:120,1,44.999998626709,8|0,2:1|0:0,0:0:0:0:
369,0,7268,2,0,L|378:47,1,44.999998626709,2|0,2:2|0:0,0:0:0:0:
327,168,7435,5,8,2:1:0:0:
327,168,7601,1,2,2:3:0:0:
511,241,7768,2,0,B|457:226|457:226|413:265,1,110.000003356934,8|2,2:1|2:2,0:0:0:0:
351,351,8018,1,2,2:3:0:0:
359,334,8101,5,14,2:1:0:0:
322,306,8185,1,0,0:0:0:0:
277,306,8268,1,2,2:3:0:0:
240,331,8351,1,0,0:0:0:0:
227,374,8435,1,10,2:1:0:0:
275,338,8518,1,0,0:0:0:0:
283,278,8601,1,2,2:3:0:0:
255,224,8685,1,0,0:0:0:0:
198,203,8768,5,14,2:1:0:0:
129,199,8851,1,0,0:0:0:0:
81,151,8934,1,2,2:2:0:0:
77,82,9018,1,0,0:0:0:0:
119,29,9101,1,10,2:1:0:0:
193,15,9184,1,0,0:0:0:0:
254,63,9268,1,2,2:2:0:0:
265,141,9351,1,0,0:0:0:0:
198,203,9435,5,14,2:1:0:0:
191,204,9518,5,0,0:0:0:0:
185,205,9601,5,10,2:1:0:0:
179,207,9685,5,0,0:0:0:0:
173,209,9768,6,0,L|75:189,1,87.500000834465,10|0,2:1|0:0,0:0:0:0:
362,165,9935,2,0,L|460:185,1,87.500000834465,10|0,2:1|0:0,0:0:0:0:
233,372,10101,6,0,B|249:331|295:319|295:319|275:192|275:192|284:191|284:191|275:192|275:192|256:67,1,330.000010070801,10|0,2:1|0:0,0:0:0:0:
254,18,10435,6,0,P|244:-9|243:21,1,80,10|0,2:2|0:0,0:0:0:0:
261,95,10601,1,2,2:2:0:0:
512,15,10768,6,0,L|420:-5,1,75.0000028610231,14|0,2:1|0:0,0:0:0:0:
367,28,10935,1,2,2:3:0:0:
488,241,11101,2,0,P|522:180|506:134,1,110.000003356934,10|10,2:2|2:2,0:0:0:0:
449,99,11351,1,8,2:2:0:0:
421,117,11435,6,0,P|427:156|436:183,1,55.0000016784668,10|8,2:1|2:2,0:0:0:0:
353,256,11601,2,0,P|360:282|363:309,1,55.0000016784668,2|0,2:2|0:0,0:0:0:0:
494,374,11768,1,10,2:2:0:0:
146,206,11935,6,0,P|237:185|343:177,1,194.999991073609,10|0,2:2|0:0,0:0:0:0:
339,178,12268,2,0,P|331:151|328:124,1,55.0000016784668,2|0,2:2|0:0,0:0:0:0:
250,270,12435,1,8,2:2:0:0:
190,20,12601,5,10,2:2:0:0:
155,48,12684,1,8,2:2:0:0:
111,57,12767,1,8,2:1:0:0:
68,44,12851,1,8,2:2:0:0:
37,12,12934,1,2,2:3:0:0:
43,236,13101,2,0,B|71:225|71:225|66:176|100:139,1,110.000003356934,8|10,2:2|2:2,0:0:0:0:
224,92,13351,5,8,2:2:0:0:
228,112,13435,2,0,L|240:173,1,55.0000016784668,10|0,2:1|0:0,0:0:0:0:
281,372,13601,2,0,L|269:311,1,55.0000016784668,2|0,2:3|0:0,0:0:0:0:
299,213,13768,2,0,B|256:247|256:247|192:233,1,110.000003356934,10|10,2:2|2:2,0:0:0:0:
125,264,14018,5,8,2:2:0:0:
141,280,14101,2,0,L|153:341,1,55.0000016784668,10|8,2:1|2:2,0:0:0:0:
382,293,14268,2,0,L|370:232,1,55.0000016784668,2|0,2:2|0:0,0:0:0:0:
206,4,14435,2,0,L|231:130,1,110.000003356934,10|10,2:2|2:2,0:0:0:0:
511,15,14768,6,0,P|469:8|428:-4,1,75.0000028610231,14|0,2:1|0:0,0:0:0:0:
298,69,14935,2,0,P|339:75|381:88,1,75.0000028610231,14|0,2:1|0:0,0:0:0:0:
512,177,15101,6,0,P|498:127|492:83,1,75.0000028610231,14|0,2:2|0:0,0:0:0:0:
270,198,15268,2,0,P|284:248|290:292,1,75.0000028610231,14|8,2:2|2:2,0:0:0:0:
384,168,15435,1,14,2:1:0:0:
182,321,15601,5,2,2:3:0:0:
188,333,15685,1,0,0:0:0:0:
258,383,15768,6,0,B|437:347|437:347|411:281|392:317|366:256,1,300,8|8,2:2|2:2,0:0:0:0:
270,198,16101,6,0,B|239:220|239:220|181:215,1,75.0000028610231,14|0,2:1|0:0,0:0:0:0:
140,256,16268,1,2,2:3:0:0:
1,38,16435,2,0,B|23:46|23:46|21:93|44:128,1,110.000003356934,10|10,2:2|2:2,0:0:0:0:
10,194,16685,1,8,2:2:0:0:
34,212,16768,6,0,P|64:199|99:191,1,55.0000016784668,10|8,2:1|2:2,0:0:0:0:
134,51,16935,2,0,P|160:43|185:32,1,55.0000016784668,2|0,2:2|0:0,0:0:0:0:
308,114,17101,1,10,2:2:0:0:
153,336,17268,6,0,P|178:246|195:122,1,194.999991073609,10|0,2:2|0:0,0:0:0:0:
193,145,17601,2,0,P|159:143|129:133,1,64.9999970245363,2|0,2:2|0:0,0:0:0:0:
289,201,17768,1,8,2:2:0:0:
453,63,17935,5,10,2:2:0:0:
438,106,18018,1,8,2:2:0:0:
426,150,18101,1,8,2:1:0:0:
417,194,18184,1,8,2:2:0:0:
410,239,18268,1,2,2:3:0:0:
320,380,18435,2,0,B|300:369|300:369|296:315|267:260,1,110.000003356934,8|10,2:2|2:2,0:0:0:0:
270,183,18685,5,10,2:2:0:0:
289,201,18768,2,0,P|255:209|224:218,1,55.0000016784668,10|0,2:1|0:0,0:0:0:0:
153,336,18935,2,0,P|119:344|88:353,1,55.0000016784668,2|0,2:3|0:0,0:0:0:0:
5,157,19101,2,0,B|48:191|48:191|109:174,1,110.000003356934,10|10,2:2|2:2,0:0:0:0:
149,82,19351,5,8,2:2:0:0:
131,61,19435,2,0,P|120:25|106:-10,1,64.9999970245363,10|8,2:1|2:2,0:0:0:0:
132,274,19601,2,0,P|143:310|157:345,1,64.9999970245363,2|0,2:2|0:0,0:0:0:0:
302,68,19768,6,0,P|311:93|319:120,1,55.0000016784668,10|0,2:2|0:0,0:0:0:0:
306,253,19934,2,0,P|296:227|288:200,1,55.0000016784668,10|8,2:2|2:2,0:0:0:0:
479,162,20101,5,10,2:1:0:0:
482,155,20185,5,0,0:0:0:0:
488,160,20268,5,2,2:2:0:0:
484,165,20351,5,0,0:0:0:0:
452,93,20435,2,0,P|415:102|370:109,1,55.0000016784668,2|0,2:2|0:0,0:0:0:0:
482,236,20601,2,0,P|455:241|428:248,1,55.0000016784668,2|0,2:2|0:0,0:0:0:0:
69,137,20768,6,0,L|414:188,1,314.999990386963,2|0,2:2|0:0,0:0:0:0:
488,160,21101,5,10,2:2:0:0:
488,160,21435,5,14,2:2:0:0:
424,115,21518,1,0,0:0:0:0:
358,144,21601,1,2,2:3:0:0:
341,208,21685,1,0,0:0:0:0:
380,253,21768,1,10,2:2:0:0:
367,311,21851,1,0,0:0:0:0:
323,331,21935,1,2,2:3:0:0:
293,324,22018,1,0,0:0:0:0:
277,306,22101,5,10,2:2:0:0:
290,331,22185,1,0,0:0:0:0:
325,344,22268,1,2,2:3:0:0:
376,319,22351,1,0,0:0:0:0:
390,253,22435,1,10,2:2:0:0:
351,199,22518,1,0,0:0:0:0:
280,184,22601,1,2,2:3:0:0:
220,234,22685,1,0,0:0:0:0:
190,311,22768,5,10,2:2:0:0:
114,330,22851,1,0,0:0:0:0:
53,290,22935,1,2,2:3:0:0:
49,224,23018,1,0,0:0:0:0:
83,183,23101,1,10,2:2:0:0:
131,187,23185,1,0,0:0:0:0:
150,221,23268,1,2,2:3:0:0:
138,249,23351,1,0,0:0:0:0:
122,256,23435,5,10,2:2:0:0:
142,256,23518,1,0,0:0:0:0:
163,222,23601,1,2,2:3:0:0:
137,175,23685,1,0,0:0:0:0:
78,169,23768,1,10,2:2:0:0:
27,136,23851,1,0,0:0:0:0:
14,68,23935,1,2,2:3:0:0:
59,9,24018,1,2,2:3:0:0:
140,7,24101,5,10,2:2:0:0:
198,58,24185,1,0,0:0:0:0:
220,126,24268,1,2,2:3:0:0:
277,157,24351,1,0,0:0:0:0:
335,143,24435,1,10,2:2:0:0:
362,96,24518,1,0,0:0:0:0:
357,53,24601,1,2,2:3:0:0:
335,27,24685,1,0,0:0:0:0:
314,21,24768,5,10,2:2:0:0:
340,22,24851,1,0,0:0:0:0:
367,52,24935,1,2,2:3:0:0:
373,100,25018,1,0,0:0:0:0:
343,151,25101,1,10,2:2:0:0:
286,186,25185,1,0,0:0:0:0:
252,250,25268,1,2,2:3:0:0:
284,323,25351,1,0,0:0:0:0:
364,354,25435,6,0,L|378:269,1,75.0000028610231,10|0,2:2|0:0,0:0:0:0:
479,156,25601,2,0,L|465:241,1,75.0000028610231,10|2,2:1|2:3,0:0:0:0:
252,250,25768,2,0,L|266:165,1,75.0000028610231,10|0,2:2|0:0,0:0:0:0:
367,52,25934,2,0,L|353:137,1,75.0000028610231,10|2,2:1|2:3,0:0:0:0:
128,284,26101,5,10,2:2:0:0:
10,138,26268,1,0,0:0:0:0:
15,149,26351,1,0,0:0:0:0:
1,223,26435,2,0,P|39:216|78:202,1,75.0000028610231,10|0,2:2|0:0,0:0:0:0:
284,323,26601,2,0,P|246:330|207:344,1,75.0000028610231
82,113,26768,5,14,2:2:0:0:
157,96,26851,1,0,0:0:0:0:
219,132,26935,1,2,2:3:0:0:
247,191,27018,1,0,0:0:0:0:
300,217,27101,1,10,2:2:0:0:
359,205,27185,1,0,0:0:0:0:
392,170,27268,1,2,2:3:0:0:
424,153,27351,1,0,0:0:0:0:
448,155,27435,5,10,2:2:0:0:
420,147,27518,1,0,0:0:0:0:
385,166,27601,1,2,2:3:0:0:
352,200,27685,1,0,0:0:0:0:
300,208,27768,1,10,2:2:0:0:
252,182,27851,1,0,0:0:0:0:
223,125,27935,1,2,2:3:0:0:
160,83,28018,1,0,0:0:0:0:
82,102,28101,5,10,2:2:0:0:
46,171,28185,1,0,0:0:0:0:
71,237,28268,1,2,2:3:0:0:
127,271,28351,1,0,0:0:0:0:
186,260,28435,1,10,2:2:0:0:
238,289,28518,1,0,0:0:0:0:
248,335,28601,1,2,2:3:0:0:
228,365,28685,1,0,0:0:0:0:
204,368,28768,5,10,2:2:0:0:
233,371,28851,1,0,0:0:0:0:
256,336,28935,1,2,2:3:0:0:
247,285,29018,1,0,0:0:0:0:
190,250,29101,1,10,2:2:0:0:
180,181,29185,1,0,0:0:0:0:
232,129,29268,1,2,2:3:0:0:
308,144,29351,1,2,2:3:0:0:
336,223,29435,5,10,2:2:0:0:
409,247,29518,1,0,0:0:0:0:
471,212,29601,1,2,2:3:0:0:
489,148,29685,1,0,0:0:0:0:
458,96,29768,1,10,2:2:0:0:
400,79,29851,1,0,0:0:0:0:
363,47,29935,1,2,2:3:0:0:
363,11,30018,1,0,0:0:0:0:
384,1,30101,5,10,2:2:0:0:
369,15,30185,1,0,0:0:0:0:
369,47,30268,1,2,2:3:0:0:
405,73,30351,1,0,0:0:0:0:
463,91,30435,1,10,2:2:0:0:
498,147,30518,1,0,0:0:0:0:
478,215,30601,1,2,2:3:0:0:
410,255,30685,1,0,0:0:0:0:
330,230,30767,5,10,2:2:0:0:
327,223,30851,5,0,0:0:0:0:
321,228,30934,5,10,2:2:0:0:
325,233,31017,5,0,0:0:0:0:
261,165,31101,6,0,P|299:159|350:142,1,87.500000834465,10|0,2:2|0:0,0:0:0:0:
506,312,31268,2,0,P|468:318|417:335,1,87.500000834465,10|0,2:2|0:0,0:0:0:0:
131,292,31435,6,0,P|125:260|139:290,1,89.9999972534181,10|0,2:2|0:0,0:0:0:0:
178,357,31768,6,0,B|194:335|229:335|229:335|117:314|117:314|116:322|116:322|117:314|117:314|48:301|48:301|26:184,1,359.999989013672,8|2,2:2|2:3,0:0:0:0:
47,44,32101,5,14,2:2:0:0:
108,0,32184,1,0,0:0:0:0:
176,21,32267,1,2,2:3:0:0:
196,90,32350,1,0,0:0:0:0:
145,146,32434,5,10,2:2:0:0:
127,131,32518,1,0,0:0:0:0:
104,128,32601,1,10,2:2:0:0:
82,134,32685,1,8,2:2:0:0:
29,200,32768,6,0,L|47:298,1,87.500000834465,10|8,2:2|2:2,0:0:0:0:
186,365,32935,2,0,L|170:278,1,87.500000834465,2|0,2:3|0:0,0:0:0:0:
270,123,33101,6,0,L|288:221,1,87.500000834465,10|0,2:2|0:0,0:0:0:0:
427,288,33268,2,0,L|411:201,1,87.500000834465,10|8,2:2|2:2,0:0:0:0:
485,0,33435,5,10,2:2:0:0:
498,73,33518,1,0,0:0:0:0:
445,126,33601,1,2,2:3:0:0:
369,122,33685,1,0,0:0:0:0:
332,56,33768,2,0,L|382:49,1,75.0000028610231,10|0,2:2|0:0,0:0:0:0:
501,238,33935,5,10,2:2:0:0:
497,250,34018,1,8,2:2:0:0:
427,288,34101,2,0,L|411:201,1,87.500000834465,10|8,2:2|2:2,0:0:0:0:
270,123,34268,2,0,L|288:221,1,87.500000834465,2|0,2:3|0:0,0:0:0:0:
512,326,34435,6,0,B|496:339|496:339|344:306|344:306|322:301|314:348|293:343|293:343|227:328,1,300,10|10,2:2|2:2,0:0:0:0:
12,225,34768,5,10,2:2:0:0:
6,299,34851,1,0,0:0:0:0:
63,348,34935,1,2,2:3:0:0:
136,337,35018,1,0,0:0:0:0:
167,269,35101,5,10,2:2:0:0:
151,252,35185,1,0,0:0:0:0:
146,230,35268,1,10,2:2:0:0:
149,207,35351,1,8,2:2:0:0:
219,167,35435,6,0,P|265:176|316:185,1,87.500000834465,10|8,2:2|2:2,0:0:0:0:
150,36,35601,2,0,P|141:82|132:133,1,87.500000834465,2|0,2:3|0:0,0:0:0:0:
362,348,35768,6,0,P|371:302|380:251,1,87.500000834465,10|0,2:2|0:0,0:0:0:0:
270,132,35935,2,0,P|261:178|252:229,1,87.500000834465,10|8,2:2|2:2,0:0:0:0:
501,142,36101,6,0,P|454:156|403:161,1,87.500000834465,10|0,2:2|0:0,0:0:0:0:
153,330,36268,1,10,2:1:0:0:
181,321,36351,1,2,2:3:0:0:
207,314,36435,2,0,P|254:300|305:295,1,87.500000834465,10|0,2:2|0:0,0:0:0:0:
40,82,36601,5,10,2:2:0:0:
26,151,36685,1,10,2:2:0:0:
13,220,36768,2,0,P|60:206|111:201,1,87.500000834465,10|8,2:2|2:2,0:0:0:0:
292,295,36935,2,0,P|248:301|207:314,1,87.500000834465,2|0,2:2|0:0,0:0:0:0:
210,67,37101,6,0,P|253:61|295:48,1,87.500000834465,10|0,2:2|0:0,0:0:0:0:
501,142,37268,2,0,P|454:156|403:161,1,87.500000834465,10|8,2:2|2:2,0:0:0:0:
246,183,37435,5,14,2:2:0:0:
263,180,37518,1,0,0:0:0:0:
265,198,37601,1,2,2:3:0:0:
248,200,37685,1,0,0:0:0:0:
170,243,37768,6,0,P|162:186|140:128,1,64.9999970245363,10|0,2:2|0:0,0:0:0:0:
358,216,37935,2,0,P|348:184|343:152,1,64.9999970245363,10|8,2:2|2:2,0:0:0:0:
99,68,38101,6,0,P|87:110|82:153,1,75.0000028610231,10|8,2:2|2:2,0:0:0:0:
429,230,38268,2,0,P|424:273|413:316,1,75.0000028610231,2|0,2:3|0:0,0:0:0:0:
70,335,38435,6,0,P|57:290|52:243,1,87.500000834465,10|0,2:2|0:0,0:0:0:0:
457,132,38601,2,0,P|451:85|439:40,1,87.500000834465,10|8,2:2|2:2,0:0:0:0:
233,0,38768,5,10,2:2:0:0:
258,65,38851,1,0,0:0:0:0:
242,132,38935,1,2,2:3:0:0:
267,197,39018,1,0,0:0:0:0:
254,265,39101,2,0,L|235:364,1,87.500000834465,10|0,2:2|0:0,0:0:0:0:
429,230,39268,5,10,2:2:0:0:
445,243,39351,1,8,2:2:0:0:
413,315,39435,2,0,P|361:321|313:338,1,87.500000834465,10|8,2:2|2:2,0:0:0:0:
84,259,39601,2,0,P|136:253|184:236,1,87.500000834465,2|0,2:3|0:0,0:0:0:0:
475,40,39768,6,0,B|462:67|462:67|394:82|394:82|392:75|392:75|394:82|394:82|310:100|310:100|309:117|300:128|300:128|309:165|278:195,1,300,10|10,2:2|2:2,0:0:0:0:
148,169,40101,5,10,2:2:0:0:
228,143,40185,1,0,0:0:0:0:
228,58,40268,1,2,2:3:0:0:
149,34,40351,1,0,0:0:0:0:
98,100,40434,5,10,2:2:0:0:
82,113,40518,1,0,0:0:0:0:
59,115,40601,1,10,2:2:0:0:
38,106,40685,1,8,2:2:0:0:
0,34,40768,6,0,P|49:26|87:16,1,87.500000834465,10|8,2:2|2:2,0:0:0:0:
240,219,40935,2,0,P|282:208|325:201,1,87.500000834465,2|0,2:3|0:0,0:0:0:0:
313,126,41101,6,0,P|270:136|227:143,1,87.500000834465,10|0,2:2|0:0,0:0:0:0:
142,343,41268,2,0,P|98:350|56:359,1,87.500000834465,10|8,2:2|2:2,0:0:0:0:
18,200,41435,5,10,2:2:0:0:
13,191,41518,5,0,0:0:0:0:
22,187,41601,5,2,2:3:0:0:
26,195,41685,5,0,0:0:0:0:
102,232,41768,6,0,B|112:216|112:216|91:138,1,100,10|0,2:2|0:0,0:0:0:0:
377,18,41935,2,0,B|367:34|367:34|388:112,1,100,10|8,2:2|2:2,0:0:0:0:
265,349,42101,5,10,2:2:0:0:
265,349,42185,1,8,2:2:0:0:
265,349,42268,2,0,P|267:375|259:350,1,75.0000028610231
487,221,42435,6,0,B|497:183|497:183|300:243|300:243|326:299|350:271|376:339,1,359.999989013672,10|0,2:2|0:0,0:0:0:0:
265,349,42768,5,14,2:1:0:0:
49,318,42935,2,0,P|90:321|130:336,1,80,2|8,2:2|2:1,0:0:0:0:
60,151,43268,2,0,P|36:185|3:212,1,80,2|8,2:2|2:1,0:0:0:0:
196,245,43601,2,0,P|178:207|171:165,1,80,2|8,2:2|2:1,0:0:0:0:
106,238,43935,5,2,2:2:0:0:
106,238,44018,1,0,0:0:0:0:
106,238,44101,1,8,2:1:0:0:
111,34,44268,6,0,L|134:144,1,80,2|8,2:2|2:1,0:0:0:0:
284,208,44601,2,0,L|267:129,1,80,2|8,2:2|2:1,0:0:0:0:
379,0,44935,2,0,L|395:78,1,80,2|8,2:2|2:1,0:0:0:0:
250,57,45268,5,2,2:2:0:0:
250,57,45351,1,2,2:3:0:0:
250,57,45435,1,8,2:1:0:0:
365,175,45601,2,0,P|406:172|446:157,1,80,2|8,2:2|2:1,0:0:0:0:
376,342,45934,2,0,P|352:308|319:281,1,80,2|8,2:2|2:1,0:0:0:0:
512,248,46267,2,0,P|494:286|487:328,1,80,2|8,2:2|2:1,0:0:0:0:
418,257,46601,5,2,2:2:0:0:
418,257,46685,1,0,0:0:0:0:
418,257,46768,1,8,2:1:0:0:
186,318,46935,1,10,2:1:0:0:
167,218,47101,5,8,2:1:0:0:
376,342,47268,1,10,2:1:0:0:
275,384,47435,1,10,2:1:0:0:
307,103,47601,5,2,2:2:0:0:
314,98,47685,1,0,0:0:0:0:
353,167,47768,2,0,B|334:139|334:139|222:161|222:161|189:98,1,209.999993591309,10|0,2:1|0:0,0:0:0:0:
256,0,48101,5,14,2:1:0:0:
106,107,48268,2,0,P|124:55|154:32,1,80,2|8,2:2|2:1,0:0:0:0:
7,119,48601,2,0,P|19:156|48:183,1,80,2|8,2:2|2:1,0:0:0:0:
94,269,48935,2,0,P|56:280|17:272,1,80,2|8,2:2|2:1,0:0:0:0:
139,195,49268,5,2,2:2:0:0:
139,195,49351,1,0,0:0:0:0:
139,195,49435,1,8,2:1:0:0:
188,382,49601,2,0,L|167:279,1,80,2|8,2:2|2:1,0:0:0:0:
220,91,49935,2,0,L|235:169,1,80,2|8,2:2|2:1,0:0:0:0:
362,349,50268,2,0,L|346:270,1,80,2|8,2:2|2:1,0:0:0:0:
255,259,50601,5,2,2:2:0:0:
255,259,50685,1,2,2:3:0:0:
255,259,50768,1,8,2:1:0:0:
406,107,50935,2,0,P|388:55|358:32,1,80,2|8,2:2|2:1,0:0:0:0:
505,119,51268,2,0,P|492:156|463:183,1,80,2|8,2:2|2:1,0:0:0:0:
418,269,51602,2,0,P|455:280|494:272,1,80,2|8,2:2|2:1,0:0:0:0:
373,195,51935,5,2,2:2:0:0:
373,195,52019,1,0,0:0:0:0:
373,195,52102,1,10,2:1:0:0:
327,210,52185,1,2,2:2:0:0:
283,228,52268,1,2,2:2:0:0:
253,154,52351,1,2,2:2:0:0:
224,78,52435,6,0,P|237:39|244:-3,1,75.0000028610231,10|0,2:1|0:0,0:0:0:0:
285,304,52601,2,0,P|272:343|265:385,1,75.0000028610231,2|0,2:2|0:0,0:0:0:0:
38,190,52768,6,0,B|71:169|71:169|52:238,1,89.9999972534181,10|0,2:1|0:0,0:0:0:0:
12,290,53101,6,0,B|-8:222|-8:222|88:244|88:244|86:250|86:250|88:244|88:244|175:266|175:266|157:203,1,330.000010070801,8|2,2:2|2:3,0:0:0:0:
141,38,53435,6,0,L|129:95,1,50,14|0,2:2|0:0,0:0:0:0:
213,80,53601,2,0,L|201:137,1,50,2|0,2:2|0:0,0:0:0:0:
298,188,53768,6,0,L|286:131,1,50,10|0,2:2|0:0,0:0:0:0:
370,146,53934,2,0,L|358:89,1,50,2|0,2:2|0:0,0:0:0:0:
293,54,54101,5,10,2:2:0:0:
293,54,54185,1,0,0:0:0:0:
293,54,54268,1,2,2:2:0:0:
217,257,54435,1,10,2:2:0:0:
367,221,54601,6,0,P|375:269|395:328,1,100,2|8,2:2|2:2,0:0:0:0:
160,377,54935,2,0,P|152:329|132:270,1,100,2|8,2:2|2:2,0:0:0:0:
248,115,55268,6,0,B|211:249|297:214|255:355,1,240,2|8,2:2|2:2,0:0:0:0:
160,377,55935,5,2,2:2:0:0:
160,377,56018,1,2,2:3:0:0:
160,377,56101,2,0,L|92:364,1,50,10|0,2:2|0:0,0:0:0:0:
136,280,56268,2,0,L|68:267,1,50,2|0,2:2|0:0,0:0:0:0:
256,348,56435,6,0,L|324:361,1,50,10|0,2:2|0:0,0:0:0:0:
232,251,56601,2,0,L|300:264,1,50,2|0,2:2|0:0,0:0:0:0:
69,147,56768,6,0,L|81:201,1,50,10|0,2:2|0:0,0:0:0:0:
234,109,56935,2,0,L|246:163,1,50,2|0,2:2|0:0,0:0:0:0:
135,49,57101,2,0,L|161:168,1,100,10|2,2:2|2:3,0:0:0:0:
393,342,57435,6,0,L|407:281,1,50,10|0,2:2|0:0,0:0:0:0:
355,182,57601,1,10,2:1:0:0:
501,381,57768,6,0,L|515:320,1,50,10|0,2:2|0:0,0:0:0:0:
463,221,57934,1,10,2:1:0:0:
281,260,58101,5,10,2:2:0:0:
433,44,58268,5,0,0:0:0:0:
436,55,58351,1,0,0:0:0:0:
497,100,58435,2,0,B|446:102|404:81|404:81|358:153|358:153|329:140|297:141,1,240,8|0,2:2|0:0,0:0:0:0:
164,48,58768,6,0,L|151:-7,1,50,14|0,2:2|0:0,0:0:0:0:
260,62,58935,2,0,L|247:7,1,50,2|0,2:2|0:0,0:0:0:0:
127,155,59101,6,0,L|114:100,1,50,10|0,2:2|0:0,0:0:0:0:
223,169,59268,2,0,L|210:114,1,50,2|0,2:2|0:0,0:0:0:0:
170,240,59435,5,10,2:2:0:0:
170,240,59518,1,0,0:0:0:0:
170,240,59601,1,2,2:2:0:0:
38,221,59768,1,10,2:2:0:0:
316,310,59935,6,0,L|293:212,1,100,2|8,2:2|2:2,0:0:0:0:
121,380,60268,2,0,L|94:262,1,100,2|8,2:2|2:2,0:0:0:0:
166,113,60601,6,0,L|222:364,1,240,2|8,2:2|2:2,0:0:0:0:
323,311,61268,5,2,2:2:0:0:
323,311,61351,1,2,2:3:0:0:
323,311,61435,2,0,L|386:322,1,50,10|0,2:2|0:0,0:0:0:0:
438,374,61601,2,0,L|501:385,1,50,2|0,2:2|0:0,0:0:0:0:
348,201,61768,6,0,L|411:212,1,50,10|0,2:2|0:0,0:0:0:0:
463,264,61934,2,0,L|526:275,1,50,2|0,2:2|0:0,0:0:0:0:
323,311,62101,6,0,L|305:237,1,50,10|0,2:2|0:0,0:0:0:0:
397,209,62268,2,0,L|379:135,1,50,2|0,2:2|0:0,0:0:0:0:
253,197,62435,6,0,L|235:123,1,50,10|0,2:2|0:0,0:0:0:0:
338,68,62602,2,0,L|320:-6,1,50,2|0,2:2|0:0,0:0:0:0:
173,0,62768,5,10,2:2:0:0:
180,3,62852,5,2,2:2:0:0:
175,9,62935,5,10,2:2:0:0:
170,5,63018,5,2,2:2:0:0:
97,28,63101,6,0,L|42:18,1,55.0000016784668,10|0,2:2|0:0,0:0:0:0:
241,148,63268,2,0,L|295:157,1,55.0000016784668,10|0,2:2|0:0,0:0:0:0:
5,103,63435,6,0,B|46:119|52:152|52:152|36:213|36:213|49:244|85:246|85:246|206:216|206:216|174:201|168:168,1,375,10|0,2:2|0:0,0:0:0:0:
173,0,63768,5,10,2:2:0:0:
173,0,64101,5,14,2:2:0:0:
196,75,64185,1,0,0:0:0:0:
261,104,64268,1,2,2:2:0:0:
324,86,64351,1,0,0:0:0:0:
349,31,64435,1,8,2:2:0:0:
408,32,64518,1,0,0:0:0:0:
428,75,64601,1,2,2:2:0:0:
414,108,64685,1,0,0:0:0:0:
393,120,64768,5,8,2:2:0:0:
421,112,64851,1,0,0:0:0:0:
436,74,64935,1,2,2:2:0:0:
413,24,65018,1,0,0:0:0:0:
346,23,65101,1,8,2:2:0:0:
315,79,65185,1,0,0:0:0:0:
324,150,65268,1,2,2:2:0:0:
386,195,65351,1,0,0:0:0:0:
469,184,65435,5,8,2:2:0:0:
409,133,65518,1,0,0:0:0:0:
341,156,65601,1,2,2:2:0:0:
310,215,65685,1,0,0:0:0:0:
323,273,65768,1,8,2:2:0:0:
367,312,65851,1,0,0:0:0:0:
361,360,65935,1,2,2:2:0:0:
331,379,66018,1,0,0:0:0:0:
307,379,66101,5,8,2:2:0:0:
334,384,66185,1,0,0:0:0:0:
369,363,66268,1,2,2:2:0:0:
376,309,66351,1,0,0:0:0:0:
328,264,66435,1,8,2:2:0:0:
262,260,66518,1,0,0:0:0:0:
203,218,66601,1,2,2:2:0:0:
186,141,66685,1,2,2:3:0:0:
237,75,66768,5,8,2:2:0:0:
262,148,66851,1,0,0:0:0:0:
212,201,66935,1,2,2:2:0:0:
146,209,67018,1,0,0:0:0:0:
99,171,67101,1,8,2:2:0:0:
38,178,67185,1,0,0:0:0:0:
6,213,67268,1,2,2:2:0:0:
7,248,67351,1,0,0:0:0:0:
21,267,67435,5,8,2:2:0:0:
0,254,67518,1,0,0:0:0:0:
0,210,67601,1,2,2:2:0:0:
33,169,67685,1,0,0:0:0:0:
101,163,67768,1,8,2:2:0:0:
146,115,67851,1,0,0:0:0:0:
130,44,67935,1,2,2:2:0:0:
56,17,68018,1,0,0:0:0:0:
0,79,68101,6,0,L|74:93,1,75.0000028610231,8|0,2:2|0:0,0:0:0:0:
197,211,68268,2,0,L|123:197,1,75.0000028610231,10|2,2:1|2:3,0:0:0:0:
205,16,68435,2,0,L|279:30,1,75.0000028610231,8|0,2:2|0:0,0:0:0:0:
402,148,68602,2,0,L|328:134,1,75.0000028610231,10|2,2:1|2:3,0:0:0:0:
146,115,68768,5,10,2:2:0:0:
306,262,68935,1,2,2:2:0:0:
295,257,69018,1,0,0:0:0:0:
238,303,69101,2,0,P|255:344|257:381,1,75.0000028610231,10|0,2:2|0:0,0:0:0:0:
474,308,69268,2,0,P|457:267|455:230,1,75.0000028610231,2|0,2:2|0:0,0:0:0:0:
512,36,69435,5,14,2:2:0:0:
443,0,69518,1,0,0:0:0:0:
376,26,69601,1,2,2:2:0:0:
352,88,69685,1,0,0:0:0:0:
370,144,69768,1,8,2:2:0:0:
426,164,69851,1,0,0:0:0:0:
468,140,69935,1,2,2:2:0:0:
470,104,70018,1,0,0:0:0:0:
454,85,70101,5,8,2:2:0:0:
479,103,70185,1,0,0:0:0:0:
477,146,70268,1,2,2:2:0:0:
429,175,70351,1,0,0:0:0:0:
363,153,70435,1,8,2:2:0:0:
326,95,70518,1,0,0:0:0:0:
256,75,70601,1,2,2:2:0:0:
191,119,70685,1,0,0:0:0:0:
184,201,70768,5,8,2:2:0:0:
144,268,70851,1,0,0:0:0:0:
73,281,70934,1,2,2:2:0:0:
20,241,71018,1,0,0:0:0:0:
6,184,71101,1,8,2:2:0:0:
43,138,71184,1,0,0:0:0:0:
91,136,71268,1,2,2:2:0:0:
112,165,71351,1,0,0:0:0:0:
108,190,71434,5,8,2:2:0:0:
120,165,71518,1,0,0:0:0:0:
96,128,71601,1,2,2:2:0:0:
40,131,71685,1,0,0:0:0:0:
0,182,71768,1,8,2:2:0:0:
15,245,71851,1,0,0:0:0:0:
73,287,71935,1,2,2:2:0:0:
149,273,72018,1,2,2:3:0:0:
192,201,72101,5,8,2:2:0:0:
269,188,72185,1,0,0:0:0:0:
325,232,72268,1,2,2:2:0:0:
335,296,72351,1,0,0:0:0:0:
368,346,72435,1,8,2:2:0:0:
427,351,72518,1,0,0:0:0:0:
462,318,72601,1,2,2:2:0:0:
464,281,72685,1,0,0:0:0:0:
450,261,72768,5,8,2:2:0:0:
471,279,72851,1,0,0:0:0:0:
474,323,72935,1,2,2:2:0:0:
432,365,73018,1,0,0:0:0:0:
365,358,73101,1,8,2:2:0:0:
326,299,73185,1,0,0:0:0:0:
340,228,73268,1,2,2:2:0:0:
398,177,73351,1,0,0:0:0:0:
487,162,73435,5,10,2:2:0:0:
484,155,73519,5,2,2:2:0:0:
478,160,73602,5,10,2:2:0:0:
482,165,73685,5,2,2:2:0:0:
428,91,73768,6,0,P|485:82|521:67,1,87.500000834465,10|0,2:2|0:0,0:0:0:0:
471,309,73935,2,0,P|414:318|378:333,1,87.500000834465,10|0,2:2|0:0,0:0:0:0:
191,135,74101,6,0,B|198:180|198:180|228:144,1,89.9999972534181,10|0,2:2|0:0,0:0:0:0:
281,55,74435,6,0,B|272:95|272:95|188:112|188:112|186:104|186:104|188:112|188:112|107:128|107:128|88:218|88:218|35:228,1,359.999989013672,8|2,2:2|2:3,0:0:0:0:
108,331,74768,5,14,2:2:0:0:
181,345,74851,1,0,0:0:0:0:
255,359,74935,1,2,2:3:0:0:
328,374,75018,1,0,0:0:0:0:
387,311,75101,5,10,2:2:0:0:
379,289,75185,1,0,0:0:0:0:
371,267,75268,1,10,2:2:0:0:
364,245,75351,1,8,2:2:0:0:
427,184,75435,6,0,L|459:277,1,87.500000834465,10|8,2:2|2:2,0:0:0:0:
328,374,75601,2,0,L|296:281,1,87.500000834465,2|0,2:3|0:0,0:0:0:0:
283,56,75768,6,0,L|315:149,1,87.500000834465,10|0,2:2|0:0,0:0:0:0:
184,246,75934,2,0,L|152:153,1,87.500000834465,10|8,2:2|2:2,0:0:0:0:
49,30,76101,5,10,2:2:0:0:
2,89,76185,1,0,0:0:0:0:
19,161,76268,1,2,2:3:0:0:
86,193,76351,1,0,0:0:0:0:
155,163,76435,2,0,L|121:61,1,75.0000028610231,10|0,2:2|0:0,0:0:0:0:
41,289,76601,5,10,2:2:0:0:
49,298,76685,1,8,2:2:0:0:
89,366,76768,2,0,P|39:373|-13:393,1,87.500000834465,10|8,2:2|2:2,0:0:0:0:
184,246,76935,2,0,P|227:240|268:227,1,87.500000834465,2|0,2:3|0:0,0:0:0:0:
445,342,77101,6,0,B|461:385|461:385|320:346|320:346|307:321|314:290|314:290|353:263|348:217,1,330.000010070801,10|10,2:2|2:2,0:0:0:0:
512,125,77435,5,10,2:2:0:0:
463,182,77519,1,0,0:0:0:0:
390,164,77602,1,2,2:3:0:0:
368,92,77685,1,0,0:0:0:0:
397,13,77768,5,10,2:2:0:0:
377,2,77851,1,0,0:0:0:0:
354,0,77935,1,10,2:2:0:0:
334,10,78018,1,8,2:2:0:0:
368,92,78101,6,0,P|416:79|457:74,1,87.500000834465,10|8,2:2|2:2,0:0:0:0:
190,7,78268,2,0,P|203:55|208:96,1,87.500000834465,2|0,2:3|0:0,0:0:0:0:
352,337,78435,6,0,P|339:289|334:248,1,87.500000834465,10|0,2:2|0:0,0:0:0:0:
86,266,78601,2,0,P|129:260|171:248,1,87.500000834465,10|8,2:2|2:2,0:0:0:0:
260,178,78768,6,0,P|261:207|256:178,1,87.500000834465,10|0,2:2|0:0,0:0:0:0:
42,60,78935,1,10,2:1:0:0:
37,85,79018,1,2,2:3:0:0:
53,105,79101,2,0,P|95:93|138:87,1,87.500000834465,10|0,2:2|0:0,0:0:0:0:
115,379,79268,5,10,2:2:0:0:
61,333,79351,1,10,2:2:0:0:
86,266,79435,2,0,P|129:260|171:248,1,87.500000834465,10|8,2:2|2:2,0:0:0:0:
368,92,79601,2,0,P|416:79|457:74,1,87.500000834465,2|0,2:2|0:0,0:0:0:0:
426,266,79768,6,0,P|382:260|340:248,1,87.500000834465,10|0,2:2|0:0,0:0:0:0:
144,92,79934,2,0,P|101:80|58:74,1,87.500000834465,10|8,2:2|2:2,0:0:0:0:
246,183,80101,5,14,2:2:0:0:
263,180,80184,1,0,0:0:0:0:
265,198,80267,1,2,2:3:0:0:
248,200,80351,1,0,0:0:0:0:
252,111,80435,6,0,L|264:29,1,64.9999970245363,10|0,2:2|0:0,0:0:0:0:
260,273,80601,2,0,L|248:355,1,64.9999970245363,10|8,2:2|2:2,0:0:0:0:
149,256,80768,6,0,L|162:168,1,75.0000028610231,10|8,2:2|2:2,0:0:0:0:
350,207,80935,2,0,L|362:127,1,75.0000028610231,2|0,2:3|0:0,0:0:0:0:
83,48,81101,6,0,L|70:141,1,87.500000834465,10|0,2:2|0:0,0:0:0:0:
440,241,81268,2,0,L|425:338,1,87.500000834465,10|8,2:2|2:2,0:0:0:0:
228,372,81435,5,10,2:2:0:0:
253,307,81518,1,0,0:0:0:0:
237,240,81601,1,2,2:3:0:0:
262,175,81685,1,0,0:0:0:0:
249,107,81768,2,0,L|230:8,1,87.500000834465,10|0,2:2|0:0,0:0:0:0:
470,50,81935,5,10,2:2:0:0:
478,57,82018,1,8,2:2:0:0:
494,135,82101,2,0,P|448:130|393:118,1,87.500000834465,10|8,2:2|2:2,0:0:0:0:
142,225,82268,2,0,P|188:230|243:242,1,87.500000834465,2|0,2:3|0:0,0:0:0:0:
512,315,82435,6,0,B|507:295|507:295|375:268|375:268|407:314|373:355|373:355|343:358|328:379,1,300,10|10,2:2|2:2,0:0:0:0:
92,371,82768,5,10,2:2:0:0:
39,307,82851,1,0,0:0:0:0:
69,237,82935,1,2,2:3:0:0:
142,225,83018,1,0,0:0:0:0:
190,178,83101,1,10,2:2:0:0:
185,110,83185,5,0,0:0:0:0:
176,113,83268,5,10,2:2:0:0:
169,117,83351,5,8,2:2:0:0:
107,157,83435,5,10,2:2:0:0:
81,90,83518,1,8,2:2:0:0:
116,26,83601,1,2,2:3:0:0:
187,11,83684,1,0,0:0:0:0:
244,56,83768,1,10,2:2:0:0:
300,104,83851,1,0,0:0:0:0:
382,115,83935,1,10,2:2:0:0:
457,78,84018,1,8,2:2:0:0:
499,0,84101,5,10,2:2:0:0:
504,9,84184,5,0,0:0:0:0:
495,13,84267,5,2,2:3:0:0:
491,5,84351,5,0,0:0:0:0:
457,78,84435,6,0,B|465:93|465:93|447:185,1,100,10|0,2:2|0:0,0:0:0:0:
163,324,84601,2,0,B|155:309|155:309|173:217,1,100,10|8,2:2|2:2,0:0:0:0:
314,23,84768,5,10,2:2:0:0:
314,23,84851,1,8,2:2:0:0:
314,23,84935,2,0,P|306:-2|308:24,1,75.0000028610231
59,88,85101,6,0,B|79:109|79:109|152:93|152:93|151:87|151:87|152:93|152:93|244:73|244:73|257:87|273:92|273:92|266:126|288:149|288:149|325:154|344:188,1,359.999989013672,10|2,2:2|2:3,0:0:0:0:
512,193,85435,6,0,B|516:111|422:55|337:109|327:191|365:238|365:238|410:279|388:356|325:380|267:351|257:299|257:299|239:217|111:184|46:323|129:401|201:383,1,909.999958343508,14|0,2:1|0:0,0:0:0:0:
