osu file format v14

[General]
AudioFilename: audio.mp3
AudioLeadIn: 0
PreviewTime: 21351
Countdown: 0
SampleSet: Soft
StackLeniency: 0.3
Mode: 0
LetterboxInBreaks: 0
WidescreenStoryboard: 1

[Editor]
DistanceSpacing: 1
BeatDivisor: 4
GridSize: 4
TimelineZoom: 1.2

[Metadata]
Title:FEEEEVER TIME
TitleUnicode:FEEEEVER TIME
Artist:Nor
ArtistUnicode:Nor
Creator:Matsuyuki Ame
Version:EASY
Source:ブルーアーカイブ -Blue Archive-
Tags:rk657 anxient gazimal newton- Amateurre tntlealu lealu tnt [tntlealu] [_tntlealu_] graphical midorijeon theme 91 ブルアカ buruaka buru aka nat games nexon yostar ost video game soundtrack instrumental electronic fever feever feeever
BeatmapID:4366798
BeatmapSetID:2076534

[Difficulty]
HPDrainRate:3
CircleSize:3
OverallDifficulty:3
ApproachRate:3
SliderMultiplier:0.899999999999999
SliderTickRate:1

[Events]
//Background and Video events
0,0,"bg.jpg",0,0
//Break Periods
//Storyboard Layer 0 (Background)
//Storyboard Layer 1 (Fail)
//Storyboard Layer 2 (Pass)
//Storyboard Layer 3 (Foreground)
//Storyboard Layer 4 (Overlay)
//Storyboard Sound Samples

[TimingPoints]
102,333.333333333333,4,2,1,80,1,0
9601,-100,4,2,2,80,0,0
9768,-100,4,2,1,80,0,0
9935,-100,4,2,2,80,0,0
10101,-100,4,2,1,80,0,0
10435,-100,4,2,2,80,0,0
10601,-100,4,2,3,80,0,0
10768,-100,4,2,3,95,0,0
10935,-100,4,2,1,95,0,0
11101,-100,4,2,3,95,0,0
11268,-100,4,2,4,95,0,0
11601,-100,4,2,1,95,0,0
11768,-100,4,2,3,95,0,0
11935,-100,4,2,1,95,0,0
12101,-100,4,2,6,95,0,0
12435,-100,4,2,3,95,0,0
12601,-100,4,2,1,95,0,0
12768,-100,4,2,4,95,0,0
12935,-100,4,2,1,95,0,0
13101,-100,4,2,3,95,0,0
13268,-100,4,2,1,95,0,0
13435,-100,4,2,3,95,0,0
13601,-100,4,2,1,95,0,0
13768,-100,4,2,3,95,0,0
13935,-100,4,2,4,95,0,0
14268,-100,4,2,1,95,0,0
14435,-100,4,2,3,95,0,0
14601,-100,4,2,4,95,0,0
14935,-100,4,2,5,95,0,0
15268,-100,4,2,6,95,0,0
15351,-100,4,2,1,95,0,0
15435,-100,4,2,3,95,0,0
15518,-100,4,2,1,95,0,0
16101,-100,4,2,3,95,0,0
16268,-100,4,2,1,95,0,0
16435,-100,4,2,7,95,0,0
16601,-100,4,2,4,95,0,0
16935,-100,4,2,1,95,0,0
17101,-100,4,2,7,95,0,0
17268,-100,4,2,1,95,0,0
17435,-100,4,2,6,95,0,0
17768,-100,4,2,7,95,0,0
17935,-100,4,2,1,95,0,0
18101,-100,4,2,4,95,0,0
18268,-100,4,2,1,95,0,0
18435,-100,4,2,7,95,0,0
18601,-100,4,2,1,95,0,0
18685,-100,4,2,4,95,0,0
18935,-100,4,2,1,95,0,0
19101,-100,4,2,7,95,0,0
19268,-100,4,2,4,95,0,0
19601,-100,4,2,1,95,0,0
19768,-100,4,2,7,95,0,0
19935,-100,4,2,1,95,0,0
20101,-100,4,2,3,95,0,0
20268,-100,4,2,1,95,0,0
20435,-100,4,2,3,95,0,0
20601,-100,4,2,1,95,0,0
20768,-100,4,2,3,95,0,0
20935,-100,4,2,1,95,0,0
21101,-100,4,2,8,95,0,0
21268,-100,4,2,1,95,0,0
21435,-100,4,2,9,85,0,0
21601,-100,4,2,1,85,0,0
21768,-100,4,2,9,85,0,0
21935,-100,4,2,1,85,0,0
22101,-100,4,2,9,85,0,0
22268,-100,4,2,1,85,0,0
22435,-100,4,2,9,85,0,0
22601,-100,4,2,1,85,0,0
22768,-100,4,2,9,85,0,0
22935,-100,4,2,1,85,0,0
23101,-100,4,2,9,85,0,0
23268,-100,4,2,1,85,0,0
23435,-100,4,2,9,85,0,0
23601,-100,4,2,1,85,0,0
23768,-100,4,2,9,85,0,0
23935,-100,4,2,1,85,0,0
24101,-100,4,2,9,85,0,0
24268,-100,4,2,1,85,0,0
24435,-100,4,2,9,85,0,0
24601,-100,4,2,1,85,0,0
24768,-100,4,2,9,85,0,0
24935,-100,4,2,1,85,0,0
25101,-100,4,2,9,85,0,0
25268,-100,4,2,1,85,0,0
25435,-100,4,2,9,85,0,0
25601,-100,4,2,6,85,0,0
25685,-100,4,2,1,85,0,0
25768,-100,4,2,9,85,0,0
25935,-100,4,2,6,85,0,0
26018,-100,4,2,1,85,0,0
26101,-100,4,2,10,85,0,0
26935,-100,4,2,1,85,0,0
27101,-100,4,2,9,85,0,0
27268,-100,4,2,1,85,0,0
27435,-100,4,2,9,85,0,0
27601,-100,4,2,1,85,0,0
27768,-100,4,2,9,85,0,0
27935,-100,4,2,1,85,0,0
28101,-100,4,2,9,85,0,0
28268,-100,4,2,1,85,0,0
28435,-100,4,2,9,85,0,0
28601,-100,4,2,1,85,0,0
28768,-100,4,2,9,85,0,0
28935,-100,4,2,1,85,0,0
29101,-100,4,2,9,85,0,0
29268,-100,4,2,1,85,0,0
29435,-100,4,2,9,85,0,0
29601,-100,4,2,1,85,0,0
29768,-100,4,2,9,85,0,0
29935,-100,4,2,1,85,0,0
30101,-100,4,2,9,85,0,0
30268,-100,4,2,1,85,0,0
30435,-100,4,2,9,85,0,0
30601,-100,4,2,1,85,0,0
30768,-100,4,2,9,85,0,0
30935,-100,4,2,11,85,0,0
31101,-100,4,2,9,85,0,0
31268,-100,4,2,11,85,0,0
31435,-100,4,2,9,85,0,0
31601,-100,4,2,1,85,0,0
31768,-100,4,2,2,85,0,0
31935,-100,4,2,1,85,0,0
32101,-100,4,2,12,90,0,1
32268,-100,4,2,1,90,0,1
32435,-100,4,2,13,90,0,1
32601,-100,4,2,4,90,0,1
32768,-100,4,2,9,90,0,1
32851,-100,4,2,1,90,0,1
33101,-100,4,2,13,90,0,1
33268,-100,4,2,4,90,0,1
33435,-100,4,2,9,90,0,1
33601,-100,4,2,1,90,0,1
33768,-100,4,2,13,90,0,1
33935,-100,4,2,4,90,0,1
34101,-100,4,2,9,90,0,1
34185,-100,4,2,1,90,0,1
34435,-100,4,2,13,90,0,1
34601,-100,4,2,4,90,0,1
34768,-100,4,2,9,90,0,1
34935,-100,4,2,1,90,0,1
35101,-100,4,2,13,90,0,1
35268,-100,4,2,4,90,0,1
35435,-100,4,2,9,90,0,1
35518,-100,4,2,1,90,0,1
35768,-100,4,2,13,90,0,1
35935,-100,4,2,4,90,0,1
36101,-100,4,2,9,90,0,1
36268,-100,4,2,6,90,0,1
36351,-100,4,2,1,90,0,1
36435,-100,4,2,13,90,0,1
36601,-100,4,2,14,90,0,1
36685,-100,4,2,4,90,0,1
36768,-100,4,2,9,90,0,1
36851,-100,4,2,15,90,0,1
37101,-100,4,2,13,90,0,1
37268,-100,4,2,15,90,0,1
37435,-100,4,2,12,90,0,1
37601,-100,4,2,1,90,0,1
37768,-100,4,2,13,90,0,1
37935,-100,4,2,4,90,0,1
38101,-100,4,2,9,90,0,1
38185,-100,4,2,1,90,0,1
38435,-100,4,2,13,90,0,1
38601,-100,4,2,4,90,0,1
38768,-100,4,2,9,90,0,1
38935,-100,4,2,1,90,0,1
39101,-100,4,2,13,90,0,1
39268,-100,4,2,4,90,0,1
39435,-100,4,2,9,90,0,1
39518,-100,4,2,1,90,0,1
39768,-100,4,2,13,90,0,1
39935,-100,4,2,4,90,0,1
40101,-100,4,2,9,90,0,1
40268,-100,4,2,1,90,0,1
40435,-100,4,2,13,90,0,1
40601,-100,4,2,4,90,0,1
40768,-100,4,2,9,90,0,1
40851,-100,4,2,1,90,0,1
41101,-100,4,2,13,90,0,1
41268,-100,4,2,4,90,0,1
41435,-100,4,2,9,90,0,1
41601,-100,4,2,1,90,0,1
41768,-100,4,2,13,90,0,1
41935,-100,4,2,4,90,0,1
42101,-100,4,2,9,90,0,1
42185,-100,4,2,1,90,0,1
42435,-100,4,2,2,90,0,1
42768,-100,4,2,7,80,0,0
42935,-100,4,2,6,80,0,0
45351,-100,4,2,1,80,0,0
45435,-100,4,2,6,80,0,0
46935,-100,4,2,5,80,0,0
47018,-100,4,2,1,80,0,0
47101,-100,4,2,5,80,0,0
47351,-100,4,2,1,80,0,0
47435,-100,4,2,3,80,0,0
48268,-100,4,2,6,80,0,0
50685,-100,4,2,1,80,0,0
50768,-100,4,2,6,80,0,0
52101,-100,4,2,3,80,0,0
52268,-100,4,2,1,80,0,0
52351,-100,4,2,3,80,0,0
52601,-100,4,2,1,80,0,0
52768,-100,4,2,3,80,0,0
52935,-100,4,2,1,80,0,0
53101,-100,4,2,2,80,0,0
53268,-100,4,2,1,80,0,0
53435,-100,4,2,16,85,0,0
53601,-100,4,2,1,85,0,0
53768,-100,4,2,9,85,0,0
53935,-100,4,2,1,85,0,0
54101,-100,4,2,9,85,0,0
54268,-100,4,2,1,85,0,0
54435,-100,4,2,9,85,0,0
54601,-100,4,2,1,85,0,0
54768,-100,4,2,9,85,0,0
54935,-100,4,2,1,85,0,0
55101,-100,4,2,9,85,0,0
55268,-100,4,2,1,85,0,0
55435,-100,4,2,9,85,0,0
55601,-100,4,2,1,85,0,0
55768,-100,4,2,9,85,0,0
55935,-100,4,2,1,85,0,0
56101,-100,4,2,9,85,0,0
56268,-100,4,2,1,85,0,0
56435,-100,4,2,9,85,0,0
56601,-100,4,2,1,85,0,0
56768,-100,4,2,9,85,0,0
56935,-100,4,2,1,85,0,0
57101,-100,4,2,9,85,0,0
57268,-100,4,2,1,85,0,0
57435,-100,4,2,9,85,0,0
57601,-100,4,2,5,85,0,0
57685,-100,4,2,1,85,0,0
57768,-100,4,2,9,85,0,0
57935,-100,4,2,5,85,0,0
58018,-100,4,2,1,85,0,0
58101,-100,4,2,9,85,0,0
58768,-100,4,2,16,85,0,0
58935,-100,4,2,1,85,0,0
59101,-100,4,2,9,85,0,0
59268,-100,4,2,1,85,0,0
59435,-100,4,2,9,85,0,0
59601,-100,4,2,1,85,0,0
59768,-100,4,2,9,85,0,0
59935,-100,4,2,1,85,0,0
60101,-100,4,2,9,85,0,0
60268,-100,4,2,1,85,0,0
60435,-100,4,2,9,85,0,0
60601,-100,4,2,1,85,0,0
60768,-100,4,2,9,85,0,0
60935,-100,4,2,1,85,0,0
61101,-100,4,2,9,85,0,0
61268,-100,4,2,1,85,0,0
61435,-100,4,2,9,85,0,0
61601,-100,4,2,1,85,0,0
61768,-100,4,2,9,85,0,0
61935,-100,4,2,1,85,0,0
62101,-100,4,2,9,85,0,0
62268,-100,4,2,1,85,0,0
62435,-100,4,2,9,85,0,0
62601,-100,4,2,1,85,0,0
62768,-100,4,2,9,85,0,0
62935,-100,4,2,11,85,0,0
63018,-100,4,2,12,85,0,0
63268,-100,4,2,11,85,0,0
63435,-100,4,2,12,85,0,0
63768,-100,4,2,2,85,0,0
63935,-100,4,2,1,85,0,0
64101,-100,4,2,9,85,0,0
64268,-100,4,2,1,85,0,0
64435,-100,4,2,9,85,0,0
64601,-100,4,2,1,85,0,0
64768,-100,4,2,9,85,0,0
64935,-100,4,2,1,85,0,0
65101,-100,4,2,9,85,0,0
65268,-100,4,2,1,85,0,0
65435,-100,4,2,9,85,0,0
65601,-100,4,2,1,85,0,0
65768,-100,4,2,9,85,0,0
65935,-100,4,2,1,85,0,0
66101,-100,4,2,9,85,0,0
66268,-100,4,2,1,85,0,0
66435,-100,4,2,9,85,0,0
66601,-100,4,2,1,85,0,0
66768,-100,4,2,9,85,0,0
66935,-100,4,2,1,85,0,0
67101,-100,4,2,9,85,0,0
67268,-100,4,2,1,85,0,0
67435,-100,4,2,9,85,0,0
67601,-100,4,2,1,85,0,0
67768,-100,4,2,9,85,0,0
67935,-100,4,2,1,85,0,0
68101,-100,4,2,9,85,0,0
68268,-100,4,2,5,85,0,0
68351,-100,4,2,1,85,0,0
68435,-100,4,2,9,85,0,0
68601,-100,4,2,5,85,0,0
68685,-100,4,2,1,85,0,0
68768,-100,4,2,10,85,0,0
69601,-100,4,2,1,85,0,0
69768,-100,4,2,9,85,0,0
69935,-100,4,2,1,85,0,0
70101,-100,4,2,9,85,0,0
70268,-100,4,2,1,85,0,0
70435,-100,4,2,9,85,0,0
70601,-100,4,2,1,85,0,0
70768,-100,4,2,9,85,0,0
70935,-100,4,2,1,85,0,0
71101,-100,4,2,9,85,0,0
71268,-100,4,2,1,85,0,0
71435,-100,4,2,9,85,0,0
71601,-100,4,2,1,85,0,0
71768,-100,4,2,9,85,0,0
71935,-100,4,2,1,85,0,0
72101,-100,4,2,9,85,0,0
72268,-100,4,2,1,85,0,0
72435,-100,4,2,9,85,0,0
72601,-100,4,2,1,85,0,0
72768,-100,4,2,9,85,0,0
72935,-100,4,2,1,85,0,0
73101,-100,4,2,9,85,0,0
73268,-100,4,2,1,85,0,0
73435,-100,4,2,9,85,0,0
73601,-100,4,2,11,85,0,0
73685,-100,4,2,9,85,0,0
73935,-100,4,2,11,85,0,0
74101,-100,4,2,9,85,0,0
74435,-100,4,2,2,85,0,0
74601,-100,4,2,1,85,0,0
74768,-100,4,2,12,90,0,1
74935,-100,4,2,1,90,0,1
75101,-100,4,2,13,90,0,1
75268,-100,4,2,4,90,0,1
75435,-100,4,2,9,90,0,1
75518,-100,4,2,1,90,0,1
75768,-100,4,2,13,90,0,1
75935,-100,4,2,4,90,0,1
76101,-100,4,2,9,90,0,1
76268,-100,4,2,1,90,0,1
76435,-100,4,2,13,90,0,1
76601,-100,4,2,4,90,0,1
76768,-100,4,2,9,90,0,1
76851,-100,4,2,1,90,0,1
77101,-100,4,2,13,90,0,1
77268,-100,4,2,4,90,0,1
77435,-100,4,2,9,90,0,1
77601,-100,4,2,1,90,0,1
77768,-100,4,2,13,90,0,1
77935,-100,4,2,4,90,0,1
78101,-100,4,2,9,90,0,1
78185,-100,4,2,1,90,0,1
78435,-100,4,2,13,90,0,1
78601,-100,4,2,4,90,0,1
78768,-100,4,2,9,90,0,1
78935,-100,4,2,6,90,0,1
79018,-100,4,2,1,90,0,1
79101,-100,4,2,13,90,0,1
79268,-100,4,2,14,90,0,1
79351,-100,4,2,4,90,0,1
79435,-100,4,2,9,90,0,1
79518,-100,4,2,15,90,0,1
79768,-100,4,2,13,90,0,1
79935,-100,4,2,15,90,0,1
80101,-100,4,2,12,90,0,1
80268,-100,4,2,1,90,0,1
80435,-100,4,2,13,90,0,1
80601,-100,4,2,4,90,0,1
80768,-100,4,2,9,90,0,1
80851,-100,4,2,1,90,0,1
81101,-100,4,2,13,90,0,1
81268,-100,4,2,4,90,0,1
81435,-100,4,2,9,90,0,1
81601,-100,4,2,1,90,0,1
81768,-100,4,2,13,90,0,1
81935,-100,4,2,4,90,0,1
82101,-100,4,2,9,90,0,1
82185,-100,4,2,1,90,0,1
82435,-100,4,2,13,90,0,1
82601,-100,4,2,4,90,0,1
82768,-100,4,2,9,90,0,1
82935,-100,4,2,1,90,0,1
83101,-100,4,2,13,90,0,1
83268,-100,4,2,4,90,0,1
83435,-100,4,2,9,90,0,1
83518,-100,4,2,1,90,0,1
83768,-100,4,2,13,90,0,1
83935,-100,4,2,4,90,0,1
84101,-100,4,2,9,90,0,1
84268,-100,4,2,1,90,0,1
84435,-100,4,2,13,90,0,1
84601,-100,4,2,4,90,0,1
84768,-100,4,2,9,90,0,1
84851,-100,4,2,1,90,0,1
85101,-100,4,2,2,90,0,1
85268,-100,4,2,1,90,0,1
85435,-100,4,2,1,90,0,0
86601,-76.9230769230769,4,2,1,5,0,0

[Colours]
Combo1 : 254,171,171
Combo2 : 245,133,50
Combo3 : 255,232,136
Combo4 : 250,78,78

[HitObjects]
129,116,102,6,0,L|233:134,1,89.9999999999999,14|10,2:1|2:1,0:0:0:0:
301,99,768,2,0,B|344:146|344:146|305:225,1,135,10|2,2:1|2:2,0:0:0:0:
237,260,1601,1,2,2:2:0:0:
272,342,1935,2,0,L|424:317,1,135,2|8,2:2|2:1,0:0:0:0:
482,274,2768,2,0,P|498:234|485:184,1,89.9999999999999,10|10,2:1|2:1,0:0:0:0:
505,100,3435,2,0,L|396:119,1,89.9999999999999,10|10,2:1|2:1,0:0:0:0:
328,134,4101,1,10,2:1:0:0:
291,51,4435,1,10,2:1:0:0:
202,65,4768,2,0,B|194:79|194:79|208:160,1,89.9999999999999,10|10,2:1|2:1,0:0:0:0:
266,219,5435,6,0,L|247:323,1,89.9999999999999,14|10,2:1|2:1,0:0:0:0:
190,375,6101,1,10,2:1:0:0:
100,363,6435,1,10,2:1:0:0:
67,279,6768,2,0,B|32:188|92:191|57:93,1,180,8|8,2:1|2:1,0:0:0:0:
112,29,7768,1,8,2:1:0:0:
192,69,8101,2,0,L|179:173,1,89.9999999999999,14|10,2:1|2:1,0:0:0:0:
265,190,8768,2,0,L|278:86,1,89.9999999999999,14|10,2:1|2:1,0:0:0:0:
341,38,9435,1,14,2:1:0:0:
396,108,9768,1,10,2:1:0:0:
484,92,10101,2,0,L|471:196,1,89.9999999999999,10|10,2:1|2:2,0:0:0:0:
505,265,10768,5,14,2:1:0:0:
447,334,11101,1,10,2:2:0:0:
366,292,11435,2,0,P|318:288|281:318,1,89.9999999999999,10|10,2:1|2:2,0:0:0:0:
210,360,12101,2,0,B|188:297|188:297|213:244|213:244|191:182,1,180,8|8,2:1|2:1,0:0:0:0:
233,111,13101,1,8,2:2:0:0:
174,41,13435,2,0,P|127:35|74:25,1,89.9999999999999,10|10,2:1|2:2,0:0:0:0:
51,110,14101,2,0,P|98:116|151:126,1,89.9999999999999,10|10,2:1|2:2,0:0:0:0:
194,192,14768,1,14,2:1:0:0:
147,269,15101,1,14,2:2:0:0:
201,340,15435,2,0,P|253:337|299:306,1,89.9999999999999,14|8,2:1|2:2,0:0:0:0:
367,355,16101,5,14,2:1:0:0:
454,376,16435,1,10,2:2:0:0:
489,293,16768,2,0,L|469:193,1,89.9999999999999,10|10,2:1|2:2,0:0:0:0:
492,116,17435,2,0,B|400:94|408:160|310:137,1,180,8|8,2:1|2:1,0:0:0:0:
244,87,18435,1,8,2:2:0:0:
178,148,18768,2,0,L|201:253,1,89.9999999999999,10|10,2:1|2:2,0:0:0:0:
118,279,19435,2,0,L|95:174,1,89.9999999999999,10|10,2:1|2:2,0:0:0:0:
35,126,20101,1,10,2:1:0:0:
62,40,20435,1,2,2:2:0:0:
150,57,20768,2,0,B|164:66|164:66|254:77,1,89.9999999999999,2|10,2:2|2:2,0:0:0:0:
318,37,21435,6,0,P|367:107|334:187,1,180,14|10,2:2|2:2,0:0:0:0:
247,210,22435,1,10,2:2:0:0:
164,173,22768,2,0,P|131:252|180:323,1,180,10|10,2:2|2:2,0:0:0:0:
255,373,23768,1,10,2:2:0:0:
321,312,24101,2,0,B|417:333|403:277|510:302,1,180,10|10,2:2|2:2,0:0:0:0:
467,214,25101,1,10,2:2:0:0:
498,129,25435,2,0,P|486:72|478:33,1,89.9999999999999,10|10,2:2|2:2,0:0:0:0:
389,37,26101,2,0,P|401:94|409:133,1,89.9999999999999,10|10,2:2|2:2,0:0:0:0:
354,198,26768,6,0,B|306:188|306:188|279:142|279:142|188:124,1,180,14|10,2:2|2:2,0:0:0:0:
153,51,27768,1,10,2:2:0:0:
75,97,28101,2,0,B|101:189|39:174|72:288,1,180,10|10,2:2|2:2,0:0:0:0:
73,363,29101,1,10,2:2:0:0:
162,349,29435,2,0,P|255:339|252:259,1,180,10|10,2:2|2:2,0:0:0:0:
196,202,30435,1,10,2:2:0:0:
260,138,30768,2,0,L|355:157,1,89.9999999999999,10|10,2:2|2:2,0:0:0:0:
433,184,31435,2,0,P|451:124|432:86,1,89.9999999999999,10|8,2:2|2:2,0:0:0:0:
410,16,32101,6,0,B|371:39|371:39|317:33,1,89.9999999999999,14|10,2:2|2:2,0:0:0:0:
237,20,32768,1,10,2:2:0:0:
169,79,33101,1,10,2:2:0:0:
79,68,33435,2,0,B|94:127|94:127|69:168|69:168|90:245,1,180,10|10,2:2|2:2,0:0:0:0:
67,324,34435,1,10,2:2:0:0:
143,371,34768,2,0,P|195:370|234:338,1,89.9999999999999,10|10,2:2|2:2,0:0:0:0:
289,286,35435,1,10,2:2:0:0:
232,216,35768,1,10,2:2:0:0:
283,142,36101,2,0,P|273:85|263:51,1,89.9999999999999,10|10,2:2|2:2,0:0:0:0:
347,20,36768,2,0,P|356:76|367:111,1,89.9999999999999,10|10,2:2|2:2,0:0:0:0:
448,143,37435,6,0,P|465:183|425:224,1,89.9999999999999,14|10,2:2|2:2,0:0:0:0:
384,288,38101,1,10,2:2:0:0:
324,220,38435,1,10,2:2:0:0:
244,262,38768,2,0,B|147:245|187:310|54:288,1,180,10|10,2:2|2:2,0:0:0:0:
0,234,39768,1,10,2:2:0:0:
27,148,40101,2,0,B|66:171|66:171|122:160,1,89.9999999999999,10|10,2:2|2:2,0:0:0:0:
199,175,40768,2,0,L|175:74,1,89.9999999999999,10|10,2:2|2:2,0:0:0:0:
243,25,41435,1,10,2:2:0:0:
331,40,41768,1,10,2:2:0:0:
419,55,42101,2,0,P|443:109|432:149,1,89.9999999999999,10|10,2:2|2:2,0:0:0:0:
444,227,42768,6,0,B|357:208|357:208|308:240,1,135,14|2,2:1|2:2,0:0:0:0:
301,321,43601,1,2,2:2:0:0:
216,352,43935,2,0,B|171:346|171:346|113:376,1,89.9999999999999,2|2,2:2|2:2,0:0:0:0:
48,330,44601,2,0,L|68:238,1,89.9999999999999,2|2,2:2|2:2,0:0:0:0:
14,168,45268,1,2,2:2:0:0:
47,84,45601,1,2,2:2:0:0:
125,129,45935,2,0,B|217:108|217:108|263:129,1,135,2|8,2:2|2:1,0:0:0:0:
331,170,46768,2,0,L|303:271,2,89.9999999999999,8|8|10,2:1|2:1|2:1,0:0:0:0:
330,79,47768,1,10,2:1:0:0:
403,27,48101,6,0,P|458:56|460:125,1,135,14|2,2:1|2:2,0:0:0:0:
510,198,48935,1,2,2:2:0:0:
428,235,49268,2,0,B|426:251|426:251|447:337,1,89.9999999999999,2|2,2:2|2:2,0:0:0:0:
374,380,49935,2,0,L|277:360,1,89.9999999999999,2|2,2:2|2:2,0:0:0:0:
213,308,50601,1,2,2:2:0:0:
130,343,50935,1,2,2:2:0:0:
70,275,51268,2,0,B|46:206|94:209|59:126,1,135,2|8,2:2|2:1,0:0:0:0:
61,52,52101,1,10,2:1:0:0:
146,81,52435,1,10,2:1:0:0:
218,28,52768,2,0,L|326:47,1,89.9999999999999,10|8,2:1|2:2,0:0:0:0:
396,31,53435,6,0,P|411:87|316:147,1,180,14|10,2:2|2:2,0:0:0:0:
234,164,54435,1,10,2:2:0:0:
171,228,54768,2,0,P|180:272|186:320,1,89.9999999999999,8|8,2:2|2:2,0:0:0:0:
257,370,55435,2,0,B|293:342|293:342|342:349,1,89.9999999999999,8|8,2:2|2:2,0:0:0:0:
422,376,56101,2,0,B|488:338|488:338|452:289|447:226,1,180,10|10,2:2|2:2,0:0:0:0:
495,165,57101,1,10,2:2:0:0:
427,105,57435,2,0,P|383:103|340:134,1,89.9999999999999,10|10,2:2|2:2,0:0:0:0:
297,202,58101,1,10,2:2:0:0:
215,163,58435,1,8,2:2:0:0:
174,243,58768,6,0,B|58:226|58:226|58:193|24:164,1,180,14|10,2:2|2:2,0:0:0:0:
2,85,59768,1,10,2:2:0:0:
66,22,60101,2,0,P|119:18|168:4,1,89.9999999999999,8|8,2:2|2:2,0:0:0:0:
237,44,60768,2,0,P|241:97|255:146,1,89.9999999999999,8|8,2:2|2:2,0:0:0:0:
313,196,61435,2,0,P|323:253|219:320,1,180,10|10,2:2|2:2,0:0:0:0:
147,309,62435,1,10,2:2:0:0:
67,351,62768,2,0,P|60:296|49:255,1,89.9999999999999,10|10,2:2|2:2,0:0:0:0:
121,205,63435,2,0,P|167:223|225:217,1,89.9999999999999,10|10,2:2|2:2,0:0:0:0:
268,287,64101,6,0,B|329:273|329:273|378:304|378:304|444:288,1,180,14|8,2:2|2:2,0:0:0:0:
499,226,65101,1,8,2:2:0:0:
454,147,65435,2,0,P|480:75|399:20,1,180,8|8,2:2|2:2,0:0:0:0:
341,80,66435,1,8,2:2:0:0:
262,35,66768,2,0,B|172:20|191:83|84:64,1,180,8|8,2:2|2:2,0:0:0:0:
26,129,67768,1,8,2:2:0:0:
88,194,68101,2,0,L|105:286,1,89.9999999999999,8|8,2:2|2:2,0:0:0:0:
194,288,68768,2,0,L|177:196,1,89.9999999999999,10|10,2:2|2:2,0:0:0:0:
254,151,69435,6,0,B|322:212|322:212|414:178,1,180,14|8,2:2|2:2,0:0:0:0:
476,126,70435,1,8,2:2:0:0:
507,210,70768,2,0,P|527:294|453:336,1,180,8|8,2:2|2:2,0:0:0:0:
377,379,71768,1,8,2:2:0:0:
309,319,72101,2,0,B|248:335|248:335|201:313|201:313|136:331,1,180,8|8,2:2|2:2,0:0:0:0:
52,357,73101,1,8,2:2:0:0:
13,275,73435,2,0,L|30:186,1,89.9999999999999,10|10,2:2|2:2,0:0:0:0:
104,136,74101,2,0,P|135:163|196:153,1,89.9999999999999,10|8,2:2|2:2,0:0:0:0:
265,128,74768,6,0,L|242:29,1,89.9999999999999,14|10,2:2|2:2,0:0:0:0:
326,2,75435,1,10,2:2:0:0:
375,77,75768,1,10,2:2:0:0:
460,47,76101,2,0,P|495:101|419:174,1,180,10|10,2:2|2:2,0:0:0:0:
336,181,77101,1,10,2:2:0:0:
280,251,77435,2,0,L|190:238,1,89.9999999999999,10|10,2:2|2:2,0:0:0:0:
106,207,78101,1,10,2:2:0:0:
52,279,78435,1,10,2:2:0:0:
93,358,78768,2,0,P|141:343|189:340,1,89.9999999999999,10|10,2:2|2:2,0:0:0:0:
263,375,79435,2,0,P|311:360|359:357,1,89.9999999999999,10|10,2:2|2:2,0:0:0:0:
430,316,80101,6,0,B|416:272|416:272|445:219,1,89.9999999999999,14|10,2:2|2:2,0:0:0:0:
489,160,80768,1,10,2:2:0:0:
434,88,81101,1,10,2:2:0:0:
353,128,81435,2,0,B|262:109|278:168|172:138,1,180,10|10,2:2|2:2,0:0:0:0:
124,66,82435,1,10,2:2:0:0:
43,106,82768,2,0,P|57:156|66:212,1,89.9999999999999,10|10,2:2|2:2,0:0:0:0:
98,276,83435,2,0,B|139:253|139:253|198:263,1,89.9999999999999,10|10,2:2|2:2,0:0:0:0:
275,279,84101,1,10,2:2:0:0:
250,192,84435,1,10,2:2:0:0:
228,104,84768,2,0,P|274:76|321:82,1,89.9999999999999,10|10,2:2|2:2,0:0:0:0:
393,47,85435,6,0,B|477:68|499:159|450:229|450:229|416:192|363:203,1,315,14|0,2:1|0:0,0:0:0:0:
