osu file format v14

[General]
AudioFilename: audio.mp3
AudioLeadIn: 0
PreviewTime: 62443
Countdown: 0
SampleSet: Soft
StackLeniency: 0.5
Mode: 0
LetterboxInBreaks: 0
WidescreenStoryboard: 1

[Editor]
Bookmarks: 1243,20443,30043,39643,44443,54043,63643,82843,97243,102043
DistanceSpacing: 1.1
BeatDivisor: 8
GridSize: 16
TimelineZoom: 2

[Metadata]
Title:Aoharu
TitleUnicode:Aoharu
Artist:Nor
ArtistUnicode:Nor
Creator:Setu
Version:Miracles
Source:ブルーアーカイブ -Blue Archive-
Tags:electronic instrumental ブルアカ video game yostar nat games shiratamamywife buruaka buru aka net nexon soundtrack blueaka ost Reaching for the precious time
BeatmapID:4043384
BeatmapSetID:1949511

[Difficulty]
HPDrainRate:5
CircleSize:4
OverallDifficulty:8.5
ApproachRate:9.2
SliderMultiplier:3.2
SliderTickRate:1

[Events]
//Background and Video events
0,0,"bg.arona.jpg",0,0
//Break Periods
//Storyboard Layer 0 (Background)
//Storyboard Layer 1 (Fail)
//Storyboard Layer 2 (Pass)
//Storyboard Layer 3 (Foreground)
//Storyboard Layer 4 (Overlay)
//Storyboard Sound Samples

[TimingPoints]
-1147,600,4,2,1,60,1,0
53,-222.222222222221,4,2,2,30,0,0
1253,-222.222222222221,4,2,4,45,0,0
2453,-222.222222222221,4,2,2,45,0,0
18053,-222.222222222221,4,2,4,45,0,0
19253,-222.222222222221,4,2,2,45,0,0
20453,-100,4,2,4,60,0,0
20903,-100,4,2,1,60,0,0
30053,-100,4,2,4,70,0,0
30503,-100,4,2,1,70,0,0
39653,-166.666666666667,4,2,4,45,0,0
40853,-166.666666666667,4,2,1,45,0,0
44453,-133.333333333333,4,2,4,50,0,0
46853,-133.333333333333,4,2,2,50,0,0
54053,-100,4,2,4,60,0,0
56453,-100,4,2,2,60,0,0
62453,-100,4,2,4,60,0,0
63653,-83.3333333333333,4,2,4,80,0,0
64253,-83.3333333333333,4,2,1,80,0,0
103253,-222.222222222221,4,2,1,45,0,0

[Colours]
Combo1 : 243,146,163
Combo2 : 133,208,204
Combo3 : 253,209,148
Combo4 : 148,208,253
Combo5 : 137,242,137

[HitObjects]
123,92,53,6,0,P|74:82|1:78,2,108.000000000001,2|2|2,2:0|2:0|2:0,2:0:0:0:
210,150,1253,6,0,B|267:115|328:130|328:130|375:177|424:163,1,216.000000000001,14|0,1:2|2:0,2:0:0:0:
410,165,2453,2,0,P|414:109|430:45,2,108.000000000001,10|2|2,1:2|2:0|2:0,2:0:0:0:
480,221,3653,6,0,P|489:293|401:242,1,216.000000000001,2|0,1:2|2:0,2:0:0:0:
397,253,4853,2,0,P|357:244|279:239,2,108.000000000001,10|2|2,1:2|2:0|2:0,2:0:0:0:
244,299,6053,6,0,B|206:272|201:215|243:175|243:175|208:155|211:108,1,216.000000000001,2|0,1:2|2:0,2:0:0:0:
290,113,7253,2,0,P|325:121|400:130,2,108.000000000001,10|2|2,1:2|2:0|2:0,2:0:0:0:
250,48,8453,5,2,1:2:0:0:
174,219,8903,1,0,2:0:0:0:
70,64,9353,1,0,2:0:0:0:
138,104,9653,2,0,P|112:133|40:140,2,108.000000000001,10|2|2,1:2|2:0|2:0,2:0:0:0:
215,132,10853,5,2,1:2:0:0:
356,107,11303,1,0,2:0:0:0:
497,82,11753,1,0,2:0:0:0:
441,202,12053,2,0,P|398:193|334:188,2,108.000000000001,10|2|2,1:2|2:0|2:0,2:0:0:0:
431,123,13253,5,2,1:2:0:0:
293,258,13703,1,0,2:0:0:0:
128,150,14153,1,0,2:0:0:0:
228,102,14453,2,0,P|223:145|216:213,2,108.000000000001,10|2|2,1:2|2:0|2:0,2:0:0:0:
314,160,15653,5,2,1:2:0:0:
152,263,16103,1,0,2:0:0:0:
327,354,16553,1,0,2:0:0:0:
293,258,16853,5,10,1:2:0:0:
150,360,17303,1,2,2:0:0:0:
61,217,17753,1,2,2:0:0:0:
144,155,18053,2,0,P|150:211|152:264,2,108.000000000001,6|0|0,1:2|2:0|2:0,2:0:0:0:
186,66,19253,5,10,1:2:0:0:
466,152,19703,1,2,2:0:0:0:
466,152,19853,1,0,1:0:0:0:
341,270,20153,5,8,2:3:0:0:
341,270,20228,1,4,2:3:0:0:
341,270,20303,1,0,1:0:0:0:
341,270,20378,1,0,1:0:0:0:
341,270,20453,6,0,P|288:274|172:295,1,160,14|0,1:2|2:0,2:0:0:0:
27,248,20903,2,0,P|14:212|28:157,1,80,10|0,2:0|2:0,2:0:0:0:
120,118,21203,1,0,2:0:0:0:
113,229,21353,2,0,L|95:328,1,80,10|0,2:0|2:0,2:0:0:0:
27,248,21653,5,10,2:0:0:0:
198,214,21803,2,0,P|234:207|282:193,1,80,2|0,2:0|2:0,2:0:0:0:
438,255,22103,1,8,2:0:0:0:
367,160,22253,2,0,P|360:207|355:248,1,80,10|0,2:0|2:0,2:0:0:0:
470,122,22553,1,10,2:0:0:0:
470,122,22628,1,8,2:0:0:0:
470,122,22703,1,8,2:0:0:0:
470,122,22778,1,8,2:0:0:0:
470,122,22853,6,0,B|486:75|461:28|461:28|420:13|369:39,1,160,14|0,2:0|2:0,2:0:0:0:
252,113,23303,2,0,P|209:100|157:96,1,80,10|0,2:0|2:0,2:0:0:0:
299,19,23603,1,0,2:0:0:0:
360,110,23753,2,0,P|354:159|350:202,1,80,10|0,2:0|2:0,2:0:0:0:
302,259,24053,5,10,2:0:0:0:
504,206,24203,2,0,P|460:217|418:220,1,80,2|0,2:0|2:0,2:0:0:0:
252,113,24503,1,8,2:0:0:0:
345,358,24653,6,0,L|351:314,3,40,10|8|8|8,2:0|2:0|2:0|2:0,2:0:0:0:
302,259,24953,1,10,2:0:0:0:
275,244,25028,1,8,2:0:0:0:
246,240,25103,1,8,2:0:0:0:
217,247,25178,1,8,2:0:0:0:
192,264,25253,6,0,B|169:276|147:299|147:299|88:272|122:193,1,160,14|0,2:0|2:0,2:0:0:0:
179,65,25703,2,0,P|195:111|184:156,1,80,10|0,2:0|2:0,2:0:0:0:
95,115,26003,1,0,2:0:0:0:
278,90,26153,2,0,P|320:83|363:74,1,80,10|0,2:0|2:0,2:0:0:0:
482,177,26453,5,10,2:0:0:0:
439,37,26603,2,0,P|435:85|432:121,1,80,2|0,2:0|2:0,2:0:0:0:
320,182,26903,1,8,2:0:0:0:
423,287,27053,2,0,P|463:279|507:276,1,80,10|0,2:0|2:0,2:0:0:0:
303,264,27353,1,10,2:0:0:0:
303,264,27428,1,8,2:0:0:0:
303,264,27503,1,8,2:0:0:0:
303,264,27578,1,8,2:0:0:0:
303,264,27653,6,0,P|249:225|258:130,1,160,14|0,2:0|2:0,2:0:0:0:
330,18,28103,2,0,P|325:61|320:112,1,80,10|0,2:0|2:0,2:0:0:0:
320,182,28403,1,0,2:0:0:0:
187,103,28553,2,0,P|140:94|91:89,1,80,10|0,2:0|2:0,2:0:0:0:
234,34,28853,5,10,2:0:0:0:
157,178,29003,2,0,P|168:220|170:259,1,80,2|0,2:0|2:0,2:0:0:0:
108,90,29303,1,8,2:0:0:0:
260,166,29453,2,0,P|307:154|346:147,1,80,10|0,2:0|2:0,2:0:0:0:
369,10,29753,1,10,2:0:0:0:
369,10,29828,1,8,2:0:0:0:
369,10,29903,1,8,2:0:0:0:
369,10,29978,1,8,2:0:0:0:
369,10,30053,6,0,P|319:-3|293:88,1,160,14|0,1:2|2:0,2:0:0:0:
416,196,30503,2,0,P|421:161|432:111,1,80,10|0,2:0|2:0,2:0:0:0:
337,148,30803,1,0,2:0:0:0:
436,43,30953,2,0,P|472:42|489:97,1,80,10|0,2:0|2:0,2:0:0:0:
430,117,31253,5,8,2:0:0:0:
441,282,31403,2,0,P|400:272|354:263,1,80,10|0,2:0|2:0,2:0:0:0:
206,229,31703,1,8,2:0:0:0:
279,293,31853,2,0,P|285:249|301:205,1,80,10|0,2:0|2:0,2:0:0:0:
217,97,32153,1,10,2:0:0:0:
217,97,32228,1,8,2:0:0:0:
217,97,32303,1,8,2:0:0:0:
217,97,32378,1,8,2:0:0:0:
217,97,32453,6,0,P|163:92|100:174,1,160,14|0,2:0|2:0,2:0:0:0:
200,308,32903,2,0,P|244:296|281:292,1,80,10|0,2:0|2:0,2:0:0:0:
183,174,33203,1,0,2:0:0:0:
298,70,33353,2,0,P|289:122|287:166,1,80,10|0,2:0|2:0,2:0:0:0:
357,338,33653,5,8,2:0:0:0:
486,143,33803,2,0,P|446:137|400:125,1,80,10|0,2:0|2:0,2:0:0:0:
280,221,34103,1,8,2:0:0:0:
425,295,34253,2,0,L|475:288,3,40,10|8|8|8,2:0|2:0|2:0|2:0,2:0:0:0:
497,219,34553,1,10,2:0:0:0:
501,179,34628,1,8,2:0:0:0:
486,143,34703,1,8,2:0:0:0:
455,118,34778,1,8,2:0:0:0:
416,111,34853,6,0,P|384:128|324:130,1,80,14|0,1:2|2:0,2:0:0:0:
314,220,35153,2,0,P|283:200|251:149,1,80,8|0,2:0|2:0,2:0:0:0:
168,188,35453,2,0,P|169:151|197:98,1,80,10|0,2:0|2:0,2:0:0:0:
140,44,35753,1,8,2:0:0:0:
340,132,36053,6,0,P|308:115|248:113,1,80,10|0,2:0|2:0,2:0:0:0:
238,23,36353,2,0,P|207:42|175:93,1,80,8|0,2:0|2:0,2:0:0:0:
92,55,36653,2,0,P|93:91|121:144,1,80,10|0,2:0|2:0,2:0:0:0:
64,199,36953,1,10,2:0:0:0:
202,65,37103,1,8,2:0:0:0:
202,65,37178,1,8,2:0:0:0:
202,65,37253,5,14,2:0:0:0:
325,197,37403,1,2,2:0:0:0:
150,238,37553,1,8,2:0:0:0:
302,96,37703,1,2,2:0:0:0:
254,280,37853,5,10,2:0:0:0:
113,129,38003,1,2,2:0:0:0:
341,199,38153,1,8,2:0:0:0:
141,246,38303,1,2,2:0:0:0:
200,48,38453,5,6,1:2:0:0:
210,57,38903,5,2,2:0:0:0:
200,87,39353,5,2,2:0:0:0:
77,244,39653,6,0,B|196:223|196:223|230:187|230:187|365:165,1,287.999999999999,14|0,1:2|2:0,2:0:0:0:
377,30,40853,2,0,P|339:23|289:108,2,144,2|2|2,1:2|2:0|2:0,2:0:0:0:
440,79,42053,5,14,1:2:0:0:
256,192,42128,12,0,44303,2:0:0:0:
484,260,44453,6,0,P|476:272|468:303,1,30.0000000000001,14|0,2:0|2:0,2:0:0:0:
393,206,44903,2,0,P|399:218|422:241,1,30.0000000000001,8|0,2:0|2:0,2:0:0:0:
307,274,45203,2,0,P|321:274|352:266,1,30.0000000000001,8|0,2:0|2:0,2:0:0:0:
28,260,45653,6,0,P|15:301|21:256,1,120,10|0,2:0|2:0,2:0:0:0:
119,206,46103,2,0,P|112:218|89:241,1,30.0000000000001,8|0,2:0|2:0,2:0:0:0:
205,274,46403,2,0,P|190:274|159:266,1,30.0000000000001,8|0,2:0|2:0,2:0:0:0:
28,260,46703,2,0,P|36:272|44:303,1,30.0000000000001,8|0,2:0|2:0,2:0:0:0:
28,152,46853,6,0,P|36:140|44:109,1,30.0000000000001,6|0,2:0|2:0,2:0:0:0:
119,206,47303,2,0,P|112:193|89:170,1,30.0000000000001,8|0,2:0|2:0,2:0:0:0:
205,138,47603,2,0,P|190:137|159:145,1,30.0000000000001,8|0,2:0|2:0,2:0:0:0:
507,127,48053,6,0,P|502:83|484:124,1,120,10|0,2:0|2:0,2:0:0:0:
393,178,48503,2,0,P|399:165|422:142,1,30.0000000000001,8|0,2:0|2:0,2:0:0:0:
307,110,48803,2,0,P|321:109|352:117,1,30.0000000000001,8|0,2:0|2:0,2:0:0:0:
369,18,48953,2,0,P|376:30|384:61,1,30.0000000000001,8|0,2:0|2:0,2:0:0:0:
395,259,49253,6,0,L|341:247,1,30.0000000000001,6|0,2:0|2:0,2:0:0:0:
302,125,49703,2,0,L|248:137,1,30.0000000000001,8|0,2:0|2:0,2:0:0:0:
289,135,50003,2,0,L|235:147,1,30.0000000000001,8|0,2:0|2:0,2:0:0:0:
186,257,50453,6,0,L|132:245,1,30.0000000000001,10|0,2:0|2:0,2:0:0:0:
117,153,50903,2,0,L|63:165,1,30.0000000000001,8|0,2:0|2:0,2:0:0:0:
104,163,51203,2,0,L|50:175,1,30.0000000000001,8|0,2:0|2:0,2:0:0:0:
0,185,51503,1,8,2:0:0:0:
71,280,51653,6,0,L|75:235,1,30.0000000000001,6|0,2:0|2:0,2:0:0:0:
222,33,52103,2,0,L|226:78,1,30.0000000000001,8|0,2:0|2:0,2:0:0:0:
239,44,52403,2,0,L|243:89,1,30.0000000000001,8|0,2:0|2:0,2:0:0:0:
461,192,52853,6,0,P|484:162|448:186,1,120,6|0,2:0|2:0,2:0:0:0:
404,249,53303,2,0,P|428:266|478:270,1,60.0000000000002,10|0,2:0|2:0,2:0:0:0:
461,192,53603,1,8,2:0:0:0:
322,236,53753,1,10,2:0:0:0:
157,357,54053,6,0,P|129:337|65:325,1,80,6|0,1:2|2:0,2:0:0:0:
69,237,54353,2,0,P|37:251|-4:300,1,80,8|0,2:0|2:0,2:0:0:0:
85,324,54653,1,10,2:0:0:0:
151,201,54803,1,0,2:0:0:0:
55,126,54953,2,0,P|61:81|70:32,1,80,8|0,2:0|2:0,2:0:0:0:
159,103,55253,6,0,P|245:87|335:76,1,160,10|8,2:0|2:0,2:0:0:0:
436,112,55703,2,0,P|398:114|369:160,1,80,0|10,2:0|2:0,2:0:0:0:
298,160,56003,1,0,2:0:0:0:
437,190,56153,1,8,2:0:0:0:
383,44,56303,1,0,2:0:0:0:
359,224,56453,6,0,P|364:265|372:314,1,80,6|0,1:2|2:0,2:0:0:0:
223,312,56753,2,0,P|261:310|290:264,1,80,8|0,2:0|2:0,2:0:0:0:
148,138,57053,1,10,2:0:0:0:
100,206,57203,1,0,2:0:0:0:
220,180,57353,2,0,P|264:169|303:158,1,80,8|0,2:0|2:0,2:0:0:0:
402,130,57653,6,0,P|364:63|275:87,1,160,10|8,2:0|2:0,2:0:0:0:
380,217,58103,2,0,P|425:205|463:199,1,80,0|10,2:0|2:0,2:0:0:0:
480,56,58403,1,0,2:0:0:0:
307,154,58553,2,0,P|262:142|224:136,1,80,8|0,2:0|2:0,2:0:0:0:
52,78,58853,5,14,1:2:0:0:
52,78,59003,1,0,2:0:0:0:
162,229,59153,1,8,2:0:0:0:
162,229,59303,1,2,2:0:0:0:
162,43,59453,5,8,2:0:0:0:
52,193,59603,1,2,2:0:0:0:
229,136,59753,1,8,2:0:0:0:
52,78,59903,1,0,2:0:0:0:
229,136,60053,5,2,1:2:0:0:
229,136,60203,1,0,2:0:0:0:
92,325,60353,1,8,2:0:0:0:
92,325,60503,1,2,2:0:0:0:
92,92,60653,5,8,2:0:0:0:
229,280,60803,1,2,2:0:0:0:
8,208,60953,1,8,2:0:0:0:
229,136,61103,1,0,2:0:0:0:
145,253,61253,5,6,1:2:0:0:
18,64,61403,1,0,2:0:0:0:
235,16,61553,5,8,2:0:0:0:
8,208,61703,1,2,2:0:0:0:
102,84,61853,5,2,1:2:0:0:
139,71,61928,1,0,1:2:0:0:
178,77,62003,1,2,1:2:0:0:
210,100,62078,1,0,1:2:0:0:
228,135,62153,1,10,1:2:0:0:
258,159,62228,1,0,1:2:0:0:
296,167,62303,1,2,1:2:0:0:
334,157,62378,1,0,1:2:0:0:
364,131,62453,5,14,1:2:0:0:
147,158,63653,6,0,P|96:165|48:178,1,96.0000000000001,14|0,1:2|2:0,2:0:0:0:
198,287,63953,2,0,P|249:280|297:267,1,96.0000000000001,0|0,2:0|2:0,2:0:0:0:
298,88,64253,1,8,2:0:0:0:
226,200,64403,1,0,2:0:0:0:
361,323,64553,2,0,P|371:274|378:224,1,96.0000000000001,0|0,1:0|2:0,2:0:0:0:
397,48,64853,5,2,1:2:0:0:
311,188,65003,1,0,2:0:0:0:
486,163,65153,1,0,1:0:0:0:
486,163,65228,1,0,1:0:0:0:
486,163,65303,1,8,1:2:0:0:
298,88,65453,2,0,P|260:80|190:70,1,96.0000000000001,8|0,2:0|2:0,2:0:0:0:
35,151,65753,5,8,2:1:0:0:
56,160,65828,1,0,1:0:0:0:
80,162,65903,1,0,1:0:0:0:
103,156,65978,1,0,1:0:0:0:
124,142,66053,6,0,P|111:217|108:334,1,192,2|0,1:2|2:0,2:0:0:0:
25,235,66503,1,0,2:0:0:0:
205,291,66653,2,0,P|252:280|301:272,1,96.0000000000001,8|0,2:0|2:0,2:0:0:0:
218,160,66953,2,0,P|171:149|123:141,1,96.0000000000001,0|0,1:0|2:0,2:0:0:0:
294,28,67253,5,2,1:2:0:0:
368,183,67403,1,0,2:0:0:0:
494,69,67553,1,0,1:0:0:0:
494,69,67628,1,0,1:0:0:0:
494,69,67703,1,8,1:2:0:0:
311,128,67853,2,0,P|290:173|307:233,1,96.0000000000001,8|0,2:0|2:0,2:0:0:0:
405,360,68153,5,8,2:1:0:0:
418,340,68228,1,0,1:0:0:0:
425,317,68303,1,0,1:0:0:0:
425,293,68378,1,0,1:0:0:0:
418,268,68453,6,0,P|321:287|224:307,1,192,2|0,1:2|2:0,2:0:0:0:
53,259,68903,1,0,2:0:0:0:
127,346,69053,2,0,P|135:297|145:240,1,96.0000000000001,8|0,2:0|2:0,2:0:0:0:
88,75,69353,2,0,P|80:124|70:181,1,96.0000000000001,0|0,1:0|2:0,2:0:0:0:
241,212,69653,6,0,B|341:175|345:249|439:202,1,192,2|0,1:2|1:0,2:0:0:0:
427,207,70028,1,0,1:0:0:0:
427,207,70103,1,8,1:2:0:0:
505,90,70253,2,0,P|451:82|393:75,1,96.0000000000001,8|0,2:0|2:0,2:0:0:0:
234,44,70553,5,8,2:1:0:0:
268,35,70628,1,0,1:0:0:0:
301,47,70703,1,0,1:0:0:0:
321,76,70778,1,0,1:0:0:0:
321,112,70853,6,0,P|307:219|303:308,1,192,2|0,1:2|2:0,2:0:0:0:
224,182,71303,1,0,2:0:0:0:
389,262,71453,2,0,P|438:249|496:247,1,96.0000000000001,8|0,2:0|2:0,2:0:0:0:
237,358,71753,2,0,P|194:360|149:307,1,96.0000000000001,0|0,1:0|2:0,2:0:0:0:
310,205,72053,5,2,1:2:0:0:
145,160,72203,1,0,2:0:0:0:
338,105,72353,1,0,1:0:0:0:
338,105,72428,1,0,1:0:0:0:
338,105,72503,1,8,1:2:0:0:
227,236,72653,2,0,P|224:166|225:115,1,96.0000000000001,8|0,2:0|2:0,2:0:0:0:
347,27,72953,5,8,2:1:0:0:
380,37,73028,1,0,1:0:0:0:
405,63,73103,1,0,1:0:0:0:
416,97,73178,1,0,1:0:0:0:
409,132,73253,6,0,P|399:200|390:334,1,192,14|0,1:2|2:0,2:0:0:0:
487,255,73703,1,0,2:0:0:0:
310,205,73853,2,0,P|263:192|201:185,1,96.0000000000001,8|0,2:0|2:0,2:0:0:0:
421,60,74153,2,0,P|453:68|485:130,1,96.0000000000001,0|0,1:0|2:0,2:0:0:0:
393,275,74453,6,0,P|316:284|205:315,1,192,2|0,1:2|1:0,2:0:0:0:
205,314,74828,1,0,1:0:0:0:
205,314,74903,1,8,1:2:0:0:
72,200,75053,2,0,P|123:204|149:257,1,96.0000000000001,8|0,2:0|2:0,2:0:0:0:
289,142,75353,5,8,2:1:0:0:
291,130,75428,1,0,1:0:0:0:
293,118,75503,1,0,1:0:0:0:
295,106,75578,1,0,1:0:0:0:
300,92,75653,6,0,B|407:66|395:149|501:113,1,192,2|0,1:2|2:0,2:0:0:0:
353,191,76103,1,0,2:0:0:0:
499,346,76253,1,8,2:0:0:0:
438,216,76403,1,0,2:0:0:0:
307,294,76553,1,0,1:0:0:0:
307,294,76853,6,0,P|257:284|198:275,1,96.0000000000001,2|0,1:2|2:0,2:0:0:0:
38,248,77153,1,0,1:0:0:0:
38,248,77228,1,0,1:0:0:0:
38,248,77303,1,8,1:2:0:0:
184,176,77453,1,8,2:0:0:0:
111,313,77603,1,0,2:0:0:0:
146,104,77753,5,8,2:1:0:0:
180,94,77828,1,0,1:0:0:0:
215,100,77903,1,0,1:0:0:0:
244,121,77978,1,0,1:0:0:0:
261,152,78053,6,0,P|317:142|461:131,1,192,2|0,1:2|2:0,2:0:0:0:
343,51,78503,1,0,2:0:0:0:
181,175,78653,2,0,P|193:224|200:276,1,96.0000000000001,8|0,2:0|2:0,2:0:0:0:
390,353,78953,2,0,P|402:304|409:252,1,96.0000000000001,0|0,1:0|2:0,2:0:0:0:
294,302,79253,5,2,1:2:0:0:
512,231,79403,1,0,2:0:0:0:
375,179,79553,1,0,1:0:0:0:
375,179,79628,1,0,1:0:0:0:
375,179,79703,1,8,1:2:0:0:
436,334,79853,5,8,2:0:0:0:
464,146,80003,1,0,2:0:0:0:
293,219,80153,1,8,2:1:0:0:
293,219,80228,1,0,1:0:0:0:
293,219,80303,1,0,1:0:0:0:
293,219,80378,1,0,1:0:0:0:
293,219,80453,6,0,P|194:205|90:202,1,192,6|0,1:2|2:0,2:0:0:0:
12,83,80903,2,0,P|6:58|22:40,1,48,8|0,2:1|2:0,2:0:0:0:
96,32,81053,2,0,P|91:70|79:132,1,96.0000000000001,0|0,1:0|2:0,2:0:0:0:
166,379,81353,2,0,P|171:341|183:279,1,96.0000000000001,8|0,2:1|2:0,2:0:0:0:
273,104,81653,5,0,1:0:0:0:
273,104,81728,1,0,1:0:0:0:
273,104,81803,1,8,2:1:0:0:
444,101,81953,1,0,1:0:0:0:
360,166,82103,1,2,2:0:0:0:
410,1,82253,5,8,2:1:0:0:
273,104,82403,1,2,2:0:0:0:
446,187,82553,1,8,2:1:0:0:
452,210,82628,1,0,1:0:0:0:
454,233,82703,1,0,1:0:0:0:
453,257,82778,1,0,1:0:0:0:
447,281,82853,6,0,B|346:245|365:332|243:286,1,192,14|0,1:2|2:0,2:0:0:0:
81,202,83303,1,0,2:0:0:0:
320,123,83453,2,0,P|312:183|306:240,1,96.0000000000001,8|0,2:0|2:0,2:0:0:0:
178,323,83753,2,0,P|186:263|192:206,1,96.0000000000001,0|0,1:0|2:0,2:0:0:0:
159,40,84053,6,0,P|79:27|12:114,1,192,2|0,1:2|1:0,2:0:0:0:
12,104,84428,1,0,1:0:0:0:
13,104,84503,1,8,1:2:0:0:
189,227,84653,1,8,2:0:0:0:
103,112,84803,1,0,2:0:0:0:
246,20,84953,5,8,2:1:0:0:
244,36,85028,1,0,1:0:0:0:
243,53,85103,1,0,1:0:0:0:
241,70,85178,1,0,1:0:0:0:
239,87,85253,6,0,P|297:93|431:116,1,192,2|0,1:2|2:0,2:0:0:0:
505,76,85703,1,0,2:0:0:0:
367,195,85853,1,8,2:0:0:0:
404,11,86003,1,0,2:0:0:0:
490,190,86153,1,0,1:0:0:0:
490,190,86453,6,0,P|480:239|475:288,1,96.0000000000001,2|0,1:2|2:0,2:0:0:0:
428,115,86753,1,0,1:0:0:0:
428,115,86828,1,0,1:0:0:0:
428,115,86903,1,8,1:2:0:0:
344,271,87053,1,8,2:0:0:0:
490,190,87203,1,0,2:0:0:0:
410,31,87353,5,8,2:1:0:0:
375,40,87428,1,0,1:0:0:0:
350,65,87503,1,0,1:0:0:0:
338,99,87578,1,0,1:0:0:0:
344,134,87653,6,0,P|286:118|144:105,1,192,2|0,1:2|2:0,2:0:0:0:
19,181,88103,1,0,2:0:0:0:
128,239,88253,2,0,P|173:224|166:163,1,96.0000000000001,8|0,2:0|2:0,2:0:0:0:
133,33,88553,2,0,P|88:48|95:109,1,96.0000000000001,0|0,1:0|2:0,2:0:0:0:
239,133,88853,5,2,1:2:0:0:
388,47,89003,1,0,2:0:0:0:
476,231,89153,1,0,1:0:0:0:
476,231,89228,1,0,1:0:0:0:
476,231,89303,1,8,1:2:0:0:
330,106,89453,2,0,P|305:49|318:9,1,96.0000000000001,8|0,2:0|2:0,2:0:0:0:
306,185,89753,5,8,2:1:0:0:
321,203,89828,1,0,1:0:0:0:
329,225,89903,1,0,1:0:0:0:
330,249,89978,1,0,1:0:0:0:
321,274,90053,6,0,P|255:261|123:254,1,192,2|0,1:2|2:0,2:0:0:0:
33,210,90503,1,0,2:0:0:0:
121,91,90653,2,0,P|157:129|147:178,1,96.0000000000001,8|0,2:0|2:0,2:0:0:0:
84,374,90953,2,0,P|48:336|58:287,1,96.0000000000001,0|0,1:0|2:0,2:0:0:0:
235,188,91253,5,2,1:2:0:0:
137,316,91403,1,0,2:0:0:0:
78,157,91553,1,0,1:0:0:0:
78,157,91628,1,0,1:0:0:0:
78,157,91703,1,8,1:2:0:0:
246,305,91853,2,0,P|293:297|353:293,1,96.0000000000001,8|0,2:0|2:0,2:0:0:0:
512,128,92153,5,8,2:1:0:0:
478,114,92228,1,0,1:0:0:0:
443,119,92303,1,0,1:0:0:0:
415,141,92378,1,0,1:0:0:0:
401,174,92453,6,0,P|413:263|426:369,1,192,14|0,1:2|2:0,2:0:0:0:
495,273,92903,1,0,2:0:0:0:
314,201,93053,1,8,2:0:0:0:
512,128,93203,1,0,2:0:0:0:
341,293,93353,1,0,1:0:0:0:
341,293,93653,6,0,P|293:296|246:305,1,96.0000000000001,2|0,1:2|2:0,2:0:0:0:
43,362,93953,1,0,1:0:0:0:
43,362,94028,1,0,1:0:0:0:
43,362,94103,1,8,1:2:0:0:
146,281,94253,2,0,P|160:241|137:179,1,96.0000000000001,8|0,2:0|2:0,2:0:0:0:
12,20,94553,5,8,2:1:0:0:
2,42,94628,1,0,1:0:0:0:
0,65,94703,1,0,1:0:0:0:
4,89,94778,1,0,1:0:0:0:
16,110,94853,6,0,P|66:97|207:74,1,192,2|0,1:2|2:0,2:0:0:0:
260,155,95303,1,0,2:0:0:0:
84,237,95453,2,0,P|43:228|-10:221,1,96.0000000000001,8|0,2:0|2:0,2:0:0:0:
163,358,95753,2,0,P|219:365|262:332,1,96.0000000000001,0|0,1:0|2:0,2:0:0:0:
353,187,96053,5,2,1:2:0:0:
417,320,96203,1,0,2:0:0:0:
469,122,96353,1,0,1:0:0:0:
469,122,96428,1,0,1:0:0:0:
469,122,96503,1,8,1:2:0:0:
333,277,96653,2,0,P|298:272|232:260,1,96.0000000000001,8|0,2:0|2:0,2:0:0:0:
359,63,96953,5,8,2:1:0:0:
393,55,97028,1,0,1:0:0:0:
428,64,97103,1,0,1:0:0:0:
455,88,97178,1,0,1:0:0:0:
469,122,97253,6,0,P|469:178|474:232,1,96.0000000000001,2|0,1:2|2:0,2:0:0:0:
310,124,97553,2,0,P|278:75|292:28,1,96.0000000000001,8|0,1:0|2:0,2:0:0:0:
362,215,97853,6,0,P|318:206|257:201,1,96.0000000000001,8|0,2:0|2:0,2:0:0:0:
76,286,98153,2,0,P|44:335|58:382,1,96.0000000000001,8|0,1:0|2:0,2:0:0:0:
182,245,98453,6,0,P|190:193|199:139,1,96.0000000000001,10|0,1:2|2:0,2:0:0:0:
90,40,98753,1,0,1:0:0:0:
90,40,98828,1,0,1:0:0:0:
90,40,98903,1,8,1:2:0:0:
18,206,99053,2,0,P|55:196|113:189,1,96.0000000000001,8|0,2:0|2:0,2:0:0:0:
298,283,99353,1,8,2:1:0:0:
265,297,99428,1,0,1:0:0:0:
229,294,99503,1,0,1:0:0:0:
199,275,99578,1,0,1:0:0:0:
181,244,99653,5,14,1:2:0:0:
330,139,99803,1,8,2:0:0:0:
188,44,99953,1,8,1:0:0:0:
257,190,100103,1,8,2:0:0:0:
306,15,100253,5,8,1:0:0:0:
179,142,100403,1,8,2:0:0:0:
381,224,100553,1,8,1:0:0:0:
188,44,100703,1,8,2:0:0:0:
455,33,100853,5,10,1:0:0:0:
455,33,100928,1,0,1:0:0:0:
455,33,101003,1,0,1:0:0:0:
455,33,101078,1,0,1:0:0:0:
455,33,101153,2,0,L|443:98,1,48,0|0,1:0|2:0,2:0:0:0:
330,139,101303,5,8,1:3:0:0:
331,150,101378,1,8,2:3:0:0:
333,162,101453,1,8,2:3:0:0:
335,174,101528,1,8,2:3:0:0:
337,186,101603,2,0,L|349:251,1,48,8|0,2:3|2:0,2:0:0:0:
393,367,101753,5,10,1:2:0:0:
449,358,101828,5,2,2:0:0:0:
489,318,101903,5,2,2:0:0:0:
496,261,101978,5,2,2:0:0:0:
468,210,102053,5,14,2:0:0:0:
131,331,103253,6,0,P|79:339|19:353,2,108.000000000001,2|2|2,2:0|2:0|2:0,2:0:0:0:
203,355,104453,1,2,2:0:0:0:
