osu file format v14

[General]
AudioFilename: audio.mp3
AudioLeadIn: 0
PreviewTime:62443
Countdown: 0
SampleSet: Soft
StackLeniency: 0.5
Mode: 0
LetterboxInBreaks: 0
WidescreenStoryboard: 1

[Editor]
Bookmarks: 1243,20443,30043,39643,44443,54043,63643,82843,97243,102043
DistanceSpacing: 1.1
BeatDivisor: 8
GridSize: 16
TimelineZoom: 2

[Metadata]
Title:Aoharu
TitleUnicode:Aoharu
Artist:Nor
ArtistUnicode:Nor
Creator:Setu
Version:Insane
Source:ブルーアーカイブ -Blue Archive-
Tags:electronic instrumental ブルアカ video game yostar nat games shiratamamywife buruaka buru aka net nexon soundtrack blueaka ost Reaching for the precious time
BeatmapID:4046200
BeatmapSetID:1949511

[Difficulty]
HPDrainRate:5
CircleSize:3.8
OverallDifficulty:8
ApproachRate:9
SliderMultiplier:3
SliderTickRate:1

[Events]
//Background and Video events
0,0,"bg.hifumi.jpg",0,0
//Break Periods
2,44653,52253
//Storyboard Layer 0 (Background)
//Storyboard Layer 1 (Fail)
//Storyboard Layer 2 (Pass)
//Storyboard Layer 3 (Foreground)
//Storyboard Layer 4 (Overlay)
//Storyboard Sound Samples

[TimingPoints]
-1147,600,4,2,1,60,1,0
1253,-222.222222222221,4,2,4,45,0,0
2453,-222.222222222221,4,2,2,45,0,0
18053,-222.222222222221,4,2,4,45,0,0
19253,-222.222222222221,4,2,2,45,0,0
20453,-100,4,2,4,60,0,0
20903,-100,4,2,1,60,0,0
30053,-100,4,2,4,70,0,0
30503,-100,4,2,1,70,0,0
39653,-166.666666666667,4,2,4,45,0,0
40853,-166.666666666667,4,2,1,45,0,0
44453,-166.666666666667,4,2,4,50,0,0
52853,-133.333333333333,4,2,2,50,0,0
54053,-100,4,2,4,60,0,0
56453,-100,4,2,2,60,0,0
62453,-100,4,2,4,60,0,0
63653,-83.3333333333333,4,2,4,80,0,0
64253,-83.3333333333333,4,2,1,80,0,0

[Colours]
Combo1 : 243,146,163
Combo2 : 133,208,204
Combo3 : 253,209,148
Combo4 : 148,208,253
Combo5 : 137,242,137

[HitObjects]
36,45,1253,6,0,L|60:252,1,202.500000000001,14|0,1:2|2:0,2:0:0:0:
124,299,2453,2,0,P|157:260|125:216,2,101.250000000001,10|2|2,1:2|2:0|2:0,2:0:0:0:
136,220,3653,6,0,P|186:227|340:240,1,202.500000000001,2|0,1:2|2:0,2:0:0:0:
408,304,4853,2,0,P|410:262|424:204,2,101.250000000001,10|2|2,1:2|2:0|2:0,2:0:0:0:
423,204,6053,6,0,P|379:216|282:112,1,202.500000000001,2|0,1:2|2:0,2:0:0:0:
342,35,7253,2,0,P|312:37|236:24,2,101.250000000001,10|2|2,1:2|2:0|2:0,2:0:0:0:
409,83,8453,5,2,1:2:0:0:
281,116,8903,1,0,2:0:0:0:
370,204,9353,1,0,2:0:0:0:
305,300,9653,2,0,P|299:263|288:191,2,101.250000000001,10|2|2,1:2|2:0|2:0,2:0:0:0:
409,284,10853,6,0,P|397:207|288:201,1,202.500000000001,2|0,1:2|2:0,2:0:0:0:
206,323,12053,2,0,P|254:309|305:299,2,101.250000000001,10|2|2,1:2|2:0|2:0,2:0:0:0:
121,271,13253,6,0,B|76:233|19:248|19:248|-25:212|11:160,1,202.500000000001,2|0,1:2|2:0,2:0:0:0:
147,83,14453,2,0,P|154:135|159:199,2,101.250000000001,10|2|2,1:2|2:0|2:0,2:0:0:0:
55,157,15653,6,0,P|103:148|263:121,1,202.500000000001,2|0,1:2|2:0,2:0:0:0:
328,86,16853,2,0,P|312:45|252:51,2,101.250000000001,10|2|2,1:2|2:0|2:0,2:0:0:0:
254,122,18053,5,6,1:2:0:0:
420,178,18503,1,0,2:0:0:0:
465,29,18953,1,0,2:0:0:0:
351,112,19253,5,10,1:2:0:0:
459,260,19703,1,2,2:0:0:0:
459,260,19853,1,0,1:0:0:0:
346,333,20153,1,8,2:3:0:0:
346,333,20228,1,4,2:3:0:0:
346,333,20303,1,0,1:0:0:0:
346,333,20378,1,0,1:0:0:0:
346,333,20453,6,0,P|399:340|500:357,1,150,14|0,1:2|2:0,2:0:0:0:
485,186,20903,2,0,P|452:180|404:225,1,75,10|0,2:0|2:0,2:0:0:0:
274,248,21203,1,0,2:0:0:0:
274,248,21353,2,0,P|307:254|355:209,1,75,10|0,2:0|2:0,2:0:0:0:
359,125,21653,5,10,2:0:0:0:
293,169,21803,2,0,L|137:146,1,150,2|8,2:0|2:0,2:0:0:0:
69,193,22253,2,0,P|65:160|58:112,1,75,10|0,2:0|2:0,2:0:0:0:
168,48,22553,1,10,2:0:0:0:
144,147,22703,5,8,2:0:0:0:
144,147,22778,1,8,2:0:0:0:
144,147,22853,2,0,P|149:184|166:312,1,150,14|0,2:0|2:0,2:0:0:0:
25,309,23303,2,0,P|44:284|90:277,1,75,10|0,2:0|2:0,2:0:0:0:
228,338,23603,1,0,2:0:0:0:
228,338,23753,2,0,P|209:363|163:370,1,75,10|0,2:0|2:0,2:0:0:0:
146,234,24053,5,10,2:0:0:0:
223,254,24203,2,0,P|274:264|374:274,1,150,2|8,2:0|2:0,2:0:0:0:
470,220,24653,2,0,L|477:176,3,37.5,10|8|8|8,2:0|2:0|2:0|2:0,2:0:0:0:
449,148,24953,2,0,L|442:104,3,37.5,10|8|8|8,2:0|2:0|2:0|2:0,2:0:0:0:
479,84,25253,6,0,P|434:81|316:58,1,150,14|0,2:0|2:0,2:0:0:0:
247,172,25703,2,0,P|293:174|314:134,1,75,10|0,2:0|2:0,2:0:0:0:
244,22,26003,1,0,2:0:0:0:
244,22,26153,2,0,P|255:75|261:114,1,75,10|0,2:0|2:0,2:0:0:0:
177,214,26453,5,10,2:0:0:0:
250,258,26603,2,0,P|300:248|400:236,1,150,2|8,2:0|2:0,2:0:0:0:
462,186,27053,2,0,P|436:162|388:165,1,75,10|0,2:0|2:0,2:0:0:0:
338,273,27353,1,10,2:0:0:0:
479,357,27503,5,8,2:0:0:0:
479,357,27578,1,8,2:0:0:0:
479,357,27653,2,0,P|490:308|412:262,1,150,14|0,2:0|2:0,2:0:0:0:
321,354,28103,2,0,P|271:344|171:332,1,150,10|0,2:0|2:0,2:0:0:0:
54,231,28553,2,0,P|49:188|37:138,1,75,10|0,2:0|2:0,2:0:0:0:
127,179,28853,5,10,2:0:0:0:
8,293,29003,2,0,P|62:309|132:251,1,150,2|8,2:0|2:0,2:0:0:0:
190,110,29453,2,0,P|150:99|107:89,1,75,10|0,2:0|2:0,2:0:0:0:
42,157,29753,1,10,2:0:0:0:
215,202,29903,5,8,2:0:0:0:
215,202,29978,1,8,2:0:0:0:
215,202,30053,2,0,P|279:185|379:170,1,150,14|0,1:2|2:0,2:0:0:0:
398,31,30503,2,0,P|360:19|334:111,1,150,10|0,2:0|2:0,2:0:0:0:
432,226,30953,2,0,P|441:179|448:139,1,75,10|0,2:0|2:0,2:0:0:0:
361,171,31253,5,8,2:0:0:0:
487,322,31403,2,0,P|440:310|333:286,1,150,10|8,2:0|2:0,2:0:0:0:
230,367,31853,2,0,P|278:366|300:323,1,75,10|0,2:0|2:0,2:0:0:0:
286,174,32153,1,10,2:0:0:0:
286,174,32228,1,8,2:0:0:0:
286,174,32303,1,8,2:0:0:0:
286,174,32378,1,8,2:0:0:0:
286,174,32453,6,0,P|222:191|122:206,1,150,14|0,2:0|2:0,2:0:0:0:
103,345,32903,2,0,P|141:357|167:265,1,150,10|0,2:0|2:0,2:0:0:0:
69,150,33353,2,0,P|60:197|53:237,1,75,10|0,2:0|2:0,2:0:0:0:
140,205,33653,5,8,2:0:0:0:
14,54,33803,2,0,P|61:66|168:90,1,150,10|8,2:0|2:0,2:0:0:0:
259,147,34253,2,0,L|311:136,3,37.5,10|8|8|8,2:0|2:0|2:0|2:0,2:0:0:0:
325,115,34553,2,0,L|377:126,3,37.5,10|8|8|8,2:0|2:0|2:0|2:0,2:0:0:0:
390,155,34853,6,0,P|401:109|406:71,1,75,14|0,1:2|2:0,2:0:0:0:
465,170,35153,2,0,P|476:124|481:86,1,75,8|0,2:0|2:0,2:0:0:0:
365,261,35453,2,0,P|354:307|349:345,1,75,10|0,2:0|2:0,2:0:0:0:
290,246,35753,2,0,P|279:292|274:330,1,75,8|0,2:0|2:0,2:0:0:0:
215,122,36053,5,10,2:0:0:0:
215,122,36203,1,0,2:0:0:0:
204,268,36353,1,8,2:0:0:0:
204,268,36503,1,0,2:0:0:0:
298,157,36653,1,10,2:0:0:0:
157,189,36803,1,0,2:0:0:0:
290,246,36953,1,10,2:0:0:0:
434,117,37253,5,14,2:0:0:0:
386,43,37403,1,2,2:0:0:0:
299,67,37553,1,8,2:0:0:0:
298,157,37703,1,2,2:0:0:0:
427,285,37853,5,10,2:0:0:0:
380,359,38003,1,2,2:0:0:0:
292,334,38153,1,8,2:0:0:0:
290,246,38303,1,2,2:0:0:0:
376,204,38453,5,6,1:2:0:0:
394,215,38903,5,2,2:0:0:0:
434,190,39353,5,2,2:0:0:0:
298,157,39653,6,0,P|121:186|25:198,1,269.999999999999,14|0,1:2|2:0,2:0:0:0:
31,197,40853,2,0,P|39:155|60:61,2,135,2|2|2,1:2|2:0|2:0,2:0:0:0:
65,274,42053,1,14,1:2:0:0:
256,192,42128,8,14,44453,2:0:0:0:
36,92,52853,6,0,P|71:88|155:81,1,112.5,6|0,2:0|2:0,2:0:0:0:
147,81,53303,1,10,2:0:0:0:
222,123,53453,1,0,2:0:0:0:
219,43,53603,1,8,2:0:0:0:
154,164,53753,1,10,2:0:0:0:
364,292,54053,6,0,P|396:278|448:272,1,75,6|0,1:2|2:0,2:0:0:0:
454,187,54353,2,0,P|482:207|513:249,1,75,8|0,2:0|2:0,2:0:0:0:
435,271,54653,1,10,2:0:0:0:
435,271,54803,1,0,2:0:0:0:
385,133,54953,1,8,2:0:0:0:
175,323,55253,6,0,P|143:309|91:303,1,75,10|0,2:0|2:0,2:0:0:0:
85,218,55553,2,0,P|56:238|25:280,1,75,8|0,2:0|2:0,2:0:0:0:
104,302,55853,1,10,2:0:0:0:
104,302,56003,1,0,2:0:0:0:
154,171,56153,1,8,2:0:0:0:
154,171,56303,1,0,2:0:0:0:
211,236,56453,6,0,P|253:244|290:254,1,75,6|0,1:2|2:0,2:0:0:0:
343,143,56753,2,0,P|301:151|264:161,1,75,8|0,2:0|2:0,2:0:0:0:
122,67,57053,1,10,2:0:0:0:
122,67,57203,1,0,2:0:0:0:
238,27,57353,1,8,2:0:0:0:
412,198,57653,6,0,P|421:160|434:113,1,75,10|0,2:0|2:0,2:0:0:0:
356,2,57953,2,0,P|365:40|378:87,1,75,8|0,2:0|2:0,2:0:0:0:
503,183,58253,1,10,2:0:0:0:
503,183,58403,1,0,2:0:0:0:
343,143,58553,1,8,2:0:0:0:
5,159,58853,6,0,P|11:193|16:237,1,75,14|0,1:2|2:0,2:0:0:0:
90,226,59153,2,0,P|85:188|79:151,1,75,8|2,2:0|2:0,2:0:0:0:
90,305,59453,1,8,2:0:0:0:
165,330,59603,1,2,2:0:0:0:
211,266,59753,1,8,2:0:0:0:
165,202,59903,1,0,2:0:0:0:
292,171,60053,6,0,P|298:137|303:93,1,75,2|0,1:2|2:0,2:0:0:0:
377,104,60353,2,0,P|372:141|366:178,1,75,8|2,2:0|2:0,2:0:0:0:
377,25,60653,1,8,2:0:0:0:
452,0,60803,1,2,2:0:0:0:
498,64,60953,1,8,2:0:0:0:
452,128,61103,1,0,2:0:0:0:
482,269,61253,6,0,P|436:256|393:248,1,75,6|0,1:2|2:0,2:0:0:0:
365,178,61553,2,0,P|330:211|302:244,1,75,8|2,2:0|2:0,2:0:0:0:
256,329,61853,1,2,1:2:0:0:
249,325,61928,1,0,1:2:0:0:
242,323,62003,1,2,1:2:0:0:
235,321,62078,1,0,1:2:0:0:
228,319,62153,1,10,1:2:0:0:
221,317,62228,1,0,1:2:0:0:
214,315,62303,1,2,1:2:0:0:
207,313,62378,1,0,1:2:0:0:
200,312,62453,5,14,1:2:0:0:
3,115,63653,6,0,B|107:89|82:160|192:124,1,180,14|0,1:2|2:0,2:0:0:0:
247,89,64103,1,0,2:0:0:0:
290,220,64253,2,0,P|241:208|189:202,1,90,8|0,2:0|2:0,2:0:0:0:
181,42,64553,2,0,P|211:15|279:15,1,90,0|0,1:0|2:0,2:0:0:0:
393,148,64853,6,0,P|380:199|361:338,1,180,2|0,1:2|1:0,2:0:0:0:
361,324,65228,1,0,1:0:0:0:
361,324,65303,1,8,1:2:0:0:
505,330,65453,2,0,P|499:308|435:294,1,90,8|0,2:0|2:0,2:0:0:0:
290,220,65753,1,8,2:1:0:0:
290,220,65828,1,0,1:0:0:0:
290,220,65903,1,0,1:0:0:0:
363,77,66053,6,0,P|403:70|462:178,1,180,2|0,1:2|2:0,2:0:0:0:
373,237,66503,1,0,2:0:0:0:
207,195,66653,2,0,P|165:186|103:175,1,90,8|0,2:0|2:0,2:0:0:0:
274,94,66953,2,0,P|316:85|378:74,1,90,0|0,1:0|2:0,2:0:0:0:
177,34,67253,6,0,P|103:23|44:99,1,180,2|0,1:2|1:0,2:0:0:0:
43,99,67628,1,0,1:0:0:0:
43,99,67703,1,8,1:2:0:0:
147,172,67853,2,0,P|160:133|128:100,1,90,8|0,2:0|2:0,2:0:0:0:
45,223,68153,1,8,2:1:0:0:
45,223,68228,1,0,1:0:0:0:
45,223,68303,1,0,1:0:0:0:
158,326,68453,6,0,P|240:312|340:296,1,180,2|0,1:2|2:0,2:0:0:0:
419,267,68903,1,0,2:0:0:0:
364,144,69053,2,0,P|339:199|372:233,1,90,8|0,2:0|2:0,2:0:0:0:
491,330,69353,2,0,P|494:288|504:233,1,90,0|0,1:0|2:0,2:0:0:0:
473,81,69653,6,0,P|380:67|292:46,1,180,2|0,1:2|1:0,2:0:0:0:
296,47,70028,1,0,1:0:0:0:
296,47,70103,1,8,1:2:0:0:
185,146,70253,2,0,P|245:140|258:94,1,90,8|0,2:0|2:0,2:0:0:0:
157,16,70553,1,8,2:1:0:0:
157,16,70628,1,0,1:0:0:0:
157,16,70703,1,0,1:0:0:0:
38,96,70853,6,0,P|49:153|55:288,1,180,2|0,1:2|2:0,2:0:0:0:
199,325,71303,2,0,P|222:281|120:234,1,180,2|0,2:0|2:0,2:0:0:0:
19,357,71753,2,0,P|64:348|114:341,1,90,2|0,1:0|2:0,2:0:0:0:
290,226,72053,6,0,B|361:238|361:238|390:269|390:269|468:281,1,180,2|0,1:2|1:0,2:0:0:0:
454,278,72428,1,0,1:0:0:0:
454,278,72503,1,8,1:2:0:0:
290,333,72653,1,8,2:0:0:0:
393,192,72803,1,0,2:0:0:0:
393,367,72953,1,8,2:1:0:0:
393,367,73028,1,0,1:0:0:0:
393,367,73103,1,0,1:0:0:0:
290,226,73253,6,0,B|194:193|208:266|102:227,1,180,14|0,1:2|2:0,2:0:0:0:
50,185,73703,1,0,2:0:0:0:
110,69,73853,2,0,P|132:115|106:162,1,90,8|0,2:0|2:0,2:0:0:0:
191,316,74153,2,0,P|195:269|205:220,1,90,0|0,1:0|2:0,2:0:0:0:
315,125,74453,6,0,P|256:125|207:20,1,180,2|0,1:2|1:0,2:0:0:0:
204,28,74828,1,0,1:0:0:0:
204,28,74903,1,8,1:2:0:0:
372,72,75053,2,0,P|396:121|380:169,1,90,8|0,2:0|2:0,2:0:0:0:
290,226,75353,1,8,2:1:0:0:
290,226,75428,1,0,1:0:0:0:
290,226,75503,1,0,1:0:0:0:
448,343,75653,6,0,P|453:289|467:159,1,180,2|0,1:2|2:0,2:0:0:0:
372,72,76103,1,0,2:0:0:0:
494,13,76253,2,0,P|488:54|442:75,1,90,8|0,2:0|2:0,2:0:0:0:
257,97,76553,2,0,P|263:56|309:35,1,90,0|0,1:0|2:0,2:0:0:0:
319,194,76853,6,0,P|259:179|123:155,1,180,2|0,1:2|1:0,2:0:0:0:
142,157,77228,1,0,1:0:0:0:
142,157,77303,1,8,1:2:0:0:
43,219,77453,2,0,P|35:172|28:116,1,90,8|0,2:0|2:0,2:0:0:0:
127,46,77753,1,8,2:1:0:0:
127,46,77828,1,0,1:0:0:0:
127,46,77903,1,0,1:0:0:0:
168,242,78053,6,0,B|208:231|221:200|221:200|281:182|332:222,1,180,2|0,1:2|2:0,2:0:0:0:
471,137,78503,1,0,2:0:0:0:
402,72,78653,2,0,P|392:127|389:182,1,90,8|0,2:0|2:0,2:0:0:0:
432,310,78953,2,0,P|442:255|445:200,1,90,0|0,1:0|2:0,2:0:0:0:
314,102,79253,5,2,1:2:0:0:
484,44,79403,1,0,2:0:0:0:
397,166,79553,1,0,1:0:0:0:
397,166,79628,1,0,1:0:0:0:
397,166,79703,1,8,1:2:0:0:
336,16,79853,5,8,2:0:0:0:
292,189,80003,1,0,2:0:0:0:
210,80,80153,1,8,2:1:0:0:
210,80,80228,1,0,1:0:0:0:
210,80,80303,1,0,1:0:0:0:
210,80,80378,1,0,1:0:0:0:
210,80,80453,6,0,P|167:109|180:29,1,180,6|0,1:2|2:0,2:0:0:0:
292,189,80903,1,8,2:1:0:0:
292,189,81053,2,0,P|245:183|200:177,1,90,0|0,1:0|2:0,2:0:0:0:
229,285,81353,2,0,P|276:279|321:273,1,90,8|0,2:1|2:0,2:0:0:0:
437,178,81653,5,0,1:0:0:0:
437,178,81728,1,0,1:0:0:0:
437,178,81803,1,8,2:1:0:0:
384,106,81953,1,0,1:0:0:0:
304,122,82103,1,2,2:0:0:0:
136,175,82253,6,0,P|116:137|126:87,1,90,8|2,2:1|2:0,2:0:0:0:
205,43,82553,1,8,2:1:0:0:
221,137,82703,1,0,1:0:0:0:
221,137,82778,1,0,1:0:0:0:
221,137,82853,6,0,P|213:204|203:317,1,180,14|0,1:2|2:0,2:0:0:0:
120,258,83303,1,0,2:0:0:0:
290,286,83453,2,0,P|337:293|392:303,1,90,8|0,2:0|2:0,2:0:0:0:
499,220,83753,1,0,1:0:0:0:
499,220,83903,1,0,2:0:0:0:
425,136,84053,6,0,B|372:188|397:252|397:252|370:289|382:330,1,180,2|0,1:2|1:0,2:0:0:0:
378,300,84428,1,0,1:0:0:0:
378,300,84503,1,8,1:2:0:0:
305,165,84653,2,0,P|269:148|199:135,1,90,8|0,2:0|2:0,2:0:0:0:
369,59,84953,1,8,2:1:0:0:
369,59,85028,1,0,1:0:0:0:
369,59,85103,1,0,1:0:0:0:
369,59,85178,1,0,1:0:0:0:
369,59,85253,6,0,P|428:44|511:125,1,180,2|0,1:2|2:0,2:0:0:0:
390,214,85703,1,0,2:0:0:0:
474,285,85853,2,0,P|477:241|484:187,1,90,8|0,2:0|2:0,2:0:0:0:
314,127,86153,2,0,P|311:171|304:225,1,90,0|0,1:0|2:0,2:0:0:0:
212,333,86453,6,0,B|121:284|116:366|30:319,1,180,2|0,1:2|1:0,2:0:0:0:
39,323,86828,1,0,1:0:0:0:
39,323,86903,1,8,1:2:0:0:
0,204,87053,2,0,P|39:198|96:187,1,90,8|0,2:0|2:0,2:0:0:0:
167,66,87353,1,8,2:1:0:0:
167,66,87428,1,0,1:0:0:0:
167,66,87503,1,0,1:0:0:0:
167,66,87578,1,0,1:0:0:0:
167,66,87653,6,0,P|126:42|30:128,1,180,2|0,1:2|2:0,2:0:0:0:
155,221,88103,1,0,2:0:0:0:
78,271,88253,2,0,P|72:226|73:166,1,90,8|0,2:0|2:0,2:0:0:0:
199,64,88553,2,0,P|205:109|204:169,1,90,0|0,1:0|2:0,2:0:0:0:
303,282,88853,6,0,P|371:304|452:226,1,180,2|0,1:2|1:0,2:0:0:0:
448,240,89228,1,0,1:0:0:0:
448,240,89303,1,8,1:2:0:0:
390,96,89453,2,0,P|395:160|396:206,1,90,8|0,2:0|2:0,2:0:0:0:
303,282,89753,1,8,2:1:0:0:
303,282,89828,1,0,1:0:0:0:
303,282,89903,1,0,1:0:0:0:
303,282,89978,1,0,1:0:0:0:
303,282,90053,6,0,B|210:243|205:333|106:279,1,180,2|0,1:2|2:0,2:0:0:0:
17,365,90503,2,0,P|27:309|44:170,1,180,2|0,2:0|2:0,2:0:0:0:
150,136,90953,2,0,P|154:179|102:209,1,90,2|0,1:0|2:0,2:0:0:0:
0,101,91253,6,0,B|74:87|74:87|101:60|101:60|188:44,1,180,2|0,1:2|1:0,2:0:0:0:
166,47,91628,1,0,1:0:0:0:
166,47,91703,1,8,1:2:0:0:
276,160,91853,2,0,P|318:166|375:177,1,90,8|0,2:0|2:0,2:0:0:0:
435,22,92153,1,8,2:1:0:0:
435,22,92228,1,0,1:0:0:0:
435,22,92303,1,0,1:0:0:0:
435,22,92378,1,0,1:0:0:0:
435,22,92453,6,0,P|374:2|347:103,1,180,14|0,1:2|2:0,2:0:0:0:
415,236,92903,1,0,2:0:0:0:
506,130,93053,2,0,P|464:124|407:113,1,90,8|0,2:0|2:0,2:0:0:0:
342,271,93353,2,0,P|375:310|440:309,1,90,0|0,1:0|2:0,2:0:0:0:
261,356,93653,6,0,P|208:346|82:331,1,180,2|0,1:2|1:0,2:0:0:0:
82,331,94028,1,0,1:0:0:0:
82,331,94103,1,8,1:2:0:0:
0,172,94253,2,0,P|42:166|85:211,1,90,8|0,2:0|2:0,2:0:0:0:
182,313,94553,1,8,2:1:0:0:
182,313,94628,1,0,1:0:0:0:
182,313,94703,1,0,1:0:0:0:
182,313,94778,1,0,1:0:0:0:
182,313,94853,6,0,P|189:219|204:109,1,180,2|0,1:2|2:0,2:0:0:0:
340,91,95303,1,0,2:0:0:0:
233,48,95453,2,0,P|190:57|135:67,1,90,8|0,2:0|2:0,2:0:0:0:
304,159,95753,2,0,P|354:171|397:143,1,90,0|0,1:0|2:0,2:0:0:0:
489,49,96053,6,0,P|476:126|468:259,1,180,2|0,1:2|1:0,2:0:0:0:
468,227,96428,1,0,1:0:0:0:
468,227,96503,1,8,1:2:0:0:
409,354,96653,2,0,P|387:323|401:269,1,90,8|0,2:0|2:0,2:0:0:0:
304,159,96953,1,8,2:1:0:0:
304,159,97028,1,0,1:0:0:0:
304,159,97103,1,0,1:0:0:0:
304,159,97178,1,0,1:0:0:0:
304,159,97253,6,0,P|253:170|199:178,1,90,2|0,1:2|2:0,2:0:0:0:
169,246,97553,2,0,P|119:230|68:209,1,90,8|0,1:0|2:0,2:0:0:0:
128,55,97853,2,0,P|139:115|144:165,1,90,8|0,2:0|2:0,2:0:0:0:
264,344,98153,2,0,P|253:284|248:234,1,90,8|0,1:0|2:0,2:0:0:0:
292,87,98453,6,0,P|333:87|368:140,1,90,10|0,1:2|2:0,2:0:0:0:
477,210,98753,1,0,1:0:0:0:
477,210,98828,1,0,1:0:0:0:
477,210,98903,1,8,1:2:0:0:
365,293,99053,2,0,P|356:235|351:180,1,90,8|0,2:0|2:0,2:0:0:0:
448,32,99353,2,0,P|457:90|462:145,1,90,8|0,2:1|1:0,2:0:0:0:
352,203,99653,5,14,1:2:0:0:
304,268,99803,1,8,2:0:0:0:
227,243,99953,1,8,1:0:0:0:
227,162,100103,1,8,2:0:0:0:
309,121,100253,5,8,1:0:0:0:
309,283,100403,1,8,2:0:0:0:
213,152,100553,1,8,1:0:0:0:
368,203,100703,1,8,2:0:0:0:
211,252,100853,5,10,1:0:0:0:
211,252,100928,1,0,1:0:0:0:
211,252,101003,2,0,L|161:243,3,45,0|0|0|0,1:0|1:0|1:0|2:0,2:0:0:0:
88,191,101303,2,0,L|38:200,5,45,8|8|8|8|8|0,1:3|2:3|2:3|2:3|2:3|2:0,2:0:0:0:
165,140,101753,5,10,1:2:0:0:
166,130,101828,1,2,2:0:0:0:
167,120,101903,1,2,2:0:0:0:
169,110,101978,1,2,2:0:0:0:
170,100,102053,5,14,2:0:0:0:
